osu file format v14

[General]
AudioFilename: audio.mp3
AudioLeadIn: 0
PreviewTime: 96029
Countdown: 0
SampleSet: Soft
StackLeniency: 0.5
Mode: 0
LetterboxInBreaks: 0
WidescreenStoryboard: 1

[Editor]
Bookmarks: 90399
DistanceSpacing: 0.9
BeatDivisor: 2
GridSize: 8
TimelineZoom: 1.1

[Metadata]
Title:Journey
TitleUnicode:Journey
Artist:ARForest
ArtistUnicode:ARForest
Creator:Fall
Version:newton's Easy
Source:Lanota
Tags:video game instrumental electronic artcore Noxy Games newton- Stack ggf Gottagof4st _tranquility Namki Altai
BeatmapID:1668235
BeatmapSetID:788907

[Difficulty]
HPDrainRate:3
CircleSize:3
OverallDifficulty:2.5
ApproachRate:3.5
SliderMultiplier:1
SliderTickRate:1

[Events]
//Background and Video events
0,0,"journey.jpg",0,0
//Break Periods
//Storyboard Layer 0 (Background)
//Storyboard Layer 1 (Fail)
//Storyboard Layer 2 (Pass)
//Storyboard Layer 3 (Foreground)
//Storyboard Layer 4 (Overlay)
//Storyboard Sound Samples

[TimingPoints]
29,300,4,2,2,50,1,0
9629,-100,4,2,2,60,0,0
17729,-100,4,2,2,60,0,0
19229,-100,4,2,2,60,0,0
28829,-100,4,2,0,65,0,0
29729,-100,4,2,0,65,0,0
38429,-100,4,2,2,60,0,0
38729,-100,4,2,2,60,0,0
41429,-100,4,2,2,65,0,0
41729,-100,4,2,2,65,0,0
46229,-100,4,2,2,65,0,0
46529,-100,4,2,2,65,0,0
48029,-100,4,2,2,65,0,0
51029,-100,4,2,2,65,0,0
51329,-100,4,2,2,65,0,0
55829,-100,4,2,2,65,0,0
56129,-100,4,2,2,65,0,0
56429,-100,4,2,2,65,0,0
57629,-100,4,2,0,70,0,0
58079,-100,4,2,0,70,0,0
58529,-100,4,2,0,70,0,0
58979,-100,4,2,0,70,0,0
59429,-100,4,2,0,70,0,0
59729,-100,4,2,0,70,0,0
60029,-100,4,2,0,70,0,0
60479,-100,4,2,0,70,0,0
60929,-100,4,2,0,50,0,0
61379,-100,4,2,0,70,0,0
61829,-100,4,2,0,70,0,0
62129,-100,4,2,0,70,0,0
62429,-100,4,2,0,70,0,0
62879,-100,4,2,0,70,0,0
63329,-100,4,2,0,70,0,0
63779,-100,4,2,0,70,0,0
64229,-100,4,2,0,70,0,0
64529,-100,4,2,0,70,0,0
64829,-100,4,2,0,70,0,0
65279,-100,4,2,0,70,0,0
65729,-100,4,2,0,70,0,0
66029,-100,4,2,0,70,0,0
66179,-100,4,2,0,70,0,0
66629,-100,4,2,0,70,0,0
66929,-100,4,2,0,70,0,0
67229,-100,4,2,0,70,0,0
69029,-100,4,2,0,70,0,0
69329,-100,4,2,0,50,0,0
69629,-100,4,2,0,70,0,0
71429,-100,4,2,0,70,0,0
71729,-100,4,2,0,70,0,0
72029,-100,4,2,0,70,0,0
73829,-100,4,2,0,70,0,0
74129,-100,4,2,0,70,0,0
74429,-100,4,2,0,70,0,0
76229,-100,4,2,0,70,0,0
76529,-100,4,2,0,70,0,0
76604,-100,4,2,0,70,0,0
76829,-100,4,2,0,65,0,0
93629,-100,4,2,0,80,0,0
94829,-100,4,2,1,80,0,0
96029,-100,4,2,1,90,0,1
115229,-100,4,2,1,60,0,0

[Colours]
Combo1 : 221,187,170
Combo2 : 148,208,237
Combo3 : 155,206,200
Combo4 : 101,202,235
Combo5 : 111,215,175
Combo6 : 134,168,230

[HitObjects]
79,77,29,6,0,B|126:61|169:99|169:99|209:140|261:123,1,200
423,42,1229,2,0,B|431:133|431:133|420:146|420:146|428:242,1,200
435,327,2129,1,0,0:0:0:0:
354,288,2429,2,0,L|150:305,1,200
98,134,3629,2,0,L|-1:125,2,100
188,143,4529,1,0,0:0:0:0:
240,68,4829,6,0,P|324:82|266:151,1,200
98,134,6029,2,0,B|106:225|106:225|95:238|95:238|103:334,1,200
192,338,6929,1,0,0:0:0:0:
280,346,7229,2,0,B|327:361|370:323|370:323|410:282|462:299,1,200
481,119,8429,2,0,L|490:20,2,100
399,157,9329,1,0,0:0:0:0:
325,104,9629,6,0,B|278:89|235:127|235:127|195:168|143:151,1,200,2|0,0:0|0:0,0:0:0:0:
80,84,10529,1,2,0:0:0:0:
53,171,10829,2,0,L|70:375,1,200,2|0,0:0|0:0,0:0:0:0:
249,354,12029,2,8,B|340:346|340:346|350:332|350:332|446:324,1,200,2|0,0:0|0:0,0:0:0:0:
488,247,12929,1,2,0:0:0:0:
443,168,13229,2,0,L|343:159,1,100,2|0,0:0|0:0,0:0:0:0:
298,80,13829,2,0,L|198:88,1,100
122,40,14429,6,0,B|93:80|116:132|116:132|142:183|110:227,1,200,2|0,0:0|0:0,0:0:0:0:
36,281,15329,1,2,0:0:0:0:
118,318,15629,2,0,L|322:301,1,200,2|2,0:0|0:0,0:0:0:0:
469,204,16829,2,0,B|377:196|377:196|367:182|367:182|271:174,1,200,2|0,0:0|0:0,0:0:0:0:
185,166,17729,1,0,0:0:0:0:
94,157,18029,2,0,L|103:264,2,100
199,10,19229,6,8,B|246:-6|289:32|289:32|329:73|381:56,1,200,6|0,0:0|0:0,0:0:0:0:
468,28,20129,1,2,0:0:0:0:
449,115,20429,2,0,L|432:319,1,200,2|0,0:0|0:0,0:0:0:0:
252,331,21629,2,8,B|204:301|204:301|60:313,1,200,2|0,0:0|0:0,0:0:0:0:
13,237,22529,1,2,0:0:0:0:
56,158,22829,2,0,L|155:149,1,100,2|0,0:0|0:0,0:0:0:0:
230,198,23429,2,0,P|245:151|232:103,1,100,0|8,0:0|0:0,0:0:0:0:
187,27,24029,6,8,B|277:18|277:18|289:30|289:30|381:22,1,200,2|0,0:0|0:0,0:0:0:0:
470,12,24929,1,2,0:0:0:0:
435,94,25229,2,0,L|452:298,1,200,2|0,0:0|0:0,0:0:0:0:
278,242,26429,2,8,B|231:226|188:264|188:264|148:305|96:288,1,200,2|0,0:0|0:0,0:0:0:0:
36,220,27329,1,0,0:0:0:0:
124,202,27629,2,0,L|115:102,1,100,2|0,0:0|0:0,0:0:0:0:
70,25,28229,2,0,P|117:12|164:27,1,100,2|0,0:0|0:0,0:0:0:0:
204,106,28829,6,0,B|252:136|252:136|393:125,1,150,4|2,0:0|0:0,0:0:0:0:
479,114,29729,1,10,0:0:0:0:
410,278,30329,2,0,L|419:385,2,100,2|10|2,0:0|0:0|0:0,0:0:0:0:
321,259,31229,2,0,B|285:246|253:275|253:275|222:306|183:293,1,150,2|2,0:0|0:0,0:0:0:0:
52,259,32129,1,10,0:0:0:0:
156,112,32729,2,0,L|147:5,2,100,2|10|0,0:0|0:0|0:0,0:0:0:0:
223,171,33629,6,0,B|290:164|290:164|300:173|300:173|369:167,1,150,2|2,0:0|0:0,0:0:0:0:
503,156,34529,1,10,0:0:0:0:
401,10,35129,2,0,L|501:1,2,100,2|10|0,0:0|0:0|0:0,0:0:0:0:
327,62,36029,2,0,L|137:46,1,150,2|2,0:0|0:0,0:0:0:0:
42,39,36929,1,8,0:0:0:0:
65,215,37529,2,0,L|56:315,2,100,2|2|2,0:0|0:0|0:0,0:0:0:0:
153,199,38429,6,0,B|200:183|243:221|243:221|283:262|335:245,1,200,12|8,0:0|0:0,0:0:0:0:
400,179,39329,1,0,0:0:0:0:
465,242,39629,2,0,B|495:194|495:194|483:50,1,200,8|8,0:0|0:0,0:0:0:0:
303,65,40829,2,0,L|99:82,1,200,8|8,0:0|0:0,0:0:0:0:
13,91,41729,1,0,0:0:0:0:
66,165,42029,2,0,L|75:276,2,100,8|0|8,0:0|0:0|0:0,0:0:0:0:
174,308,43229,6,0,B|221:324|264:286|264:286|304:245|356:262,1,200,8|8,0:0|0:0,0:0:0:0:
437,303,44129,1,0,0:0:0:0:
499,238,44429,2,0,L|482:34,1,200,8|8,0:0|0:0,0:0:0:0:
304,9,45629,2,0,B|297:99|297:99|283:108|283:108|275:200,1,200,8|8,0:0|0:0,0:0:0:0:
222,274,46529,1,0,0:0:0:0:
295,325,46829,2,0,L|394:316,2,100,8|0|8,0:0|0:0|0:0,0:0:0:0:
207,167,48029,6,0,B|153:149|113:190|113:190|70:228|23:212,1,200,8|10,0:0|0:0,0:0:0:0:
11,122,48929,1,0,0:0:0:0:
72,56,49229,2,0,L|276:39,1,200,10|8,0:0|0:0,0:0:0:0:
448,72,50429,2,0,B|455:162|455:162|469:171|469:171|477:263,1,200,8|8,2:0|2:0,2:0:0:0:
440,346,51329,1,2,0:0:0:0:
392,269,51629,2,0,L|281:278,1,100,8|2,0:0|0:0,0:0:0:0:
283,366,52229,2,0,L|172:357,1,100,8|2,0:0|0:0,0:0:0:0:
101,324,52829,6,0,B|71:276|71:276|83:132,1,200,8|8,0:0|0:0,0:0:0:0:
93,43,53729,1,0,0:0:0:0:
166,97,54029,2,0,B|213:113|256:75|256:75|296:34|348:51,1,200,8|8,0:0|0:0,0:0:0:0:
478,177,55229,2,0,L|274:194,1,200,10|8,0:0|0:0,0:0:0:0:
189,205,56129,1,0,0:0:0:0:
242,276,56429,1,4,0:0:0:0:
242,276,57629,6,0,B|289:260|332:298|332:298|372:339|425:321,2,200,2|2|2,0:0|0:0|0:0,0:0:0:0:
69,328,59429,2,0,L|78:229,1,100,2|2,0:0|0:0,0:0:0:0:
85,138,60029,2,0,B|175:131|175:131|184:117|184:117|276:109,2,200,2|2|2,0:0|0:0|0:0,0:0:0:0:
222,21,61829,2,0,L|321:12,1,100,2|8,0:0|0:0,0:0:0:0:
402,51,62429,6,0,B|372:99|372:99|384:243,2,200,2|2|2,0:0|0:0|0:0,0:0:0:0:
473,216,64229,2,0,L|482:315,1,100,2|2,0:0|0:0,0:0:0:0:
393,335,64829,2,0,B|339:352|299:311|299:311|256:273|209:289,1,200,2|2,0:0|0:0,0:0:0:0:
35,335,66029,1,2,0:0:0:0:
82,161,66629,2,0,L|73:62,1,100,2|2,0:0|0:0,0:0:0:0:
162,68,67229,6,0,B|252:75|252:75|261:89|261:89|353:97,1,200,2|8,0:0|0:0,0:0:0:0:
443,105,68129,1,2,0:0:0:0:
392,178,68429,2,0,L|383:277,1,100,2|0,0:0|0:0,0:0:0:0:
369,366,69029,1,10,0:0:0:0:
200,301,69629,2,0,B|153:285|110:323|110:323|70:364|17:346,1,200,2|8,0:0|0:0,0:0:0:0:
46,261,70529,1,2,0:0:0:0:
75,176,70829,2,0,L|66:77,1,100,2|0,0:0|0:0,0:0:0:0:
147,37,71429,2,0,P|194:24|241:39,1,100,10|10,0:0|0:0,0:0:0:0:
321,82,72029,6,0,B|369:52|369:52|513:64,1,200,2|8,0:0|0:0,0:0:0:0:
493,152,72929,1,2,0:0:0:0:
474,240,73229,2,0,L|375:249,1,100,2|0,0:0|0:0,0:0:0:0:
284,257,73829,1,10,0:0:0:0:
126,169,74429,2,0,B|216:162|216:162|225:148|225:148|317:140,1,200,2|8,0:0|0:0,0:0:0:0:
378,73,75329,1,2,0:0:0:0:
311,12,75629,2,0,L|212:21,1,100,2|2,0:0|0:0,0:0:0:0:
134,68,76229,2,0,L|35:59,1,100,8|8,0:0|0:0,0:0:0:0:
6,144,76829,6,0,B|36:192|36:192|24:336,1,200,8|2,3:0|0:2,0:0:0:0:
112,319,77729,1,10,3:0:0:0:
288,285,78329,2,0,L|279:384,2,100,10|10|2,0:0|0:0|0:0,0:0:0:0:
376,267,79229,2,0,L|359:63,1,200,10|2,3:0|0:2,0:0:0:0:
277,29,80129,1,10,3:0:0:0:
100,66,80729,2,0,L|1:57,2,100,10|8|10,0:0|0:0|0:0,0:0:0:0:
175,115,81629,6,0,B|168:205|168:205|154:214|154:214|146:306,1,200,10|2,3:0|0:2,0:0:0:0:
220,357,82529,1,10,3:0:0:0:
391,302,83129,2,0,L|490:293,2,100,10|10|2,0:0|0:0|0:0,0:0:0:0:
313,255,84029,2,0,B|320:165|320:165|334:156|334:156|342:64,1,200,10|2,3:0|0:2,0:0:0:0:
268,11,84929,2,0,B|221:-5|178:33|178:33|138:74|85:56,1,200,10|10,3:0|0:0,0:0:0:0:
17,115,85829,2,0,L|26:214,1,100,10|2,3:0|0:0,0:0:0:0:
0,301,86429,6,0,B|47:317|90:279|90:279|130:238|183:256,1,200,10|2,3:0|0:2,0:0:0:0:
257,307,87329,1,10,3:0:0:0:
436,311,87929,1,10,0:0:0:0:
446,221,88229,2,0,L|455:122,1,100,10|2,0:0|0:0,0:0:0:0:
463,31,88829,2,0,B|373:38|373:38|364:52|364:52|272:60,1,200,10|2,3:0|0:2,0:0:0:0:
181,69,89729,1,10,3:0:0:0:
2,43,90329,1,10,0:0:0:0:
12,133,90629,2,0,L|21:232,1,100,8|10,0:0|0:0,0:0:0:0:
100,275,91229,6,0,B|147:259|190:297|190:297|230:338|283:320,1,200,10|2,3:0|0:2,0:0:0:0:
367,287,92129,1,10,3:0:0:0:
349,107,92729,2,0,L|340:8,2,100,10|10|2,0:0|0:0|0:0,0:0:0:0:
411,171,93629,6,0,B|259:253|259:253|10:268,1,400,12|0,3:0|0:0,0:0:0:0:
349,107,96029,6,0,L|250:116,1,100,4|8,3:2|1:2,0:0:0:0:
192,185,96629,2,0,L|93:176,1,100,0|8,1:2|1:2,0:0:0:0:
18,225,97229,2,0,P|3:178|16:130,2,100,0|8|0,1:2|1:2|1:2,0:0:0:0:
98,265,98129,1,8,3:2:0:0:
178,305,98429,2,0,L|277:296,1,100,0|0,3:2|3:2,0:0:0:0:
322,218,99029,2,0,L|421:227,1,100,0|8,1:2|1:2,0:0:0:0:
497,178,99629,2,0,P|512:225|499:273,2,100,0|8|0,1:2|1:2|3:2,0:0:0:0:
416,137,100529,1,8,1:2:0:0:
335,96,100829,6,0,L|236:105,1,100,0|8,3:2|1:2,0:0:0:0:
160,56,101429,2,0,P|145:103|158:151,1,100,0|8,1:0|1:0,0:0:0:0:
236,194,102029,2,0,P|248:241|233:288,2,100,0|8|0,1:0|1:0|1:0,0:0:0:0:
158,239,102929,1,8,1:0:0:0:
154,329,103229,2,0,P|187:366|235:379,1,100,2|8,3:2|1:0,0:0:0:0:
312,333,103829,2,0,L|411:341,1,100,0|10,1:0|1:0,0:0:0:0:
469,272,104429,2,0,P|481:224|466:177,1,100,8|8,1:0|0:0,0:0:0:0:
406,109,105029,1,2,3:2:0:0:
345,40,105329,1,2,3:2:0:0:
254,58,105629,6,0,L|154:49,1,100,0|8,3:0|1:2,0:0:0:0:
76,6,106229,2,0,P|63:53|78:100,1,100,0|8,1:0|1:2,0:0:0:0:
160,141,106829,2,0,L|259:149,2,100,0|8|0,1:0|1:2|1:0,0:0:0:0:
83,191,107729,1,8,1:2:0:0:
166,233,108029,2,0,L|265:241,1,100,0|0,3:0|3:2,0:0:0:0:
275,331,108629,2,0,L|374:322,1,100,0|8,1:0|1:2,0:0:0:0:
450,273,109229,2,0,P|464:320|452:367,2,100,0|8|0,1:0|0:0|3:0,0:0:0:0:
370,232,110129,1,8,1:0:0:0:
364,142,110429,6,0,L|372:42,1,100,10|2,1:2|3:2,0:0:0:0:
290,5,111029,2,0,P|242:-9|195:2,1,100,0|10,3:0|0:0,0:0:0:0:
116,47,111629,2,0,L|16:38,1,100,2|2,3:2|3:2,0:0:0:0:
29,127,112229,1,10,0:0:0:0:
41,215,112529,1,10,0:0:0:0:
53,303,112829,6,0,L|152:311,1,100,10|10,1:0|1:0,0:0:0:0:
185,227,113429,2,0,L|284:218,1,100,10|10,1:0|1:0,0:0:0:0:
333,294,114029,1,14,0:0:0:0:
420,271,114329,1,2,3:2:0:0:
425,181,114629,2,0,L|474:185,2,50,10|2|8,0:0|3:2|1:0,0:0:0:0:
340,148,115229,1,14,1:0:0:0:
