osu file format v14

[General]
AudioFilename: audio.mp3
AudioLeadIn: 0
PreviewTime: 96029
Countdown: 0
SampleSet: Soft
StackLeniency: 0.4
Mode: 0
LetterboxInBreaks: 0
WidescreenStoryboard: 1

[Editor]
Bookmarks: 10299,19899,29499,39099,48699,58299,67899,77499,87099,96699,106299,115899,125499
DistanceSpacing: 0.3
BeatDivisor: 4
GridSize: 4
TimelineZoom: 1.8

[Metadata]
Title:Journey
TitleUnicode:Journey
Artist:ARForest
ArtistUnicode:ARForest
Creator:Fall
Version:Stack's Insane
Source:Lanota
Tags:video game instrumental electronic artcore Noxy Games newton- Stack ggf Gottagof4st _tranquility Namki Altai
BeatmapID:1676094
BeatmapSetID:788907

[Difficulty]
HPDrainRate:5
CircleSize:3.7
OverallDifficulty:7.5
ApproachRate:9
SliderMultiplier:1.4
SliderTickRate:1

[Events]
//Background and Video events
0,0,"journey.jpg",0,0
//Break Periods
//Storyboard Layer 0 (Background)
//Storyboard Layer 1 (Fail)
//Storyboard Layer 2 (Pass)
//Storyboard Layer 3 (Foreground)
//Storyboard Layer 4 (Overlay)
//Storyboard Sound Samples

[TimingPoints]
29,300,4,2,2,50,1,0
29,-142.857142857143,4,2,2,50,0,0
9629,-117.647058823529,4,2,2,60,0,0
19229,-133.333333333333,4,2,2,60,0,0
28829,-117.647058823529,4,2,0,65,0,0
38429,-250,4,2,2,60,0,0
41429,-250,4,2,2,65,0,0
48029,-125,4,2,2,65,0,0
57629,-90.9090909090909,4,2,0,70,0,0
57704,-90.9090909090909,4,2,0,5,0,0
58079,-90.9090909090909,4,2,0,70,0,0
58154,-90.9090909090909,4,2,0,5,0,0
58529,-90.9090909090909,4,2,0,70,0,0
58604,-90.9090909090909,4,2,0,5,0,0
58979,-90.9090909090909,4,2,0,70,0,0
59054,-90.9090909090909,4,2,0,5,0,0
59429,-90.9090909090909,4,2,0,70,0,0
59504,-90.9090909090909,4,2,0,5,0,0
59729,-90.9090909090909,4,2,0,70,0,0
59804,-90.9090909090909,4,2,0,5,0,0
60029,-90.9090909090909,4,2,0,70,0,0
60104,-90.9090909090909,4,2,0,5,0,0
60479,-90.9090909090909,4,2,0,70,0,0
60554,-90.9090909090909,4,2,0,5,0,0
60929,-90.9090909090909,4,2,0,50,0,0
61004,-90.9090909090909,4,2,0,5,0,0
61379,-90.9090909090909,4,2,0,70,0,0
61454,-90.9090909090909,4,2,0,5,0,0
61829,-90.9090909090909,4,2,0,70,0,0
61904,-90.9090909090909,4,2,0,5,0,0
62129,-90.9090909090909,4,2,0,70,0,0
62204,-90.9090909090909,4,2,0,5,0,0
62429,-90.9090909090909,4,2,0,70,0,0
62504,-90.9090909090909,4,2,0,5,0,0
62879,-90.9090909090909,4,2,0,70,0,0
62954,-90.9090909090909,4,2,0,5,0,0
63329,-90.9090909090909,4,2,0,70,0,0
63404,-90.9090909090909,4,2,0,5,0,0
63779,-90.9090909090909,4,2,0,70,0,0
63854,-90.9090909090909,4,2,0,5,0,0
64229,-90.9090909090909,4,2,0,70,0,0
64304,-90.9090909090909,4,2,0,5,0,0
64529,-90.9090909090909,4,2,0,70,0,0
64604,-90.9090909090909,4,2,0,5,0,0
64829,-90.9090909090909,4,2,0,70,0,0
64904,-90.9090909090909,4,2,0,5,0,0
65279,-90.9090909090909,4,2,0,70,0,0
65354,-90.9090909090909,4,2,0,5,0,0
65729,-90.9090909090909,4,2,0,70,0,0
65804,-90.9090909090909,4,2,0,5,0,0
66179,-90.9090909090909,4,2,0,70,0,0
66254,-90.9090909090909,4,2,0,5,0,0
66629,-90.9090909090909,4,2,0,70,0,0
66704,-90.9090909090909,4,2,0,5,0,0
66929,-90.9090909090909,4,2,0,70,0,0
67004,-90.9090909090909,4,2,0,5,0,0
67229,-142.857142857143,4,2,0,70,0,0
68579,-90.9090909090909,4,2,0,70,0,0
68654,-90.9090909090909,4,2,0,5,0,0
69029,-90.9090909090909,4,2,0,70,0,0
69104,-90.9090909090909,4,2,0,5,0,0
69329,-90.9090909090909,4,2,0,50,0,0
69404,-90.9090909090909,4,2,0,5,0,0
69629,-142.857142857143,4,2,0,70,0,0
70979,-90.9090909090909,4,2,0,70,0,0
71054,-90.9090909090909,4,2,0,5,0,0
71429,-90.9090909090909,4,2,0,70,0,0
71504,-90.9090909090909,4,2,0,5,0,0
71729,-90.9090909090909,4,2,0,70,0,0
71804,-90.9090909090909,4,2,0,5,0,0
72029,-142.857142857143,4,2,0,70,0,0
73379,-90.9090909090909,4,2,0,70,0,0
73454,-100,4,2,0,5,0,0
73829,-90.9090909090909,4,2,0,70,0,0
73904,-90.9090909090909,4,2,0,5,0,0
74129,-90.9090909090909,4,2,0,70,0,0
74204,-90.9090909090909,4,2,0,5,0,0
74429,-142.857142857143,4,2,0,70,0,0
75779,-90.9090909090909,4,2,0,70,0,0
75854,-90.9090909090909,4,2,0,5,0,0
76229,-90.9090909090909,4,2,0,70,0,0
76304,-90.9090909090909,4,2,0,5,0,0
76529,-90.9090909090909,4,2,0,70,0,0
76604,-90.9090909090909,4,2,0,5,0,0
76829,-90.9090909090909,4,2,0,65,0,0
93629,-90.9090909090909,4,2,0,80,0,0
94829,-142.857142857143,4,2,1,80,0,0
96029,-76.923076923077,4,2,1,90,0,0
112835,-71.4285714285714,4,2,1,90,0,0
115229,-71.4285714285714,4,2,1,60,0,0

[Colours]
Combo1 : 221,187,170
Combo2 : 148,208,237
Combo3 : 155,206,200
Combo4 : 101,202,235
Combo5 : 111,215,175
Combo6 : 134,168,230

[HitObjects]
115,235,29,6,0,P|157:205|206:279,1,146.999995513916
90,248,1229,2,0,P|87:191|138:117,1,146.999995513916
161,104,1829,1,0,0:0:0:0:
71,273,2129,1,0,0:0:0:0:
71,273,2429,2,0,L|46:127,1,146.999995513916
38,96,3029,1,0,0:0:0:0:
157,52,3329,1,0,0:0:0:0:
274,143,3629,6,0,L|375:149,2,97.9999970092775
186,221,4529,1,0,0:0:0:0:
351,335,4829,2,0,P|294:301|218:328,1,146.999995513916
199,348,5429,1,0,0:0:0:0:
377,352,5729,1,0,0:0:0:0:
377,352,6029,2,0,L|287:222,1,146.999995513916
279,206,6629,1,0,0:0:0:0:
404,366,6929,1,0,0:0:0:0:
454,161,7229,6,0,P|394:142|360:149,1,97.9999970092775
279,206,7679,2,0,P|219:225|185:218,1,97.9999970092775
115,159,8129,1,0,0:0:0:0:
30,277,8429,2,0,L|36:381,2,97.9999970092775
115,159,9329,1,0,0:0:0:0:
23,41,9629,6,0,L|151:35,1,119.000002269745,2|0,0:0|0:0,0:0:0:0:
223,91,10079,2,0,L|351:97,1,119.000002269745,2|0,0:0|0:0,0:0:0:0:
434,131,10529,2,0,P|442:167|441:195,1,59.5000011348725,2|0,0:0|0:0,0:0:0:0:
371,314,10829,2,0,B|306:318|260:350|260:350|206:332|141:332|141:332|167:256|250:265,1,357.000006809235,2|0,0:0|0:0,0:0:0:0:
227,264,12029,6,8,P|220:213|145:183,1,119.000002269745,2|0,0:0|0:0,0:0:0:0:
83,236,12479,2,0,P|32:229|2:154,1,119.000002269745,2|0,0:0|0:0,0:0:0:0:
28,83,12929,2,0,L|91:80,1,59.5000011348725,2|0,0:0|0:0,0:0:0:0:
237,31,13229,2,0,B|292:13|354:35|354:35|326:94|263:101|263:101|304:124|335:198,1,357.000006809235,2|0,0:0|0:0,0:0:0:0:
333,195,14429,6,0,L|464:204,1,119.000002269745,2|0,0:0|0:0,0:0:0:0:
511,282,14879,2,0,L|380:291,1,119.000002269745,2|0,0:0|0:0,0:0:0:0:
310,340,15329,2,0,L|244:335,1,59.5000011348725,2|0,0:0|0:0,0:0:0:0:
79,350,15629,2,0,B|37:285|53:233|53:233|77:211|120:190,1,178.500003404617,2|0,0:0|0:0,0:0:0:0:
203,224,16229,2,0,B|223:214|247:192|247:192|263:140|221:75,1,178.500003404617,2|0,0:0|0:0,0:0:0:0:
124,41,16829,6,0,B|202:11|238:73|297:44,1,178.500003404617,2|0,0:0|2:0,0:0:0:0:
431,0,17729,1,0,0:0:0:0:
431,0,18029,5,0,0:0:0:0:
456,91,18329,1,0,0:0:0:0:
429,182,18629,1,0,0:0:0:0:
465,269,18929,1,0,0:0:0:0:
351,348,19229,6,8,P|290:323|188:338,1,157.500006008148,6|2,0:0|0:0,0:0:0:0:
80,384,20129,1,2,0:0:0:0:
80,384,20429,5,2,0:0:0:0:
28,317,20729,1,0,0:0:0:0:
94,266,21029,1,0,0:0:0:0:
144,332,21329,1,2,0:0:0:0:
163,175,21629,6,8,B|122:168|122:168|57:178|57:178|0:170,1,157.500006008148,2|2,0:0|0:0,0:0:0:0:
23,58,22529,1,2,0:0:0:0:
23,58,22829,5,2,0:0:0:0:
104,36,23129,1,0,0:0:0:0:
180,106,23429,1,0,0:0:0:0:
261,84,23729,1,8,0:0:0:0:
395,113,24029,5,2,0:0:0:0:
395,113,24479,1,2,0:0:0:0:
509,248,24929,2,0,P|463:238|399:241,1,105.000004005432,2|2,0:0|0:0,0:0:0:0:
309,306,25529,2,0,P|263:316|199:313,1,105.000004005432
129,224,26129,1,0,0:0:0:0:
8,337,26429,5,2,0:0:0:0:
8,337,26879,1,0,0:0:0:0:
8,337,27329,1,0,0:0:0:0:
141,363,27629,6,0,L|186:357,7,26.2500010013581,2|0|0|0|0|0|0|0,0:0|0:0|0:0|0:0|0:0|0:0|0:0|0:0,0:0:0:0:
221,304,28229,2,0,L|266:310,7,26.2500010013581,2|0|0|0|0|0|0|0,0:0|0:0|0:0|0:0|0:0|0:0|0:0|0:0,0:0:0:0:
320,365,28829,6,0,B|318:245|318:245|346:307,1,178.500003404617,4|2,0:0|0:0,0:0:0:0:
342,298,29579,1,2,0:0:0:0:
456,226,29729,1,10,0:0:0:0:
456,226,30254,1,0,0:0:0:0:
446,209,30329,2,0,L|450:130,2,59.5000011348725,2|2|10,0:0|0:0|0:0,0:0:0:0:
342,298,30779,1,0,0:0:0:0:
342,298,31079,1,0,0:0:0:0:
284,221,31229,5,2,0:0:0:0:
230,371,31379,1,2,0:0:0:0:
0,221,31679,2,0,P|32:216|60:219,1,59.5000011348725,2|0,0:0|0:0,0:0:0:0:
186,241,31979,1,2,0:0:0:0:
94,144,32129,1,10,0:0:0:0:
94,144,32654,1,0,0:0:0:0:
75,124,32729,2,0,L|71:62,2,59.5000011348725,2|2|10,0:0|0:0|0:0,0:0:0:0:
171,180,33179,2,0,L|173:210,2,29.7500005674362
235,68,33479,1,2,0:0:0:0:
235,68,33554,1,2,0:0:0:0:
235,68,33629,5,2,0:0:0:0:
380,106,33779,1,2,0:0:0:0:
280,333,34079,2,0,L|278:257,1,59.5000011348725,2|0,0:0|0:0,0:0:0:0:
220,187,34379,1,2,0:0:0:0:
365,254,34529,1,10,0:0:0:0:
365,254,35054,1,0,0:0:0:0:
382,272,35129,2,0,L|442:278,2,59.5000011348725,2|2|10,0:0|0:0|0:0,0:0:0:0:
220,187,35579,1,0,0:0:0:0:
220,187,35879,5,2,0:0:0:0:
139,338,36029,1,2,0:0:0:0:
88,247,36179,1,2,0:0:0:0:
88,247,36479,2,0,L|83:173,1,59.5000011348725,2|0,0:0|0:0,0:0:0:0:
30,93,36779,2,0,L|39:59,2,29.7500005674362,2|0|8,0:0|0:0|0:0,0:0:0:0:
135,28,37079,1,0,0:0:0:0:
135,28,37379,6,0,L|182:15,5,29.7500005674362
227,76,37829,2,0,L|274:89,5,29.7500005674362
317,27,38279,1,0,0:0:0:0:
317,27,38354,1,0,0:0:0:0:
317,27,38429,6,0,P|367:29|378:86,1,112,12|8,0:0|0:0,0:0:0:0:
284,199,39329,2,0,L|281:233,1,28
299,312,39629,2,0,P|329:289|373:282,2,84,8|0|0,0:0|0:0|0:0,0:0:0:0:
233,360,40829,2,0,L|194:362,1,28,8|0,0:0|0:0,0:0:0:0:
123,365,41129,1,0,0:0:0:0:
29,229,41429,1,8,0:0:0:0:
29,223,41579,2,0,L|24:201,2,14
118,191,41879,1,0,0:0:0:0:
77,91,42029,6,0,L|58:81,6,14,8|0|0|0|0|0|0,0:0|0:0|0:0|0:0|0:0|0:0|0:0,0:0:0:0:
162,52,42629,2,0,L|201:45,2,28,8|0|0,0:0|0:0|0:0,0:0:0:0:
210,152,43229,6,0,P|252:165|312:127,1,112,8|8,0:0|0:0,0:0:0:0:
384,17,44129,1,0,0:0:0:0:
444,83,44279,2,0,L|465:85,2,14,0|0|8,0:0|0:0|0:0,0:0:0:0:
371,266,44879,1,0,0:0:0:0:
371,266,45329,2,0,L|351:268,3,14
300,327,45629,6,0,L|262:324,2,28,8|0|0,0:0|0:0|0:0,0:0:0:0:
167,367,46229,2,0,L|132:363,1,28,8|0,0:0|0:0,0:0:0:0:
33,351,46529,1,0,0:0:0:0:
33,351,46829,6,0,L|29:285,1,56,8|0,0:0|0:0,0:0:0:0:
95,190,47429,2,0,L|94:221,2,28,8|0|0,0:0|0:0|0:0,0:0:0:0:
33,52,48029,5,8,0:0:0:0:
115,38,48179,1,2,0:0:0:0:
178,93,48329,1,0,0:0:0:0:
260,78,48479,1,2,0:0:0:0:
339,187,48629,5,10,0:0:0:0:
339,187,49229,5,10,0:0:0:0:
367,108,49379,1,2,0:0:0:0:
446,136,49529,1,2,0:0:0:0:
418,215,49679,1,2,0:0:0:0:
330,319,49829,5,8,0:0:0:0:
330,319,50129,2,0,L|363:329,3,28,2|2|2|2,0:0|0:0|0:0|0:0,0:0:0:0:
283,303,50429,5,8,0:0:0:0:
201,323,50579,1,2,0:0:0:0:
119,342,50729,1,2,0:0:0:0:
37,361,50879,1,0,0:0:0:0:
64,250,51029,6,0,L|62:287,1,28,8|0,0:0|0:0,0:0:0:0:
65,228,51179,2,0,L|67:201,2,28,0|0|2,0:0|0:0|0:0,0:0:0:0:
27,118,51479,1,0,0:0:0:0:
119,31,51629,2,0,L|146:29,4,28,8|0|0|0|2,0:0|0:0|0:0|0:0|0:0,0:0:0:0:
211,97,52079,1,0,0:0:0:0:
211,97,52154,1,0,0:0:0:0:
211,97,52229,2,0,L|275:104,2,56,8|2|2,0:0|0:0|0:0,0:0:0:0:
325,35,52679,1,2,0:0:0:0:
325,35,52829,6,0,L|396:30,1,56,8|2,0:0|0:0,0:0:0:0:
465,70,53054,1,2,0:0:0:0:
465,70,53129,2,0,P|483:116|476:179,1,112,2|8,0:0|0:0,0:0:0:0:
384,272,53729,1,0,0:0:0:0:
440,353,53879,1,0,0:0:0:0:
440,353,53954,1,0,0:0:0:0:
440,353,54029,6,0,B|381:359|381:359|337:348|337:348|305:358|273:358,1,168,8|2,0:0|0:0,0:0:0:0:
163,232,54929,2,0,L|161:276,3,28,2|2|2|2,0:0|0:0|0:0|0:0,0:0:0:0:
139,203,55229,6,0,L|135:132,2,56,10|2|2,0:0|0:0|0:0,0:0:0:0:
74,286,55679,1,0,0:0:0:0:
155,365,55829,2,0,P|209:362|229:350,1,56,8|0,0:0|0:0,0:0:0:0:
268,282,56129,2,0,P|312:263|367:262,1,84
381,263,56429,5,4,0:0:0:0:
256,192,56504,12,0,57479,0:0:0:0:
307,149,57629,6,0,L|357:144,1,38.5000011749268,2|0,0:0|0:0,0:0:0:0:
249,132,58079,2,0,L|299:137,1,38.5000011749268,2|0,0:0|0:0,0:0:0:0:
193,159,58529,2,0,L|243:154,1,38.5000011749268,2|0,0:0|0:0,0:0:0:0:
131,126,58979,2,0,L|181:131,1,38.5000011749268,2|0,0:0|0:0,0:0:0:0:
106,62,59429,6,0,L|112:119,1,38.5000011749268,2|0,0:0|0:0,0:0:0:0:
51,163,59729,2,0,L|45:220,1,38.5000011749268,2|0,0:0|0:0,0:0:0:0:
97,295,60029,6,0,L|47:290,1,38.5000011749268,2|0,0:0|0:0,0:0:0:0:
155,278,60479,2,0,L|105:283,1,38.5000011749268,2|0,0:0|0:0,0:0:0:0:
211,305,60929,2,0,L|161:300,1,38.5000011749268,2|0,0:0|0:0,0:0:0:0:
273,272,61379,2,0,L|223:277,1,38.5000011749268,2|0,0:0|0:0,0:0:0:0:
305,341,61829,6,0,P|298:311|300:287,1,38.5000011749268,2|0,0:0|0:0,0:0:0:0:
361,241,62129,2,0,P|368:211|366:187,1,38.5000011749268,8|0,0:0|0:0,0:0:0:0:
305,96,62429,6,0,P|328:103|352:121,1,38.5000011749268,2|0,0:0|0:0,0:0:0:0:
210,178,62879,2,0,P|217:155|235:131,1,38.5000011749268,2|0,0:0|0:0,0:0:0:0:
292,273,63329,2,0,P|269:266|245:248,1,38.5000011749268,2|0,0:0|0:0,0:0:0:0:
387,191,63779,2,0,P|380:214|362:238,1,38.5000011749268,2|0,0:0|0:0,0:0:0:0:
305,96,64229,6,0,P|328:103|352:121,1,38.5000011749268,2|0,0:0|0:0,0:0:0:0:
434,105,64529,2,0,P|457:98|482:83,1,38.5000011749268,2|0,0:0|0:0,0:0:0:0:
497,5,64829,6,0,L|437:-2,1,38.5000011749268,2|0,0:0|0:0,0:0:0:0:
305,96,65279,2,0,L|365:103,1,38.5000011749268,2|0,0:0|0:0,0:0:0:0:
209,4,65729,2,0,L|149:-3,1,38.5000011749268,2|0,0:0|0:0,0:0:0:0:
23,93,66179,2,0,L|83:100,1,38.5000011749268,2|0,0:0|0:0,0:0:0:0:
253,193,66629,6,0,P|208:196|188:194,1,38.5000011749268,2|0,0:0|0:0,0:0:0:0:
122,232,66929,2,0,P|77:229|57:231,1,38.5000011749268,2|0,0:0|0:0,0:0:0:0:
0,326,67229,6,0,L|151:338,2,146.999995513916,2|2|2,0:0|0:0|0:0,0:0:0:0:
0,326,68579,2,0,L|54:322,1,38.5000011749268,2|0,0:0|0:0,0:0:0:0:
186,266,69029,2,0,L|240:270,1,38.5000011749268,10|0,0:0|0:0,0:0:0:0:
289,321,69329,2,0,L|343:325,1,38.5000011749268,2|0,0:0|0:0,0:0:0:0:
424,271,69629,6,0,P|436:216|363:230,2,146.999995513916,2|2|2,0:0|0:0|0:0,0:0:0:0:
424,271,70979,6,0,B|418:246|418:246|420:219,1,38.5000011749268,2|0,0:0|0:0,0:0:0:0:
484,119,71429,2,0,B|490:94|490:94|488:67,1,38.5000011749268,10|0,0:0|0:0,0:0:0:0:
424,19,71729,2,0,B|399:13|399:13|372:15,1,38.5000011749268,10|0,0:0|0:0,0:0:0:0:
261,67,72029,6,0,B|237:122|289:150|261:216,2,146.999995513916,2|2|2,0:0|0:0|0:0,0:0:0:0:
261,67,73379,2,0,L|210:73,1,38.5000011749268,2|0,0:0|0:0,0:0:0:0:
94,127,73829,2,0,L|145:133,1,38.5000011749268,10|0,0:0|0:0,0:0:0:0:
186,204,74129,2,0,L|237:210,1,38.5000011749268,2|0,0:0|0:0,0:0:0:0:
346,273,74429,6,0,B|368:176|369:231|337:131,2,146.999995513916,2|2|2,0:0|0:0|0:0,0:0:0:0:
346,273,75779,2,0,L|297:278,1,38.5000011749268,2|0,0:0|0:0,0:0:0:0:
179,338,76229,2,0,L|130:333,1,38.5000011749268,8|0,0:0|0:0,0:0:0:0:
88,259,76529,2,0,L|137:254,1,38.5000011749268,8|2,0:0|3:2,0:0:0:0:
248,214,76829,6,0,P|258:173|251:130,1,77.0000023498536,8|2,3:0|0:0,0:0:0:0:
177,52,77129,1,2,0:0:0:0:
249,117,77279,1,10,3:0:0:0:
341,32,77429,1,2,0:2:0:0:
341,32,77729,6,0,P|337:70|346:107,1,77.0000023498536,10|2,3:0|0:0,0:0:0:0:
452,148,78029,1,2,0:0:0:0:
358,130,78179,1,2,0:0:0:0:
332,264,78329,2,0,L|429:272,1,77.0000023498536,10|8,0:0|0:0,0:0:0:0:
276,357,78629,2,0,L|179:365,1,77.0000023498536,10|10,0:0|0:0,0:0:0:0:
199,363,79079,1,8,3:2:0:0:
102,283,79229,6,0,B|96:242|96:242|103:196,1,77.0000023498536,10|2,3:0|0:0,0:0:0:0:
187,242,79529,1,2,0:0:0:0:
14,220,79679,2,0,B|20:179|20:179|40:137,1,77.0000023498536,10|2,3:0|0:2,0:0:0:0:
101,206,79979,1,0,0:0:0:0:
176,87,80129,2,0,L|252:92,1,77.0000023498536,10|2,3:0|0:0,0:0:0:0:
260,99,80579,5,2,0:0:0:0:
260,99,80654,1,0,0:0:0:0:
260,99,80729,2,0,L|255:190,1,77.0000023498536,10|8,0:0|0:0,0:0:0:0:
365,108,81029,2,0,L|360:17,1,77.0000023498536,8|10,0:0|0:0,0:0:0:0:
469,116,81329,1,10,0:0:0:0:
414,206,81479,1,8,3:2:0:0:
414,206,81554,1,8,0:0:0:0:
414,206,81629,5,10,3:0:0:0:
512,309,81779,2,0,P|473:322|426:323,1,77.0000023498536,2|2,0:0|0:0,0:0:0:0:
327,362,82079,2,0,P|288:349|241:348,1,77.0000023498536,10|2,3:0|0:2,0:0:0:0:
165,375,82379,1,0,0:0:0:0:
50,261,82529,2,0,L|57:164,1,77.0000023498536,10|2,3:0|0:0,0:0:0:0:
63,192,82979,5,2,0:0:0:0:
63,192,83054,1,0,0:0:0:0:
63,192,83129,2,0,L|168:181,1,77.0000023498536,10|8,0:0|0:0,0:0:0:0:
209,116,83429,2,0,L|314:127,1,77.0000023498536,10|10,0:0|0:0,0:0:0:0:
285,124,83879,1,8,3:2:0:0:
364,265,84029,6,0,P|372:222|363:190,1,77.0000023498536,10|2,3:0|0:0,0:0:0:0:
276,375,84479,2,0,P|268:332|277:300,1,77.0000023498536,10|2,3:0|0:2,0:0:0:0:
364,265,84779,1,0,0:0:0:0:
364,265,84854,1,0,0:0:0:0:
364,265,84929,1,10,3:0:0:0:
478,322,85079,6,0,P|486:279|477:247,1,77.0000023498536,2|2,0:0|0:0,0:0:0:0:
402,164,85379,1,10,3:0:0:0:
402,164,85454,1,0,0:0:0:0:
402,164,85529,2,0,P|394:121|403:89,1,77.0000023498536,10|8,0:0|0:0,0:0:0:0:
462,5,85829,1,10,3:0:0:0:
326,63,85979,2,0,L|319:113,2,38.5000011749268,10|0|2,0:0|0:0|0:0,0:0:0:0:
211,3,86279,1,8,3:2:0:0:
211,3,86354,1,0,0:0:0:0:
211,3,86429,6,0,P|224:149|16:56,1,462.000014099122,10|10,3:0|3:0,0:0:0:0:
21,83,87779,1,2,0:0:0:0:
21,83,87854,1,0,0:0:0:0:
21,83,87929,2,0,L|123:87,1,77.0000023498536,10|8,0:0|0:0,0:0:0:0:
216,188,88229,2,0,L|123:196,1,77.0000023498536,10|10,0:0|0:0,0:0:0:0:
139,194,88679,1,8,3:2:0:0:
51,313,88829,5,10,3:0:0:0:
140,361,88979,2,0,L|233:369,1,77.0000023498536,2|2,0:0|0:0,0:0:0:0:
321,267,89279,2,0,P|307:306|314:344,1,77.0000023498536,10|2,3:0|0:2,0:0:0:0:
410,377,89579,1,0,0:0:0:0:
476,252,89729,1,10,3:0:0:0:
483,259,90179,5,2,0:0:0:0:
483,259,90254,1,0,0:0:0:0:
483,259,90329,2,0,P|492:201|491:174,1,77.0000023498536,10|8,0:0|0:0,0:0:0:0:
414,110,90629,1,8,0:0:0:0:
308,147,90779,2,0,L|312:187,2,38.5000011749268,10|0|10,0:0|0:0|0:0,0:0:0:0:
236,53,91079,1,8,3:2:0:0:
236,53,91154,1,8,0:0:0:0:
236,53,91229,5,10,3:0:0:0:
108,94,91379,2,0,B|66:167|124:234|124:234|161:308|118:359|25:367|-4:303|21:255,1,385.000011749268,2|10,0:0|3:0,0:0:0:0:
22,290,92579,5,2,0:0:0:0:
22,290,92654,1,0,0:0:0:0:
22,290,92729,1,10,0:0:0:0:
119,244,92879,1,8,0:0:0:0:
190,324,93029,1,10,0:0:0:0:
284,272,93179,1,10,0:0:0:0:
284,272,93479,1,8,3:2:0:0:
341,372,93629,6,0,B|478:391|477:251|477:251|397:251|390:137|465:122,1,385.000011749268,12|2,3:0|0:0,0:0:0:0:
442,130,94454,1,0,0:0:0:0:
442,130,94529,1,8,3:0:0:0:
451,137,94829,6,0,L|337:133,1,97.9999970092774
267,172,95279,1,0,0:0:0:0:
267,172,95429,2,0,L|270:205,3,24.4999992523194
273,234,95729,1,0,0:0:0:0:
273,234,96029,5,4,3:2:0:0:
218,316,96179,1,0,1:2:0:0:
102,307,96329,2,0,P|90:260|90:201,1,90.9999958343508,8|0,1:2|3:2,0:0:0:0:
147,73,96629,1,0,1:2:0:0:
180,169,96779,1,0,3:2:0:0:
49,142,96929,2,0,P|83:108|134:78,1,90.9999958343508,8|0,1:2|3:2,0:0:0:0:
237,97,97229,6,0,L|344:94,1,90.9999958343508,0|0,1:2|3:2,0:0:0:0:
370,114,97454,1,0,1:2:0:0:
370,114,97529,2,0,P|384:168|381:208,1,90.9999958343508,8|0,1:2|3:2,0:0:0:0:
360,236,97754,1,0,1:2:0:0:
360,236,97829,2,0,P|346:290|349:330,1,90.9999958343508,0|0,1:2|3:2,0:0:0:0:
365,363,98054,1,0,0:0:0:0:
365,363,98129,2,0,L|470:360,1,90.9999958343508,8|0,3:2|3:2,0:0:0:0:
488,339,98354,1,0,0:0:0:0:
488,339,98429,5,0,3:2:0:0:
512,233,98579,1,0,1:2:0:0:
458,125,98729,2,0,P|408:112|358:114,1,90.9999958343508,0|8,3:2|1:2,0:0:0:0:
299,188,99029,1,0,1:2:0:0:
226,115,99179,1,0,3:2:0:0:
112,207,99329,2,0,P|162:220|212:218,1,90.9999958343508,8|0,1:2|3:2,0:0:0:0:
299,188,99629,6,0,B|313:143|313:143|311:93,1,90.9999958343508,0|0,1:2|3:2,0:0:0:0:
315,62,99854,1,0,3:2:0:0:
315,62,99929,2,0,L|200:54,1,90.9999958343508,8|0,1:2|3:2,0:0:0:0:
191,37,100154,1,0,1:2:0:0:
191,37,100229,2,0,L|76:45,1,90.9999958343508,0|0,3:2|3:2,0:0:0:0:
72,72,100454,1,0,3:2:0:0:
72,72,100529,2,0,L|20:70,2,45.4999979171754,8|0|0,1:2|1:2|0:0,0:0:0:0:
96,110,100754,1,0,0:0:0:0:
96,110,100829,5,0,3:2:0:0:
31,202,100979,1,0,1:2:0:0:
96,282,101129,2,0,P|108:326|116:373,1,90.9999958343508,8|0,1:2|3:0,0:0:0:0:
204,276,101429,1,0,1:0:0:0:
276,364,101579,1,0,3:0:0:0:
400,276,101729,2,0,L|287:274,1,90.9999958343508,8|0,1:0|3:0,0:0:0:0:
185,258,102029,6,0,B|171:211|171:211|181:171,1,90.9999958343508,0|0,1:0|1:0,0:0:0:0:
214,146,102254,1,0,3:0:0:0:
214,146,102329,2,0,L|322:137,1,90.9999958343508,8|0,1:0|3:0,0:0:0:0:
341,163,102554,1,0,1:0:0:0:
341,163,102629,2,0,L|449:172,1,90.9999958343508,0|0,1:0|3:0,0:0:0:0:
468,154,102854,1,0,0:0:0:0:
468,154,102929,1,8,1:0:0:0:
382,77,103079,6,0,L|387:29,2,45.4999979171754,2|2|2,3:2|3:2|3:2,0:0:0:0:
341,163,103379,1,2,1:0:0:0:
397,250,103529,1,8,1:0:0:0:
332,330,103679,2,0,L|236:327,1,90.9999958343508,2|0,1:0|1:0,0:0:0:0:
151,368,103979,1,0,3:0:0:0:
70,277,104129,2,0,L|166:274,1,90.9999958343508,10|2,1:0|3:2,0:0:0:0:
248,226,104429,5,8,1:0:0:0:
147,177,104579,2,0,L|155:132,2,45.4999979171754,2|2|8,3:2|3:2|0:0,0:0:0:0:
57,254,104879,1,2,3:2:0:0:
31,137,105029,2,0,L|25:89,3,45.4999979171754,2|2|2|2,3:2|0:0|3:2|3:2,0:0:0:0:
24,62,105329,2,0,B|87:42|87:42|172:42,1,136.499993751526,2|0,3:2|0:0,0:0:0:0:
185,43,105629,5,0,3:0:0:0:
271,106,105779,1,0,1:0:0:0:
372,52,105929,2,0,P|386:96|375:160,1,90.9999958343508,8|0,1:2|3:0,0:0:0:0:
317,200,106229,1,0,1:0:0:0:
393,255,106379,1,0,3:2:0:0:
320,381,106529,2,0,P|306:337|317:273,1,90.9999958343508,8|0,1:2|3:0,0:0:0:0:
223,235,106829,6,0,L|123:232,1,90.9999958343508,0|0,1:0|3:0,0:0:0:0:
99,256,107054,1,0,1:0:0:0:
99,256,107129,2,0,B|100:205|100:205|84:150,1,90.9999958343508,8|0,1:2|3:0,0:0:0:0:
58,149,107354,1,0,1:0:0:0:
58,149,107429,2,0,B|57:98|57:98|73:43,1,90.9999958343508,0|0,1:0|3:0,0:0:0:0:
102,39,107654,1,0,0:0:0:0:
102,39,107729,2,0,L|202:36,1,90.9999958343508,8|0,1:2|3:0,0:0:0:0:
236,34,107954,1,0,0:0:0:0:
236,34,108029,5,0,3:0:0:0:
328,113,108179,1,0,1:0:0:0:
439,27,108329,2,0,P|393:15|349:23,1,90.9999958343508,0|8,3:2|1:0,0:0:0:0:
328,113,108629,1,0,1:0:0:0:
397,192,108779,1,0,3:0:0:0:
274,277,108929,2,0,P|320:289|364:281,1,90.9999958343508,8|0,1:2|3:0,0:0:0:0:
487,189,109229,6,0,L|389:192,1,90.9999958343508,0|0,1:0|3:0,0:0:0:0:
361,198,109454,1,0,3:0:0:0:
361,198,109529,2,0,L|263:195,1,90.9999958343508,8|0,0:0|3:0,0:0:0:0:
238,182,109754,1,0,0:0:0:0:
238,182,109829,2,0,L|237:125,2,45.4999979171754,0|0|0,3:0|1:0|3:2,0:0:0:0:
203,213,110054,1,0,3:2:0:0:
203,213,110129,1,8,1:0:0:0:
104,128,110279,1,0,3:0:0:0:
104,128,110354,1,0,0:0:0:0:
104,128,110429,6,0,L|85:0,2,90.9999958343508,10|0|2,1:2|3:0|3:2,0:0:0:0:
203,213,110879,2,0,L|184:341,2,90.9999958343508,10|0|2,0:0|3:0|3:2,0:0:0:0:
271,105,111329,2,0,L|252:-23,2,90.9999958343508,10|0|2,0:0|3:0|3:2,0:0:0:0:
281,143,111704,1,0,3:0:0:0:
281,143,111779,1,10,0:0:0:0:
357,221,111929,1,2,3:2:0:0:
424,132,112079,1,2,3:2:0:0:
500,206,112229,2,0,P|516:251|506:302,1,90.9999958343508,10|2,0:0|3:2,0:0:0:0:
410,366,112529,2,0,L|308:361,1,90.9999958343508,10|0,0:0|3:0,0:0:0:0:
182,312,112829,6,0,B|173:265|173:265|177:218,1,90.9999958343508,10|2,1:0|3:2,0:0:0:0:
225,153,113054,1,0,1:0:0:0:
225,153,113129,2,0,L|106:150,1,97.9999970092774,10|2,1:0|3:2,0:0:0:0:
58,193,113354,1,0,1:0:0:0:
58,193,113429,2,0,L|54:84,1,97.9999970092774,10|2,1:0|3:2,0:0:0:0:
51,20,113654,1,0,1:0:0:0:
51,20,113729,1,10,1:0:0:0:
173,60,113879,1,2,3:2:0:0:
173,60,113954,1,0,1:0:0:0:
173,60,114029,6,0,L|228:65,3,48.9999985046387,14|10|10|10,0:0|0:0|0:0|0:0,0:0:0:0:
283,5,114329,2,0,L|338:0,3,48.9999985046387,2|2|2|2,3:2|3:2|3:2|3:2,0:0:0:0:
388,69,114629,2,0,L|443:74,3,48.9999985046387,10|2|2|2,0:0|0:0|3:2|3:2,0:0:0:0:
500,144,114929,1,8,1:0:0:0:
501,155,115004,1,8,1:0:0:0:
503,168,115079,1,8,1:0:0:0:
505,178,115154,1,8,1:0:0:0:
507,191,115229,5,14,1:0:0:0:
