osu file format v14

[General]
AudioFilename: audio.mp3
AudioLeadIn: 0
PreviewTime: 96029
Countdown: 0
SampleSet: Soft
StackLeniency: 0.5
Mode: 0
LetterboxInBreaks: 0
WidescreenStoryboard: 1

[Editor]
Bookmarks: 10299,19899,29499,39099,48699,58299,67899,77499,83799,87099,96699,106299,114399,115899,125499
DistanceSpacing: 1.2
BeatDivisor: 4
GridSize: 16
TimelineZoom: 2

[Metadata]
Title:Journey
TitleUnicode:Journey
Artist:ARForest
ArtistUnicode:ARForest
Creator:Fall
Version:Namki's Hard
Source:Lanota
Tags:video game instrumental electronic artcore Noxy Games newton- Stack ggf Gottagof4st _tranquility Namki Altai
BeatmapID:2307819
BeatmapSetID:788907

[Difficulty]
HPDrainRate:4.5
CircleSize:4
OverallDifficulty:6
ApproachRate:8
SliderMultiplier:1.4
SliderTickRate:1

[Events]
//Background and Video events
0,0,"journey.jpg",0,0
//Break Periods
//Storyboard Layer 0 (Background)
//Storyboard Layer 1 (Fail)
//Storyboard Layer 2 (Pass)
//Storyboard Layer 3 (Foreground)
//Storyboard Layer 4 (Overlay)
//Storyboard Sound Samples

[TimingPoints]
29,300,4,2,2,50,1,0
9629,-125,4,2,2,60,0,0
19229,-111.111111111111,4,2,2,60,0,0
28829,-111.111111111111,4,2,0,65,0,0
38429,-111.111111111111,4,2,2,60,0,0
41429,-111.111111111111,4,2,2,65,0,0
57629,-111.111111111111,4,2,0,70,0,0
60929,-111.111111111111,4,2,0,50,0,0
61379,-111.111111111111,4,2,0,70,0,0
69329,-111.111111111111,4,2,0,50,0,0
69629,-111.111111111111,4,2,0,70,0,0
76829,-111.111111111111,4,2,0,65,0,0
93629,-111.111111111111,4,2,0,80,0,0
94829,-111.111111111111,4,2,1,80,0,0
96029,-99.9999999999999,4,2,1,90,0,0
115229,-99.9999999999999,4,2,1,60,0,0

[Colours]
Combo1 : 221,187,170
Combo2 : 148,208,237
Combo3 : 155,206,200
Combo4 : 101,202,235
Combo5 : 111,215,175
Combo6 : 134,168,230

[HitObjects]
34,204,9629,6,0,P|95:170|138:182,1,112,2|0,0:0|0:0,0:0:0:0:
209,190,10079,2,0,P|149:225|137:269,1,112,2|0,0:0|0:0,0:0:0:0:
222,269,10529,1,2,0:0:0:0:
222,269,10829,6,0,L|348:255,2,112,2|0|0,0:0|0:0|0:0,0:0:0:0:
331,347,11729,1,0,0:0:0:0:
404,234,12029,2,8,L|429:106,1,112,2|0,0:0|0:0,0:0:0:0:
417,45,12479,1,2,0:0:0:0:
338,49,12629,2,0,P|305:34|276:38,1,56
223,83,12929,2,0,L|236:162,1,56,2|0,0:0|0:0,0:0:0:0:
186,202,13229,5,2,0:0:0:0:
35,158,13529,1,0,0:0:0:0:
186,202,13829,1,0,0:0:0:0:
334,252,14129,1,0,0:0:0:0:
467,169,14429,6,0,P|486:118|470:54,1,112,2|0,0:0|0:0,0:0:0:0:
400,89,14879,1,2,0:0:0:0:
400,89,15029,1,0,0:0:0:0:
197,125,15329,2,0,L|134:115,1,56,2|0,0:0|0:0,0:0:0:0:
72,153,15629,6,0,L|56:282,1,112,2|0,0:0|0:0,0:0:0:0:
108,324,16079,1,0,0:0:0:0:
176,285,16229,2,0,P|210:251|293:263,1,112,2|0,0:0|0:0,0:0:0:0:
396,343,16829,5,2,0:0:0:0:
511,239,17129,1,0,0:0:0:0:
447,192,17279,1,0,2:0:0:0:
505,139,17429,2,0,L|385:134,1,112
259,50,18029,5,0,0:0:0:0:
133,144,18329,2,0,L|152:211,1,56
132,274,18629,1,0,0:0:0:0:
276,334,18929,2,0,P|326:332|354:324,1,56
408,359,19229,5,6,0:0:0:0:
491,218,19529,1,0,0:0:0:0:
429,163,19679,1,2,0:0:0:0:
500,202,19829,1,0,0:0:0:0:
339,233,20129,1,2,0:0:0:0:
201,144,20429,6,0,P|189:92|214:13,1,125.999996154785,2|0,0:0|0:0,0:0:0:0:
87,135,21029,1,0,0:0:0:0:
195,257,21329,1,2,0:0:0:0:
65,356,21629,2,8,P|19:348|-7:338,1,62.9999980773926,2|0,0:0|0:0,0:0:0:0:
51,275,21929,1,0,0:0:0:0:
22,198,22079,1,2,0:0:0:0:
100,174,22229,2,0,B|125:143|125:143|116:37,1,125.999996154785,0|2,0:0|0:0,0:0:0:0:
257,142,22829,6,0,L|402:129,1,125.999996154785,2|0,0:0|0:0,0:0:0:0:
473,266,23429,2,0,L|347:277,1,125.999996154785,0|8,0:0|0:0,0:0:0:0:
198,345,24029,6,8,P|216:295|189:212,1,125.999996154785,2|2,0:0|0:0,0:0:0:0:
124,191,24479,1,2,0:0:0:0:
124,191,24629,1,0,0:0:0:0:
93,42,24929,1,2,0:0:0:0:
248,35,25229,6,0,L|321:43,1,62.9999980773926,2|0,0:0|0:0,0:0:0:0:
386,75,25529,2,0,L|459:83,1,62.9999980773926
251,114,25829,2,0,L|324:122,1,62.9999980773926
389,154,26129,2,0,L|462:162,1,62.9999980773926
315,204,26429,6,8,B|342:238|342:238|337:344,1,125.999996154785,2|2,0:0|0:0,0:0:0:0:
261,290,26879,1,0,0:0:0:0:
199,343,27029,2,0,P|166:330|65:313,1,125.999996154785
23,158,27629,6,0,P|16:139|16:113,3,31.4999990386963,2|0|0|0,0:0|0:0|0:0|0:0,0:0:0:0:
54,138,27929,2,0,P|47:119|47:93,3,31.4999990386963
85,117,28229,2,0,P|78:98|78:72,3,31.4999990386963,2|0|0|0,0:0|0:0|0:0|0:0,0:0:0:0:
117,93,28529,2,0,P|110:74|110:48,3,31.4999990386963
132,29,28829,5,4,0:0:0:0:
294,50,29129,1,2,0:0:0:0:
345,113,29279,2,0,P|294:151|236:214,1,125.999996154785,2|2,0:0|0:0,0:0:0:0:
185,148,29729,2,0,P|140:156|104:155,2,62.9999980773926,10|0|0,0:0|0:0|0:0,0:0:0:0:
165,288,30254,5,0,0:0:0:0:
165,288,30329,1,2,0:0:0:0:
225,352,30479,1,2,0:0:0:0:
296,312,30629,2,0,P|314:281|322:240,2,62.9999980773926,10|0|2,0:0|0:0|0:0,0:0:0:0:
353,370,31079,5,0,0:0:0:0:
353,370,31229,1,2,0:0:0:0:
420,323,31379,2,0,P|480:330|515:269,2,125.999996154785,2|2|2,0:0|0:0|0:0,0:0:0:0:
356,270,32129,2,0,P|340:227|336:197,1,62.9999980773926,10|0,0:0|0:0,0:0:0:0:
220,61,32654,1,0,0:0:0:0:
220,61,32729,2,0,P|187:61|138:65,1,62.9999980773926,2|2,0:0|0:0,0:0:0:0:
91,111,33029,2,0,L|76:195,1,62.9999980773926,10|0,0:0|0:0,0:0:0:0:
52,250,33329,2,0,P|92:254|129:284,1,62.9999980773926,0|2,0:0|0:0,0:0:0:0:
115,276,33554,1,2,0:0:0:0:
120,287,33629,6,0,L|193:280,1,62.9999980773926,2|2,0:0|0:0,0:0:0:0:
326,325,34079,6,0,P|330:263|349:186,1,125.999996154785,2|2,0:0|0:0,0:0:0:0:
406,147,34529,2,0,P|419:208|424:271,1,125.999996154785,10|0,0:0|0:0,0:0:0:0:
219,231,35054,5,0,0:0:0:0:
219,231,35129,2,0,L|146:219,1,62.9999980773926,2|2,0:0|0:0,0:0:0:0:
146,139,35429,2,0,L|208:149,1,62.9999980773926,10|0,0:0|0:0,0:0:0:0:
349,67,35879,1,2,0:0:0:0:
349,67,36029,6,0,L|365:142,2,62.9999980773926,2|2|0,0:0|0:0|0:0,0:0:0:0:
422,30,36479,2,0,L|438:105,1,62.9999980773926,2|0,0:0|0:0,0:0:0:0:
487,156,36779,1,2,0:0:0:0:
415,196,36929,2,0,P|384:212|345:211,2,62.9999980773926,8|0|0,0:0|0:0|0:0,0:0:0:0:
352,302,37454,5,2,0:0:0:0:
352,302,37529,2,0,P|291:266|162:247,2,188.999994232178,2|2|14,0:0|0:0|0:0,0:0:0:0:
59,90,39329,5,0,0:0:0:0:
59,90,39629,2,0,L|203:111,1,125.999996154785,8|0,0:0|0:0,0:0:0:0:
236,54,40079,2,0,P|208:113|216:191,1,125.999996154785
259,229,40529,2,0,L|294:228,3,31.4999990386963
320,250,40829,6,0,L|173:263,1,125.999996154785,8|0,0:0|0:0,0:0:0:0:
61,332,41429,1,8,0:0:0:0:
85,260,41579,2,0,P|76:221|37:201,1,62.9999980773926
165,98,42029,6,0,L|159:137,4,31.4999990386963,8|0|0|0|0,0:0|0:0|0:0|0:0|0:0,0:0:0:0:
214,40,42479,1,0,0:0:0:0:
275,84,42629,2,0,L|363:74,1,62.9999980773926,8|0,0:0|0:0,0:0:0:0:
374,143,42929,2,0,L|311:150,1,62.9999980773926
258,204,43229,1,8,0:0:0:0:
424,351,44129,6,0,P|430:331|436:313,2,31.4999990386963
355,317,44429,2,0,L|223:325,1,125.999996154785,8|0,0:0|0:0,0:0:0:0:
286,274,44879,2,0,P|316:243|407:254,1,125.999996154785
467,222,45329,2,0,L|474:178,3,31.4999990386963
448,157,45629,6,0,P|409:127|346:132,2,94.499997116089,8|0|0,0:0|0:0|0:0,0:0:0:0:
493,89,46229,2,0,P|502:55|494:23,2,62.9999980773926,8|0|0,0:0|0:0|0:0,0:0:0:0:
355,24,46829,6,0,L|272:29,2,62.9999980773926,8|0|0,0:0|0:0|0:0,0:0:0:0:
231,111,47429,1,8,0:0:0:0:
157,74,47579,2,0,P|126:90|121:189,1,125.999996154785
160,237,48029,6,0,L|146:309,1,62.9999980773926,8|2,0:0|0:0,0:0:0:0:
203,358,48329,2,0,P|240:348|263:326,1,62.9999980773926,0|2,0:0|0:0,0:0:0:0:
326,286,48629,2,0,L|405:296,2,62.9999980773926,10|0|0,0:0|0:0|0:0,0:0:0:0:
231,151,49229,6,0,P|216:104|220:68,1,62.9999980773926,10|2,0:0|0:0,0:0:0:0:
272,30,49529,2,0,L|334:35,1,62.9999980773926,2|2,0:0|0:0,0:0:0:0:
371,108,49829,2,0,L|308:113,1,62.9999980773926,8|2,0:0|0:0,0:0:0:0:
337,189,50129,2,0,L|326:230,3,31.4999990386963,2|2|2|2,0:0|0:0|0:0|0:0,0:0:0:0:
348,255,50429,6,0,B|393:272|425:255|425:255|430:284|452:296,2,125.999996154785,8|2|8,0:0|0:0|0:0,0:0:0:0:
274,290,51179,2,0,P|270:319|252:360,1,62.9999980773926,0|2,0:0|0:0,0:0:0:0:
139,237,51629,6,0,L|127:160,1,62.9999980773926,8|0,0:0|0:0,0:0:0:0:
60,129,51929,2,0,P|79:105|126:92,1,62.9999980773926,2|0,0:0|0:0,0:0:0:0:
166,33,52229,2,0,P|198:68|291:81,1,125.999996154785,8|2,0:0|0:0,0:0:0:0:
430,42,52829,6,0,L|446:117,2,62.9999980773926,8|2|2,0:0|0:0|0:0,0:0:0:0:
342,180,53429,2,0,L|326:312,1,125.999996154785,8|0,0:0|0:0,0:0:0:0:
252,339,53879,1,0,0:0:0:0:
183,293,54029,6,0,P|176:246|191:216,1,62.9999980773926,8|0,0:0|0:0,0:0:0:0:
129,167,54329,2,0,P|108:144|65:138,1,62.9999980773926,2|2,0:0|0:0,0:0:0:0:
21,76,54629,2,0,P|47:45|88:32,1,62.9999980773926,8|2,0:0|0:0,0:0:0:0:
146,17,54929,2,0,P|146:37|146:56,3,31.4999990386963,2|2|2|2,0:0|0:0|0:0|0:0,0:0:0:0:
176,76,55229,5,10,0:0:0:0:
257,66,55379,2,0,L|323:73,1,62.9999980773926,2|2,0:0|0:0,0:0:0:0:
367,138,55679,1,0,0:0:0:0:
303,190,55829,2,0,B|317:232|317:232|301:329,2,125.999996154785,8|0|4,0:0|0:0|0:0,0:0:0:0:
38,124,57629,6,0,P|74:147|54:98,1,125.999996154785,2|0,0:0|0:0,0:0:0:0:
121,40,58079,2,0,B|155:64|162:100|162:100|184:75|228:81,1,125.999996154785,2|0,0:0|0:0,0:0:0:0:
218,161,58529,1,2,0:0:0:0:
373,110,58829,6,0,L|413:102,2,31.4999990386963,0|0|2,0:0|0:0|0:0,0:0:0:0:
319,172,59129,2,0,B|303:198|303:198|303:252,1,62.9999980773926
354,295,59429,2,0,B|383:280|383:280|420:291,1,62.9999980773926,2|0,0:0|0:0,0:0:0:0:
464,351,59729,2,0,L|391:364,1,62.9999980773926,2|0,0:0|0:0,0:0:0:0:
319,369,60029,6,0,L|246:382,1,62.9999980773926,2|0,0:0|0:0,0:0:0:0:
180,348,60329,2,0,P|170:315|172:273,1,62.9999980773926,0|2,0:0|0:0,0:0:0:0:
219,220,60629,1,0,0:0:0:0:
216,225,60779,1,0,0:0:0:0:
151,174,60929,2,0,L|69:188,2,62.9999980773926,2|0|0,0:0|0:0|0:0,0:0:0:0:
198,107,61379,6,0,P|246:128|320:114,1,125.999996154785,2|0,0:0|0:0,0:0:0:0:
376,59,61829,2,0,L|454:70,1,62.9999980773926,2|0,0:0|0:0,0:0:0:0:
489,131,62129,2,0,P|502:161|498:207,1,62.9999980773926,8|8,0:0|0:0,0:0:0:0:
449,253,62429,6,0,L|369:246,2,62.9999980773926,2|0|0,0:0|0:0|0:0,0:0:0:0:
460,334,62879,2,0,L|327:343,1,125.999996154785,2|0,0:0|0:0,0:0:0:0:
251,345,63329,2,0,P|242:309|229:357,1,125.999996154785,2|0,0:0|0:0,0:0:0:0:
168,289,63779,5,2,0:0:0:0:
99,244,63929,2,0,L|17:255,1,62.9999980773926
58,173,64229,2,0,B|68:141|68:141|55:108,1,62.9999980773926,2|0,0:0|0:0,0:0:0:0:
106,47,64529,2,0,B|139:38|139:38|182:55,1,62.9999980773926,2|0,0:0|0:0,0:0:0:0:
232,96,64829,6,0,B|256:125|256:125|243:231,1,125.999996154785,2|0,0:0|0:0,0:0:0:0:
271,290,65279,2,0,B|310:280|310:280|335:181,1,125.999996154785,2|0,0:0|0:0,0:0:0:0:
371,125,65729,2,0,L|505:111,1,125.999996154785,2|0,0:0|0:0,0:0:0:0:
459,38,66179,5,2,0:0:0:0:
459,38,66329,2,0,P|424:27|381:35,1,62.9999980773926
325,65,66629,2,0,L|244:80,1,62.9999980773926,2|0,0:0|0:0,0:0:0:0:
196,123,66929,2,0,L|133:115,1,62.9999980773926,2|0,0:0|0:0,0:0:0:0:
121,125,67154,1,0,0:0:0:0:
109,135,67229,6,0,B|131:168|131:168|127:270,1,125.999996154785,2|0,0:0|0:0,0:0:0:0:
178,310,67679,1,2,0:0:0:0:
234,259,67829,1,8,0:0:0:0:
243,266,67979,1,0,0:0:0:0:
295,320,68129,2,0,L|440:339,1,125.999996154785,2|0,0:0|0:0,0:0:0:0:
472,281,68579,6,0,B|451:237|451:237|468:159,1,125.999996154785,2|0,0:0|0:0,0:0:0:0:
428,96,69029,2,0,P|380:84|359:91,1,62.9999980773926,10|0,0:0|0:0,0:0:0:0:
309,134,69329,2,0,L|242:129,1,62.9999980773926,2|0,0:0|0:0,0:0:0:0:
183,171,69629,5,2,0:0:0:0:
187,180,69779,1,0,0:0:0:0:
151,246,69929,1,0,0:0:0:0:
104,186,70079,2,0,L|125:58,1,125.999996154785,2|0,0:0|0:0,0:0:0:0:
52,38,70529,2,0,L|31:162,1,125.999996154785,2|0,0:0|0:0,0:0:0:0:
43,237,70979,6,0,B|79:265|79:265|186:261,1,125.999996154785,2|0,0:0|0:0,0:0:0:0:
225,224,71429,2,0,L|236:144,1,62.9999980773926,10|0,0:0|0:0,0:0:0:0:
281,102,71729,2,0,B|309:115|309:115|361:114,1,62.9999980773926,10|8,0:0|0:0,0:0:0:0:
403,71,72029,5,2,0:0:0:0:
464,115,72179,1,0,0:0:0:0:
456,126,72329,2,0,L|437:210,1,62.9999980773926,0|2,0:0|0:0,0:0:0:0:
480,252,72629,2,0,B|454:230|454:230|345:232,1,125.999996154785,8|2,0:0|0:0,0:0:0:0:
290,255,73079,1,0,0:0:0:0:
221,287,73229,6,0,L|208:330,2,31.4999990386963,0|0|2,0:0|0:0|0:0,0:0:0:0:
190,218,73529,2,0,B|194:191|194:191|176:146,1,62.9999980773926
115,120,73829,2,0,L|35:113,1,62.9999980773926,10|0,0:0|0:0,0:0:0:0:
40,39,74129,2,0,L|102:44,1,62.9999980773926,2|0,0:0|0:0,0:0:0:0:
170,9,74429,6,0,L|295:17,1,125.999996154785,2|0,0:0|0:0,0:0:0:0:
353,67,74879,2,0,P|361:122|306:185,1,125.999996154785,2|0,0:0|0:0,0:0:0:0:
250,201,75329,2,0,P|235:241|243:276,1,62.9999980773926,2|0,0:0|0:0,0:0:0:0:
304,306,75629,6,0,B|328:336|328:336|227:354,1,125.999996154785,2|2,0:0|0:0,0:0:0:0:
172,308,76079,1,2,0:0:0:0:
129,237,76229,2,0,P|103:271|86:285,1,62.9999980773926,8|2,0:0|0:0,0:0:0:0:
18,247,76529,1,8,0:0:0:0:
18,247,76679,1,8,0:0:0:0:
66,181,76829,5,8,3:0:0:0:
13,117,76979,2,0,P|11:78|33:49,2,62.9999980773926,2|2|10,0:0|0:0|3:0,0:0:0:0:
94,102,77429,2,0,P|125:98|153:111,1,62.9999980773926,2|0,0:2|0:0,0:0:0:0:
194,182,77729,1,10,3:0:0:0:
197,18,78029,5,2,0:0:0:0:
212,26,78179,1,2,0:0:0:0:
289,55,78329,2,0,B|328:39|328:39|422:52,1,125.999996154785,10|10,0:0|0:0,0:0:0:0:
465,102,78779,1,10,0:0:0:0:
417,161,78929,2,0,L|407:250,1,62.9999980773926,2|8,0:0|3:2,0:0:0:0:
361,281,79229,6,0,P|340:316|348:355,2,62.9999980773926,10|2|2,3:0|0:0|0:0,0:0:0:0:
342,207,79679,1,10,3:0:0:0:
283,159,79829,2,0,L|213:148,1,62.9999980773926,2|0,0:2|0:0,0:0:0:0:
147,168,80129,2,0,L|77:157,1,62.9999980773926,10|2,3:0|0:0,0:0:0:0:
34,214,80429,5,2,0:0:0:0:
29,227,80579,1,2,0:0:0:0:
72,289,80729,1,10,0:0:0:0:
145,269,80879,1,8,0:0:0:0:
157,278,81029,2,0,B|146:303|146:303|143:347,1,62.9999980773926,8|10,0:0|0:0,0:0:0:0:
216,369,81329,2,0,B|243:353|243:353|296:353,1,62.9999980773926,10|8,0:0|3:2,0:0:0:0:
334,307,81629,5,10,3:0:0:0:
369,373,81779,2,0,L|386:238,2,125.999996154785,2|10|0,0:0|3:0|0:0,0:0:0:0:
418,316,82529,2,0,P|458:322|489:302,1,62.9999980773926,10|2,3:0|0:0,0:0:0:0:
502,241,82829,6,0,L|491:170,1,62.9999980773926,2|2,0:0|0:0,0:0:0:0:
426,141,83129,2,0,L|437:70,1,62.9999980773926,10|8,0:0|0:0,0:0:0:0:
377,30,83429,1,10,0:0:0:0:
362,38,83579,1,10,0:0:0:0:
302,84,83729,2,0,P|267:59|229:53,1,62.9999980773926,2|8,0:0|3:2,0:0:0:0:
214,122,84029,6,0,L|222:184,2,62.9999980773926,10|2|2,3:0|0:0|0:0,0:0:0:0:
147,84,84479,1,10,3:0:0:0:
43,193,84779,1,0,0:0:0:0:
43,193,84854,1,0,0:0:0:0:
43,193,84929,2,0,P|76:202|118:192,1,62.9999980773926,10|2,3:0|0:0,0:0:0:0:
148,259,85229,5,2,0:0:0:0:
157,273,85379,2,0,L|231:277,1,62.9999980773926,10|10,3:0|0:0,0:0:0:0:
295,266,85679,1,8,0:0:0:0:
291,247,85829,2,0,L|365:251,2,62.9999980773926,10|10|2,3:0|0:0|0:0,0:0:0:0:
257,179,86279,1,8,3:2:0:0:
320,137,86429,6,0,P|328:100|364:82,1,62.9999980773926,10|2,3:0|0:0,0:0:0:0:
415,53,86729,1,2,0:0:0:0:
464,110,86879,2,0,L|445:248,1,125.999996154785,10|0,3:0|0:0,0:0:0:0:
396,291,87329,2,0,P|400:341|423:366,1,62.9999980773926,10|2,3:0|0:0,0:0:0:0:
332,365,87629,6,0,L|202:345,1,125.999996154785,2|10,0:0|0:0,0:0:0:0:
154,291,88079,1,8,0:0:0:0:
204,234,88229,1,10,0:0:0:0:
224,236,88379,2,0,B|244:208|244:208|249:159,1,62.9999980773926,10|2,0:0|0:0,0:0:0:0:
204,116,88679,1,8,3:2:0:0:
258,63,88829,6,0,L|342:80,2,62.9999980773926,10|2|2,3:0|0:0|0:0,0:0:0:0:
204,116,89279,2,0,B|165:136|165:136|58:123,1,125.999996154785,10|0,3:0|0:0,0:0:0:0:
20,167,89729,2,0,B|43:197|43:197|148:207,1,125.999996154785,10|2,3:0|0:0,0:0:0:0:
217,279,90254,5,0,0:0:0:0:
217,279,90329,2,0,B|200:307|200:307|201:366,1,62.9999980773926,10|8,0:0|0:0,0:0:0:0:
263,378,90629,2,0,L|336:365,1,62.9999980773926,8|10,0:0|0:0,0:0:0:0:
327,354,90854,1,0,0:0:0:0:
329,341,90929,2,0,L|410:326,1,62.9999980773926,10|8,0:0|3:2,0:0:0:0:
421,260,91229,6,0,P|420:193|433:127,1,125.999996154785,10|2,3:0|0:0,0:0:0:0:
473,72,91679,2,0,P|471:134|482:196,1,125.999996154785,10|0,3:0|0:0,0:0:0:0:
421,260,92129,1,10,3:0:0:0:
194,133,92654,5,0,0:0:0:0:
194,133,92729,2,0,P|226:120|266:126,2,62.9999980773926,10|8|10,0:0|0:0|0:0,0:0:0:0:
135,180,93179,1,10,0:0:0:0:
96,326,93479,1,8,3:2:0:0:
162,290,93629,5,12,3:0:0:0:
204,352,93779,2,0,P|264:353|269:351,1,62.9999980773926,0|2,0:0|0:0,0:0:0:0:
334,319,94079,2,0,L|320:177,1,125.999996154785,8|2,3:0|0:0,0:0:0:0:
353,124,94529,1,8,3:0:0:0:
420,158,94679,1,0,0:0:0:0:
482,114,94829,6,0,L|506:106,8,15.7499995193482
434,55,95279,1,0,0:0:0:0:
366,21,95429,2,0,L|314:28,4,31.4999990386963
223,108,96029,6,0,P|203:69|197:43,1,70,4|0,3:2|1:2,0:0:0:0:
126,100,96329,2,0,L|122:195,1,70,8|0,1:2|3:2,0:0:0:0:
211,188,96629,1,0,1:2:0:0:
219,205,96779,1,0,3:2:0:0:
223,288,96929,1,8,1:2:0:0:
214,302,97079,1,0,3:2:0:0:
149,260,97229,6,0,P|98:251|34:257,1,105,0|0,1:2|1:2,0:0:0:0:
45,254,97529,2,0,L|35:180,1,70,8|0,1:2|3:2,0:0:0:0:
69,107,97829,1,0,1:2:0:0:
86,115,97979,1,0,3:2:0:0:
167,92,98129,2,0,B|206:92|206:92|235:129,1,70,8|0,3:2|3:2,0:0:0:0:
327,249,98579,5,0,1:2:0:0:
390,194,98729,2,0,L|382:121,1,70,0|8,3:2|1:2,0:0:0:0:
421,34,99029,2,0,P|470:42|474:27,1,70,0|0,1:2|3:2,0:0:0:0:
331,60,99329,2,0,P|281:51|277:66,1,70,8|0,1:2|3:2,0:0:0:0:
216,111,99629,5,0,1:2:0:0:
141,73,99779,2,0,L|101:65,2,35,0|0|8,3:2|3:2|1:2,0:0:0:0:
216,111,100079,1,0,3:2:0:0:
152,166,100229,1,0,3:2:0:0:
206,230,100379,2,0,L|258:235,2,35,0|0|8,3:2|3:2|1:2,0:0:0:0:
137,278,100679,1,0,0:0:0:0:
196,337,100829,6,0,L|286:342,1,70,0|0,3:2|1:2,0:0:0:0:
357,343,101129,2,0,P|372:300|372:251,1,70,8|0,1:2|3:0,0:0:0:0:
356,187,101429,2,0,L|277:180,1,70,0|0,1:0|3:0,0:0:0:0:
207,212,101729,1,8,1:0:0:0:
189,203,101879,1,0,3:0:0:0:
179,122,102029,6,0,P|188:71|184:-1,1,105,0|0,1:0|3:0,0:0:0:0:
186,17,102329,2,0,L|106:9,1,70,8|0,1:0|3:0,0:0:0:0:
52,62,102629,2,0,P|43:113|47:185,1,105,0|0,1:0|0:0,0:0:0:0:
44,166,102929,2,0,L|124:174,1,70,8|2,1:0|3:2,0:0:0:0:
123,192,103154,1,2,3:2:0:0:
130,211,103229,6,0,L|217:219,1,70,2|2,3:2|1:0,0:0:0:0:
268,169,103529,1,8,1:0:0:0:
348,144,103679,1,2,1:0:0:0:
410,200,103829,1,0,1:0:0:0:
337,234,103979,1,0,3:0:0:0:
337,234,104054,1,2,3:2:0:0:
337,234,104129,2,0,P|336:266|320:310,1,70,10|2,1:0|3:2,0:0:0:0:
236,337,104429,5,8,1:0:0:0:
216,329,104579,1,2,3:2:0:0:
137,305,104729,1,8,0:0:0:0:
111,314,104879,1,2,3:2:0:0:
30,289,105029,2,0,P|20:256|24:218,1,70,2|2,3:2|3:2,0:0:0:0:
63,95,105329,2,0,P|72:128|69:163,1,70,2|8,3:2|0:0,0:0:0:0:
142,205,105629,6,0,L|222:195,1,70,0|0,3:0|1:0,0:0:0:0:
234,113,105929,2,0,P|289:132|329:122,1,70,8|0,1:2|3:0,0:0:0:0:
392,137,106229,1,0,1:0:0:0:
384,116,106379,1,0,3:2:0:0:
431,46,106529,2,0,L|510:58,1,70,8|0,1:2|3:0,0:0:0:0:
300,16,106829,6,0,B|285:46|285:46|290:101,1,70,0|0,1:0|3:0,0:0:0:0:
209,111,107129,2,0,B|227:138|227:138|277:162,1,70,8|0,1:2|3:0,0:0:0:0:
334,193,107429,2,0,B|315:220|315:220|265:244,1,70,0|0,1:0|3:0,0:0:0:0:
297,319,107729,2,0,B|263:316|263:316|218:285,1,70,8|0,1:2|3:0,0:0:0:0:
120,171,108179,5,0,1:0:0:0:
58,113,108329,2,0,P|25:115|-12:140,1,70,0|8,3:2|1:0,0:0:0:0:
17,214,108629,1,0,1:0:0:0:
11,229,108779,1,0,3:0:0:0:
55,300,108929,2,0,B|75:326|75:326|74:372,1,70,8|0,1:2|3:0,0:0:0:0:
153,336,109229,5,0,1:0:0:0:
231,306,109379,2,0,L|276:315,2,35,0|0|8,3:0|3:0|0:0,0:0:0:0:
197,228,109679,1,0,3:0:0:0:
117,253,109829,1,0,3:0:0:0:
136,171,109979,2,0,L|151:129,2,35,0|0|8,3:2|3:2|1:0,0:0:0:0:
197,228,110279,1,0,3:0:0:0:
262,175,110429,6,0,L|276:85,2,70,10|0|2,1:2|3:0|3:2,0:0:0:0:
344,159,110879,2,0,L|358:69,2,70,10|0|2,0:0|3:0|3:2,0:0:0:0:
397,224,111329,2,0,B|432:222|432:222|473:246,1,70,10|0,0:0|3:0,0:0:0:0:
466,323,111629,6,0,L|471:371,2,35,2|0|10,3:2|3:0|0:0,0:0:0:0:
382,313,111929,1,2,3:2:0:0:
357,319,112079,1,2,3:2:0:0:
278,348,112229,1,10,0:0:0:0:
254,342,112379,1,2,3:2:0:0:
187,290,112529,2,0,P|173:250|183:218,1,70,10|0,0:0|3:0,0:0:0:0:
241,167,112829,5,10,1:0:0:0:
263,164,112979,1,2,3:2:0:0:
322,105,113129,1,10,1:0:0:0:
379,165,113279,1,2,3:2:0:0:
458,137,113429,2,0,L|544:130,1,70,10|2,1:0|3:2,0:0:0:0:
494,54,113729,2,0,L|424:59,1,70,10|2,1:0|3:2,0:0:0:0:
345,30,114029,6,0,P|326:40|310:55,3,35,14|10|10|10,0:0|0:0|0:0|0:0,0:0:0:0:
267,36,114329,2,0,P|248:46|232:61,3,35,2|2|2|2,3:2|3:2|3:2|3:2,0:0:0:0:
188,63,114629,1,10,0:0:0:0:
104,114,114779,1,2,3:2:0:0:
108,123,114854,1,2,3:2:0:0:
112,132,114929,2,0,L|108:191,3,35,8|8|8|8,1:0|1:0|1:0|1:0,0:0:0:0:
107,216,115229,5,14,1:0:0:0:
