osu file format v14

[General]
AudioFilename: audio.mp3
AudioLeadIn: 0
PreviewTime: 96029
Countdown: 0
SampleSet: Soft
StackLeniency: 0.2
Mode: 0
LetterboxInBreaks: 0
WidescreenStoryboard: 0

[Editor]
Bookmarks: 28899
DistanceSpacing: 0.5
BeatDivisor: 4
GridSize: 4
TimelineZoom: 1.1

[Metadata]
Title:Journey
TitleUnicode:Journey
Artist:ARForest
ArtistUnicode:ARForest
Creator:Fall
Version:Last Destination
Source:Lanota
Tags:video game instrumental electronic artcore Noxy Games newton- Stack ggf Gottagof4st _tranquility Namki Altai
BeatmapID:1655730
BeatmapSetID:788907

[Difficulty]
HPDrainRate:5
CircleSize:4.2
OverallDifficulty:9.3
ApproachRate:9.7
SliderMultiplier:1
SliderTickRate:1

[Events]
//Background and Video events
0,0,"journey.jpg",0,0
//Break Periods
//Storyboard Layer 0 (Background)
//Storyboard Layer 1 (Fail)
//Storyboard Layer 2 (Pass)
//Storyboard Layer 3 (Foreground)
//Storyboard Layer 4 (Overlay)
//Storyboard Sound Samples

[TimingPoints]
29,300,4,2,2,50,1,0
9629,-76.9230769230769,4,2,2,60,0,0
17729,-76.9230769230769,4,2,2,60,0,0
19229,-83.3333333333333,4,2,2,60,0,0
28829,-76.9230769230769,4,2,0,65,0,0
38429,-76.9230769230769,4,2,2,60,0,0
41429,-38.4615384615385,4,2,2,65,0,0
41729,-76.9230769230769,4,2,2,65,0,0
46229,-38.4615384615385,4,2,2,65,0,0
46529,-76.9230769230769,4,2,2,65,0,0
48029,-76.9230769230769,4,2,2,65,0,0
51029,-33.3333333333333,4,2,2,65,0,0
51329,-71.4285714285714,4,2,2,65,0,0
55829,-33.3333333333333,4,2,2,65,0,0
56129,-100,4,2,2,65,0,0
56429,-200,4,2,2,65,0,0
57629,-71.4285714285714,4,2,0,70,0,0
58079,-71.4285714285714,4,2,0,70,0,0
58529,-71.4285714285714,4,2,0,70,0,0
58979,-71.4285714285714,4,2,0,70,0,0
59429,-71.4285714285714,4,2,0,70,0,0
59729,-71.4285714285714,4,2,0,70,0,0
60029,-71.4285714285714,4,2,0,70,0,0
60479,-71.4285714285714,4,2,0,70,0,0
60929,-71.4285714285714,4,2,0,50,0,0
61379,-71.4285714285714,4,2,0,70,0,0
61829,-71.4285714285714,4,2,0,70,0,0
62129,-71.4285714285714,4,2,0,70,0,0
62429,-71.4285714285714,4,2,0,70,0,0
62879,-71.4285714285714,4,2,0,70,0,0
63329,-71.4285714285714,4,2,0,70,0,0
63779,-71.4285714285714,4,2,0,70,0,0
64229,-71.4285714285714,4,2,0,70,0,0
64529,-71.4285714285714,4,2,0,70,0,0
64829,-71.4285714285714,4,2,0,70,0,0
65279,-71.4285714285714,4,2,0,70,0,0
65729,-71.4285714285714,4,2,0,70,0,0
66179,-71.4285714285714,4,2,0,70,0,0
66629,-71.4285714285714,4,2,0,70,0,0
66929,-71.4285714285714,4,2,0,70,0,0
67229,-71.4285714285714,4,2,0,70,0,0
69029,-71.4285714285714,4,2,0,70,0,0
69329,-71.4285714285714,4,2,0,50,0,0
69629,-71.4285714285714,4,2,0,70,0,0
71429,-71.4285714285714,4,2,0,70,0,0
71729,-71.4285714285714,4,2,0,70,0,0
72029,-71.4285714285714,4,2,0,70,0,0
73829,-71.4285714285714,4,2,0,70,0,0
74129,-71.4285714285714,4,2,0,70,0,0
74429,-71.4285714285714,4,2,0,70,0,0
76229,-71.4285714285714,4,2,0,70,0,0
76304,-71.4285714285714,4,2,0,70,0,0
76529,-71.4285714285714,4,2,0,70,0,0
76829,-71.4285714285714,4,2,0,65,0,0
93629,-133.333333333333,4,2,0,80,0,0
94829,-71.4285714285714,4,2,1,80,0,0
96029,-37.037037037037,4,2,1,90,0,1
114629,-33.3333333333333,4,2,1,90,0,1
115229,-200,4,2,1,60,0,0

[Colours]
Combo1 : 221,187,170
Combo2 : 148,208,237
Combo3 : 155,206,200
Combo4 : 101,202,235
Combo5 : 111,215,175
Combo6 : 134,168,230

[HitObjects]
128,224,29,5,0,0:0:0:0:
146,144,329,1,0,0:0:0:0:
206,197,629,1,0,0:0:0:0:
381,61,1229,5,0,0:0:0:0:
363,141,1529,1,0,0:0:0:0:
303,88,1829,1,0,0:0:0:0:
394,214,2129,1,0,0:0:0:0:
275,202,2429,5,0,0:0:0:0:
329,282,2729,1,0,0:0:0:0:
329,312,2879,1,0,0:0:0:0:
329,342,3029,1,0,0:0:0:0:
238,294,3329,5,0,0:0:0:0:
147,342,3629,1,0,0:0:0:0:
104,252,3929,1,0,0:0:0:0:
195,204,4229,1,0,0:0:0:0:
237,293,4529,1,0,0:0:0:0:
114,167,4829,5,0,0:0:0:0:
132,87,5129,1,0,0:0:0:0:
213,111,5429,1,0,0:0:0:0:
480,231,6029,5,0,0:0:0:0:
462,311,6329,1,0,0:0:0:0:
381,287,6629,1,0,0:0:0:0:
376,111,7229,5,0,0:0:0:0:
297,199,7529,1,0,0:0:0:0:
381,287,7829,1,0,0:0:0:0:
255,132,8429,5,0,0:0:0:0:
297,199,8729,1,0,0:0:0:0:
217,199,9029,1,0,0:0:0:0:
255,132,9329,1,0,0:0:0:0:
463,128,9629,6,0,P|436:161|436:256,1,129.999994049073,2|0,0:0|0:0,0:0:0:0:
483,303,10079,2,0,P|426:321|358:277,1,129.999994049073,2|0,0:0|0:0,0:0:0:0:
333,215,10529,2,0,P|301:202|267:219,1,64.9999970245363,2|0,0:0|0:0,0:0:0:0:
230,284,10829,2,0,P|194:236|202:168,1,129.999994049073,2|0,0:0|0:0,0:0:0:0:
284,0,11429,1,0,0:0:0:0:
273,212,11729,1,0,0:0:0:0:
484,264,12029,6,8,P|448:296|352:304,1,129.999994049073,2|0,0:0|0:0,0:0:0:0:
308,353,12479,2,0,P|293:288|339:241,1,129.999994049073,2|0,0:0|0:0,0:0:0:0:
402,214,12929,2,0,P|376:182|337:175,1,64.9999970245363,2|0,0:0|0:0,0:0:0:0:
276,181,13229,2,0,P|231:192|179:136,1,129.999994049073,2|0,0:0|0:0,0:0:0:0:
195,19,13829,1,0,0:0:0:0:
276,181,14129,1,0,0:0:0:0:
82,195,14429,6,0,P|123:197|179:118,1,129.999994049073,2|0,0:0|0:0,0:0:0:0:
39,24,14879,2,0,P|50:87|107:120,1,129.999994049073,2|0,0:0|0:0,0:0:0:0:
305,98,15329,2,0,P|275:85|243:86,1,64.9999970245363,2|0,0:0|0:0,0:0:0:0:
325,177,15629,2,0,P|374:147|378:63,1,129.999994049073,2|0,0:0|0:0,0:0:0:0:
330,22,16229,1,2,0:0:0:0:
479,133,16529,1,0,0:0:0:0:
228,104,16829,6,0,L|96:116,1,129.999994049073,2|0,0:0|0:0,0:0:0:0:
76,192,17279,2,0,P|80:244|144:296,1,129.999994049073,0|0,2:0|0:0,0:0:0:0:
214,304,17729,1,0,0:0:0:0:
436,284,18029,1,0,0:0:0:0:
205,216,18329,1,0,0:0:0:0:
289,356,18629,1,0,0:0:0:0:
365,110,18929,1,0,0:0:0:0:
436,284,19229,6,8,P|381:266|312:268,1,119.999996337891,6|0,0:0|0:0,0:0:0:0:
148,322,19679,2,0,P|204:344|255:295,1,119.999996337891,2|0,0:0|0:0,0:0:0:0:
226,205,20129,2,0,P|204:228|190:269,1,59.9999981689454,2|0,0:0|0:0,0:0:0:0:
302,188,20429,2,0,P|278:143|197:138,1,119.999996337891,2|0,0:0|0:0,0:0:0:0:
45,171,20879,1,0,0:0:0:0:
5,343,21029,2,0,P|58:337|107:287,1,119.999996337891,0|2,0:0|0:0,0:0:0:0:
187,295,21479,1,2,0:0:0:0:
187,295,21629,6,8,P|185:232|231:167,1,119.999996337891,2|0,0:0|0:0,0:0:0:0:
373,262,22079,2,0,P|316:275|296:265,1,59.9999981689454,2|0,0:0|0:0,0:0:0:0:
346,140,22379,1,8,0:0:0:0:
346,140,22529,2,0,P|382:172|398:204,1,59.9999981689454,2|0,0:0|0:0,0:0:0:0:
433,324,22829,2,0,P|468:279|457:216,1,119.999996337891,2|0,0:0|0:0,0:0:0:0:
433,146,23279,2,0,P|403:160|387:184,1,59.9999981689454
373,262,23579,1,0,0:0:0:0:
283,154,23729,1,8,0:0:0:0:
195,277,23879,1,8,0:0:0:0:
116,220,24029,6,8,P|80:172|80:100,1,119.999996337891,2|2,0:0|0:0,0:0:0:0:
12,73,24479,2,0,P|57:40|128:63,1,119.999996337891,2|0,0:0|0:0,0:0:0:0:
194,253,24929,1,2,0:0:0:0:
296,243,25229,6,0,P|242:274|190:248,1,119.999996337891,2|0,0:0|0:0,0:0:0:0:
234,88,25679,2,0,P|254:132|237:205,1,119.999996337891
168,182,26129,1,0,0:0:0:0:
120,124,26279,1,0,0:0:0:0:
120,124,26429,6,8,P|88:172|104:232,1,119.999996337891,2|2,0:0|0:0,0:0:0:0:
35,382,26879,2,0,P|90:362|112:300,1,119.999996337891
232,256,27329,2,0,P|189:256|169:273,1,59.9999981689454
273,328,27629,6,0,P|312:282|308:216,1,119.999996337891,2|0,0:0|0:0,0:0:0:0:
282,74,28229,2,0,P|243:120|247:186,1,119.999996337891,2|0,0:0|0:0,0:0:0:0:
375,163,28829,5,4,0:0:0:0:
311,224,28979,1,0,0:0:0:0:
243,177,29129,1,2,0:0:0:0:
282,74,29279,5,2,0:0:0:0:
384,176,29429,1,0,0:0:0:0:
312,241,29579,1,2,0:0:0:0:
171,134,29729,2,0,P|159:192|205:251,1,129.999994049073,10|0,0:0|0:0,0:0:0:0:
217,323,30179,2,0,P|181:325|145:303,1,64.9999970245363,0|2,0:0|0:0,0:0:0:0:
99,257,30479,1,2,0:0:0:0:
49,317,30629,2,0,P|19:271|49:201,1,129.999994049073,10|2,0:0|0:0,0:0:0:0:
204,57,31229,5,2,0:0:0:0:
204,57,31379,2,0,L|206:134,1,64.9999970245363,2|2,0:0|0:0,0:0:0:0:
374,191,31679,2,0,P|311:171|240:190,1,129.999994049073,2|2,0:0|0:0,0:0:0:0:
203,247,32129,2,0,P|214:290|179:379,1,129.999994049073,10|0,0:0|0:0,0:0:0:0:
109,368,32579,1,0,0:0:0:0:
50,284,32729,1,2,0:0:0:0:
24,372,32879,1,2,0:0:0:0:
130,279,33029,2,0,P|116:227|23:209,1,129.999994049073,10|0,0:0|0:0,0:0:0:0:
34,108,33479,1,2,0:0:0:0:
34,108,33554,1,2,0:0:0:0:
34,108,33629,5,2,0:0:0:0:
104,40,33779,1,2,0:0:0:0:
250,78,33929,2,0,P|217:92|167:81,1,64.9999970245363,0|2,0:0|0:0,0:0:0:0:
378,15,34379,1,2,0:0:0:0:
378,15,34529,2,0,P|409:79|372:144,1,129.999994049073,10|0,0:0|0:0,0:0:0:0:
318,164,34979,1,2,0:0:0:0:
240,160,35129,2,0,P|245:207|267:229,1,64.9999970245363,2|2,0:0|0:0,0:0:0:0:
329,245,35429,2,0,P|341:282|275:347,1,129.999994049073,10|0,0:0|0:0,0:0:0:0:
209,340,35879,1,2,0:0:0:0:
185,265,36029,5,2,0:0:0:0:
329,245,36179,1,2,0:0:0:0:
128,324,36479,5,2,0:0:0:0:
237,41,36779,5,2,0:0:0:0:
250,202,36929,1,8,0:0:0:0:
256,192,37004,12,12,38429,0:0:0:0:
232,80,38729,6,8,L|256:80,8,16.2499992561341,0|0|0|0|0|0|0|0|8,0:0|0:0|0:0|0:0|0:0|0:0|0:0|0:0|0:0,0:0:0:0:
57,139,39329,5,0,0:0:0:0:
137,151,39479,1,0,0:0:0:0:
112,226,39629,2,0,P|204:228|228:180,1,129.999994049073,8|0,0:0|0:0,0:0:0:0:
25,245,40079,2,0,P|46:284|81:313,1,64.9999970245363,0|8,0:0|0:0,0:0:0:0:
370,240,40529,5,0,0:0:0:0:
337,239,40604,1,0,0:0:0:0:
307,250,40679,1,0,0:0:0:0:
283,271,40754,1,0,0:0:0:0:
268,300,40829,1,8,0:0:0:0:
357,329,40979,1,0,0:0:0:0:
444,282,41129,2,0,P|459:241|446:214,1,64.9999970245363
383,52,41429,6,0,B|364:77|392:107|392:107|384:116|384:116|419:141|385:188,1,129.999994049073,8|0,0:0|0:0,0:0:0:0:
370,240,41729,2,0,P|317:215|259:223,1,97.4999955368044
247,239,42029,6,0,P|203:253|120:227,1,129.999994049073,8|0,0:0|0:0,0:0:0:0:
190,168,42479,1,0,0:0:0:0:
67,285,42629,2,0,P|100:310|125:320,1,64.9999970245363,8|0,0:0|0:0,0:0:0:0:
113,142,42929,2,0,P|83:155|58:175,1,64.9999970245363
124,230,43229,5,8,0:0:0:0:
205,161,43379,1,0,0:0:0:0:
188,74,43529,2,8,L|176:94,8,16.2499992561341,0|0|0|0|0|0|0|0|8,0:0|0:0|0:0|0:0|0:0|0:0|0:0|0:0|0:0,0:0:0:0:
443,20,44129,5,0,0:0:0:0:
370,47,44279,1,0,0:0:0:0:
415,108,44429,2,0,P|446:164|424:235,1,129.999994049073,8|0,0:0|0:0,0:0:0:0:
349,245,44879,2,0,P|371:292|397:307,1,64.9999970245363,0|8,0:0|0:0,0:0:0:0:
464,300,45179,1,0,0:0:0:0:
326,360,45329,5,0,0:0:0:0:
298,343,45404,1,0,0:0:0:0:
267,334,45479,1,0,0:0:0:0:
234,333,45554,1,0,0:0:0:0:
202,340,45629,1,8,0:0:0:0:
110,384,45779,1,0,0:0:0:0:
140,231,45929,2,0,P|124:280|130:303,1,64.9999970245363
45,303,46229,6,0,B|51:258|51:258|44:212|44:212|98:160,1,129.999994049073,8|0,0:0|0:0,0:0:0:0:
147,146,46529,1,0,0:0:0:0:
140,231,46679,1,0,0:0:0:0:
75,100,46829,6,0,P|119:67|180:70,1,97.4999955368044,8|0,0:0|0:0,0:0:0:0:
194,82,47129,2,0,P|246:95|276:87,1,64.9999970245363
341,60,47429,1,8,0:0:0:0:
364,253,47579,2,0,P|329:216|336:123,1,129.999994049073
437,226,48029,5,8,0:0:0:0:
437,226,48179,2,0,P|444:269|434:294,1,64.9999970245363,2|0,0:0|0:0,0:0:0:0:
369,344,48479,1,2,0:0:0:0:
178,290,48629,2,0,P|233:273|296:301,1,129.999994049073,10|0,0:0|0:0,0:0:0:0:
234,355,49079,1,8,0:0:0:0:
124,233,49229,6,0,P|98:284|102:321,1,64.9999970245363,10|2,0:0|0:0,0:0:0:0:
178,290,49529,1,2,0:0:0:0:
124,233,49679,1,2,0:0:0:0:
179,179,49829,2,0,P|216:186|252:177,1,64.9999970245363,8|2,0:0|0:0,0:0:0:0:
311,142,50129,1,2,0:0:0:0:
320,119,50204,1,2,0:0:0:0:
325,95,50279,1,2,0:0:0:0:
325,71,50354,1,2,0:0:0:0:
320,47,50429,5,8,0:0:0:0:
244,91,50579,1,2,0:0:0:0:
311,142,50729,1,2,0:0:0:0:
251,12,50879,1,0,0:0:0:0:
29,56,51029,6,0,B|61:61|86:43|86:43|106:53|106:53|138:33|181:50,1,150.000005722046,8|0,0:0|0:0,0:0:0:0:
221,171,51329,2,0,P|181:150|169:121,1,69.9999978637696,2|0,0:0|0:0,0:0:0:0:
311,142,51629,6,0,P|321:191|260:259,1,139.999995727539,8|2,0:0|0:0,0:0:0:0:
179,260,52079,1,0,0:0:0:0:
179,260,52154,1,0,0:0:0:0:
179,260,52229,1,8,0:0:0:0:
226,338,52379,1,2,0:0:0:0:
221,171,52529,1,2,0:0:0:0:
84,254,52679,1,2,0:0:0:0:
267,256,52829,6,0,L|367:254,1,69.9999978637696,8|2,0:0|0:0,0:0:0:0:
378,253,53054,1,2,0:0:0:0:
378,253,53129,6,0,P|372:239|371:226,8,17.4999994659424,2|0|0|0|0|0|0|0|8,0:0|0:0|0:0|0:0|0:0|0:0|0:0|0:0|0:0,0:0:0:0:
399,0,53729,5,0,0:0:0:0:
336,65,53879,1,0,0:0:0:0:
414,103,54029,2,0,P|375:148|279:121,1,139.999995727539,8|2,0:0|0:0,0:0:0:0:
234,73,54479,2,0,P|211:114|211:149,1,69.9999978637696,2|8,0:0|0:0,0:0:0:0:
251,203,54779,1,2,0:0:0:0:
315,261,54929,1,2,0:0:0:0:
324,285,55004,1,2,0:0:0:0:
325,311,55079,1,2,0:0:0:0:
317,336,55154,1,2,0:0:0:0:
302,357,55229,5,10,0:0:0:0:
235,303,55379,1,2,0:0:0:0:
161,345,55529,2,0,L|91:347,1,69.9999978637696,2|0,0:0|0:0,0:0:0:0:
22,274,55829,2,0,B|71:264|71:264|110:240|110:240|171:269,1,150.000005722046,8|0,0:0|0:0,0:0:0:0:
235,303,56129,5,0,0:0:0:0:
161,345,56279,1,0,0:0:0:0:
229,227,56429,5,4,0:0:0:0:
256,192,56504,12,0,57329,0:0:0:0:
276,62,57629,6,0,P|291:114|286:137,1,69.9999978637696,2|0,0:0|0:0,0:0:0:0:
158,239,57929,2,0,P|156:204|170:172,1,69.9999978637696,0|2,0:0|0:0,0:0:0:0:
404,267,58229,2,0,P|369:284|274:245,1,139.999995727539,0|2,0:0|0:0,0:0:0:0:
206,106,58679,1,0,0:0:0:0:
347,203,58829,5,0,0:0:0:0:
347,203,58904,1,0,0:0:0:0:
347,203,58979,1,2,0:0:0:0:
218,303,59129,1,0,0:0:0:0:
84,220,59279,2,0,L|87:184,2,34.9999989318848,0|0|2,0:0|0:0|0:0,0:0:0:0:
218,303,59579,2,0,L|215:337,2,34.9999989318848,0|0|2,0:0|0:0|0:0,0:0:0:0:
347,203,59879,1,0,0:0:0:0:
432,108,60029,6,0,L|433:183,1,69.9999978637696,2|0,0:0|0:0,0:0:0:0:
307,360,60329,2,0,L|307:290,1,69.9999978637696,0|2,0:0|0:0,0:0:0:0:
469,45,60629,2,0,P|404:36|361:92,1,139.999995727539,0|2,0:0|0:0,0:0:0:0:
347,203,61079,1,0,0:0:0:0:
273,63,61229,5,0,0:0:0:0:
122,133,61379,1,2,0:0:0:0:
122,133,61454,1,0,0:0:0:0:
122,133,61529,2,0,L|127:91,4,34.9999989318848,0|0|0|0|2,0:0|0:0|0:0|0:0|0:0,0:0:0:0:
273,63,61979,1,0,0:0:0:0:
347,203,62129,5,8,0:0:0:0:
190,49,62279,1,8,0:0:0:0:
59,158,62429,6,0,P|104:133|148:138,1,69.9999978637696,2|0,0:0|0:0,0:0:0:0:
285,229,62729,2,0,P|319:223|347:202,1,69.9999978637696,0|2,0:0|0:0,0:0:0:0:
171,235,63029,2,0,P|155:311|220:366,1,139.999995727539,0|2,0:0|0:0,0:0:0:0:
285,229,63479,1,0,0:0:0:0:
429,333,63629,5,0,0:0:0:0:
429,333,63704,1,0,0:0:0:0:
429,333,63779,1,2,0:0:0:0:
285,229,63929,1,0,0:0:0:0:
190,355,64079,2,0,L|144:354,2,34.9999989318848,0|0|2,0:0|0:0|0:0,0:0:0:0:
53,244,64379,2,0,L|18:244,2,34.9999989318848,0|0|2,0:0|0:0|0:0,0:0:0:0:
190,355,64679,1,0,0:0:0:0:
285,229,64829,6,0,P|277:181|289:149,1,69.9999978637696,2|0,0:0|0:0,0:0:0:0:
439,21,65129,2,0,P|445:55|436:88,1,69.9999978637696,0|2,0:0|0:0,0:0:0:0:
217,106,65429,2,0,P|261:73|302:75,1,69.9999978637696
342,105,65654,1,0,0:0:0:0:
342,105,65729,1,2,0:0:0:0:
426,196,65879,1,0,0:0:0:0:
217,106,66029,5,0,0:0:0:0:
357,260,66179,2,0,L|366:299,4,34.9999989318848,2|0|0|0|0,0:0|0:0|0:0|0:0|0:0,0:0:0:0:
282,161,66629,1,2,0:0:0:0:
208,253,66779,1,0,0:0:0:0:
125,40,66929,1,2,0:0:0:0:
132,74,67004,1,0,0:0:0:0:
140,108,67079,1,0,0:0:0:0:
148,142,67154,1,0,0:0:0:0:
156,176,67229,6,0,P|111:169|69:179,1,69.9999978637696,2|0,0:0|0:0,0:0:0:0:
229,345,67529,2,0,P|263:348|297:341,1,69.9999978637696,0|2,0:0|0:0,0:0:0:0:
290,64,67829,2,0,P|245:114|260:180,1,139.999995727539,8|2,0:0|0:0,0:0:0:0:
360,238,68279,1,0,0:0:0:0:
229,345,68429,5,0,0:0:0:0:
229,345,68504,1,0,0:0:0:0:
229,345,68579,1,2,0:0:0:0:
370,317,68729,1,0,0:0:0:0:
185,265,68879,2,0,L|186:227,2,34.9999989318848,0|0|10,0:0|0:0|0:0,0:0:0:0:
360,238,69179,2,0,L|360:204,2,34.9999989318848,0|0|2,0:0|0:0|0:0,0:0:0:0:
259,179,69479,1,0,0:0:0:0:
346,14,69629,6,0,P|365:56|326:139,1,139.999995727539,2|0,0:0|0:0,0:0:0:0:
193,90,70079,1,2,0:0:0:0:
50,157,70229,2,0,P|77:200|105:212,1,69.9999978637696,8|0,0:0|0:0,0:0:0:0:
169,219,70454,1,0,0:0:0:0:
169,219,70529,1,2,0:0:0:0:
87,66,70679,1,0,0:0:0:0:
126,281,70829,6,0,P|174:305|212:303,1,69.9999978637696,0|2,0:0|0:0,0:0:0:0:
225,300,71054,1,0,0:0:0:0:
260,295,71129,1,0,0:0:0:0:
294,301,71204,1,0,0:0:0:0:
324,319,71279,1,0,0:0:0:0:
442,193,71429,2,0,P|465:253|455:288,1,69.9999978637696,10|0,0:0|0:0,0:0:0:0:
258,373,71729,1,10,0:0:0:0:
336,193,71879,1,8,0:0:0:0:
261,81,72029,6,0,P|213:127|143:123,1,139.999995727539,2|0,0:0|0:0,0:0:0:0:
167,7,72479,1,2,0:0:0:0:
336,193,72629,2,0,P|375:202|415:191,1,69.9999978637696,8|0,0:0|0:0,0:0:0:0:
355,56,72929,1,2,0:0:0:0:
355,56,73004,1,0,0:0:0:0:
355,56,73079,1,0,0:0:0:0:
250,219,73229,6,0,L|251:260,2,34.9999989318848,0|0|2,0:0|0:0|0:0,0:0:0:0:
143,123,73529,1,0,0:0:0:0:
42,242,73679,2,0,L|41:276,2,34.9999989318848,0|0|10,0:0|0:0|0:0,0:0:0:0:
146,90,73979,1,0,0:0:0:0:
146,90,74054,1,0,0:0:0:0:
146,90,74129,1,2,0:0:0:0:
150,301,74279,1,0,0:0:0:0:
211,153,74429,6,0,P|254:140|280:150,1,69.9999978637696,2|0,0:0|0:0,0:0:0:0:
401,286,74729,2,0,P|368:293|336:280,1,69.9999978637696,0|2,0:0|0:0,0:0:0:0:
403,77,75029,2,0,P|369:123|380:211,1,139.999995727539,8|2,0:0|0:0,0:0:0:0:
503,231,75479,1,0,0:0:0:0:
286,221,75629,5,2,0:0:0:0:
477,305,75779,2,0,L|515:303,4,34.9999989318848,2|0|2|0|2,0:0|0:0|0:0|0:0|0:0,0:0:0:0:
312,354,76229,1,8,0:0:0:0:
374,202,76379,1,2,0:0:0:0:
238,86,76529,1,8,0:0:0:0:
195,84,76604,1,2,3:2:0:0:
155,100,76679,1,8,0:0:0:0:
123,130,76754,1,2,3:2:0:0:
106,170,76829,6,0,P|130:203|294:215,2,209.999993591309,8|10|10,3:0|3:0|3:0,0:0:0:0:
382,55,78179,5,2,0:0:0:0:
379,86,78254,1,0,0:0:0:0:
376,117,78329,1,10,0:0:0:0:
353,315,78479,1,8,0:0:0:0:
275,104,78629,5,10,0:0:0:0:
353,315,78779,1,10,0:0:0:0:
382,55,79079,5,8,3:2:0:0:
250,312,79229,6,0,L|275:101,2,209.999993591309,10|10|10,3:0|3:0|3:0,0:0:0:0:
103,47,80579,5,2,0:0:0:0:
106,78,80654,1,0,0:0:0:0:
109,109,80729,1,10,0:0:0:0:
143,333,80880,1,8,0:0:0:0:
191,99,81030,5,8,0:0:0:0:
78,282,81180,1,10,0:0:0:0:
190,116,81329,1,10,0:0:0:0:
271,368,81479,1,8,3:2:0:0:
250,312,81554,1,8,0:0:0:0:
225,257,81629,6,0,P|306:238|352:341,2,209.999993591309,10|10|10,3:0|3:0|3:0,0:0:0:0:
409,47,82979,5,2,0:0:0:0:
406,78,83054,1,0,0:0:0:0:
403,109,83129,1,10,0:0:0:0:
463,339,83279,1,8,0:0:0:0:
328,114,83429,5,10,0:0:0:0:
512,277,83579,1,10,0:0:0:0:
409,47,83879,5,8,3:2:0:0:
109,156,84029,6,0,L|91:16,1,139.999995727539,10|2,3:0|0:0,0:0:0:0:
156,334,84479,6,0,L|174:194,1,139.999995727539,10|0,3:0|0:0,0:0:0:0:
235,148,84929,6,0,L|217:8,1,139.999995727539,10|2,3:0|0:0,0:0:0:0:
282,326,85379,6,0,L|300:186,1,139.999995727539,10|8,3:0|0:0,0:0:0:0:
367,148,85829,5,10,3:0:0:0:
299,187,86279,5,8,3:2:0:0:
268,184,86354,1,0,0:0:0:0:
237,181,86429,1,10,3:0:0:0:
13,159,86579,1,2,0:0:0:0:
299,187,86879,5,10,3:0:0:0:
13,159,87179,5,0,0:0:0:0:
274,105,87329,1,10,3:0:0:0:
299,187,87779,5,2,0:0:0:0:
296,218,87854,1,0,0:0:0:0:
293,249,87929,1,10,0:0:0:0:
370,38,88079,1,8,0:0:0:0:
296,218,88229,1,10,0:0:0:0:
384,21,88379,1,10,0:0:0:0:
293,249,88679,5,8,3:2:0:0:
219,75,88829,5,10,3:0:0:0:
293,249,88979,1,2,0:0:0:0:
142,59,89279,5,10,3:0:0:0:
118,286,89579,5,0,0:0:0:0:
219,75,89729,1,10,3:0:0:0:
299,311,90179,5,2,0:0:0:0:
296,280,90254,1,0,0:0:0:0:
293,249,90329,1,10,0:0:0:0:
279,27,90479,1,8,0:0:0:0:
296,280,90629,5,8,0:0:0:0:
219,75,90779,1,10,0:0:0:0:
118,286,90929,1,10,0:0:0:0:
242,187,91079,1,8,3:2:0:0:
297,166,91154,1,8,0:0:0:0:
354,146,91229,5,10,3:0:0:0:
166,216,91379,1,2,0:0:0:0:
425,124,91679,5,10,3:0:0:0:
242,187,91979,5,0,0:0:0:0:
425,124,92129,1,10,3:0:0:0:
111,49,92579,5,2,0:0:0:0:
108,80,92654,1,0,0:0:0:0:
105,111,92729,1,10,0:0:0:0:
297,166,92879,1,8,0:0:0:0:
218,310,93029,5,10,0:0:0:0:
239,121,93179,1,10,0:0:0:0:
31,151,93479,5,8,3:2:0:0:
307,92,93629,1,12,3:0:0:0:
256,192,93704,12,8,94529,3:0:0:0:
88,192,94829,6,0,L|84:164,8,17.4999994659424
123,271,95279,1,0,0:0:0:0:
163,184,95429,6,0,L|158:141,1,34.9999989318848
213,256,95579,2,0,L|218:299,1,34.9999989318848
123,271,95729,1,0,0:0:0:0:
488,226,96029,6,0,P|458:243|415:255,1,67.5000002574921,4|0,3:2|0:0,0:0:0:0:
439,94,96179,2,0,P|429:127|407:166,1,67.5000002574921,0|0,1:2|0:0,0:0:0:0:
311,36,96329,2,0,P|328:65|340:109,1,67.5000002574921,8|0,1:2|0:0,0:0:0:0:
334,181,96479,1,0,3:2:0:0:
334,181,96554,1,0,0:0:0:0:
334,181,96629,6,0,P|293:199|268:195,1,67.5000002574921,0|0,1:2|0:0,0:0:0:0:
282,289,96779,2,0,P|240:272|225:252,1,67.5000002574921,0|0,3:2|0:0,0:0:0:0:
168,328,96929,2,0,P|150:287|154:262,1,67.5000002574921,8|0,1:2|0:0,0:0:0:0:
59,274,97079,2,0,P|75:232|95:217,1,67.5000002574921,0|0,3:2|0:0,0:0:0:0:
164,189,97229,6,0,P|186:158|159:56,1,135.000000514984,0|0,1:2|3:2,0:0:0:0:
105,23,97454,1,0,1:2:0:0:
47,78,97529,5,8,1:2:0:0:
53,97,97604,1,0,0:0:0:0:
59,116,97679,1,0,3:2:0:0:
65,135,97754,1,0,1:2:0:0:
73,153,97829,6,0,L|92:222,1,67.5000002574921,0|0,1:2|0:0,0:0:0:0:
245,190,97979,2,0,L|226:259,1,67.5000002574921,0|0,3:2|0:0,0:0:0:0:
152,265,98129,6,0,L|171:334,1,67.5000002574921,8|0,3:2|0:0,0:0:0:0:
335,176,98279,2,0,L|316:245,1,67.5000002574921,0|0,3:2|0:0,0:0:0:0:
298,112,98429,6,0,P|339:102|379:116,1,67.5000002574921,0|0,3:2|0:0,0:0:0:0:
503,133,98579,2,0,P|462:143|422:129,1,67.5000002574921,0|0,1:2|0:0,0:0:0:0:
420,1,98729,2,0,P|430:42|416:82,1,67.5000002574921,0|0,3:2|0:0,0:0:0:0:
335,176,98879,1,8,1:2:0:0:
327,208,98954,1,0,0:0:0:0:
317,241,99029,6,0,L|399:236,1,67.5000002574921,0|0,1:2|0:0,0:0:0:0:
237,334,99179,2,0,L|155:329,1,67.5000002574921,0|0,3:2|0:0,0:0:0:0:
267,180,99329,2,0,L|349:175,1,67.5000002574921,8|0,1:2|0:0,0:0:0:0:
118,272,99479,2,0,L|36:267,1,67.5000002574921,0|0,3:2|0:0,0:0:0:0:
168,137,99629,6,0,P|178:185|140:146,1,135.000000514984,0|0,1:2|3:2,0:0:0:0:
125,76,99854,1,0,3:2:0:0:
168,16,99929,1,8,1:2:0:0:
182,29,100004,5,0,0:0:0:0:
201,35,100079,1,0,3:2:0:0:
221,35,100154,1,0,1:2:0:0:
241,32,100229,1,0,3:2:0:0:
260,28,100304,1,0,1:2:0:0:
305,17,100379,5,0,3:2:0:0:
365,8,100454,1,0,3:2:0:0:
436,19,100529,1,8,1:2:0:0:
497,65,100604,1,0,1:2:0:0:
512,143,100679,1,0,0:0:0:0:
512,143,100754,1,0,0:0:0:0:
455,196,100829,6,0,P|411:210|380:201,1,67.5000002574921,0|0,3:2|0:0,0:0:0:0:
365,294,100979,2,0,P|323:272|308:244,1,67.5000002574921,0|0,1:2|0:0,0:0:0:0:
232,299,101129,2,0,P|218:255|227:224,1,67.5000002574921,8|0,1:2|0:0,0:0:0:0:
280,180,101279,1,0,3:0:0:0:
280,180,101354,1,0,0:0:0:0:
280,180,101429,6,0,L|286:108,1,67.5000002574921,0|0,1:0|0:0,0:0:0:0:
160,198,101579,2,0,L|166:126,1,67.5000002574921,0|0,3:0|0:0,0:0:0:0:
212,4,101729,2,0,L|206:76,1,67.5000002574921,8|0,1:0|0:0,0:0:0:0:
125,5,101879,2,0,L|119:77,1,67.5000002574921,0|0,3:0|0:0,0:0:0:0:
78,212,102029,6,0,B|83:286|134:294|134:294|151:277|151:254,1,135.000000514984,0|0,1:0|1:0,0:0:0:0:
160,198,102254,1,0,3:0:0:0:
222,235,102329,2,0,P|235:265|232:298,1,67.5000002574921,8|0,1:0|0:0,0:0:0:0:
187,358,102479,1,0,3:0:0:0:
215,375,102554,1,0,1:0:0:0:
248,374,102629,6,0,P|291:348|307:307,1,67.5000002574921,0|0,1:0|0:0,0:0:0:0:
352,203,102779,2,0,P|326:224|312:254,1,67.5000002574921,0|0,3:0|0:0,0:0:0:0:
427,345,102929,2,0,P|405:319|375:305,1,67.5000002574921,8|0,1:0|0:0,0:0:0:0:
312,254,103079,1,2,3:2:0:0:
326,224,103154,1,2,3:2:0:0:
352,203,103229,6,0,L|360:117,1,67.5000002574921,2|0,3:2|0:0,0:0:0:0:
222,235,103379,2,0,L|230:149,1,67.5000002574921,2|0,1:0|0:0,0:0:0:0:
97,273,103529,2,0,L|105:187,1,67.5000002574921,8|0,1:0|0:0,0:0:0:0:
162,70,103679,6,0,L|155:137,1,67.5000002574921,2|0,1:0|0:0,0:0:0:0:
287,32,103829,2,0,L|280:99,1,67.5000002574921,0|0,1:0|0:0,0:0:0:0:
417,0,103979,1,0,3:0:0:0:
412,74,104054,1,2,3:2:0:0:
358,135,104129,6,0,P|406:158|446:153,1,67.5000002574921,10|0,1:0|0:0,0:0:0:0:
287,32,104279,2,0,P|239:9|199:14,1,67.5000002574921,2|0,3:2|0:0,0:0:0:0:
326,224,104429,2,0,P|374:247|414:242,1,67.5000002574921,8|0,1:0|0:0,0:0:0:0:
486,118,104579,1,2,3:2:0:0:
486,118,104654,1,2,3:2:0:0:
486,118,104729,6,0,P|496:178|484:202,1,67.5000002574921,8|0,0:0|0:0,0:0:0:0:
272,349,104879,2,0,P|262:289|274:265,1,67.5000002574921,2|0,3:2|0:0,0:0:0:0:
358,135,105029,5,2,3:2:0:0:
326,224,105104,1,2,0:0:0:0:
263,284,105179,5,2,3:2:0:0:
229,287,105254,1,2,3:2:0:0:
195,290,105329,6,0,L|107:296,1,67.5000002574921,2|0,3:2|0:0,0:0:0:0:
17,55,105479,6,0,L|84:59,1,67.5000002574921,8|0,0:0|0:0,0:0:0:0:
214,171,105629,6,0,P|167:167|133:152,1,67.5000002574921,0|0,3:0|0:0,0:0:0:0:
279,123,105779,2,0,P|248:86|235:52,1,67.5000002574921,0|0,1:0|0:0,0:0:0:0:
358,135,105929,2,0,P|362:88|377:54,1,67.5000002574921,8|0,1:2|0:0,0:0:0:0:
312,198,106079,1,0,3:0:0:0:
312,198,106154,1,0,0:0:0:0:
312,198,106229,6,0,L|321:270,1,67.5000002574921,0|0,1:0|0:0,0:0:0:0:
259,370,106379,2,0,L|250:303,1,67.5000002574921,0|0,3:2|0:0,0:0:0:0:
425,180,106529,2,0,L|434:252,1,67.5000002574921,8|0,1:2|0:0,0:0:0:0:
397,383,106679,2,0,L|388:316,1,67.5000002574921,0|0,3:0|0:0,0:0:0:0:
240,68,106829,6,0,P|202:44|106:57,1,135.000000514984,0|0,1:0|3:0,0:0:0:0:
50,87,107054,1,0,1:0:0:0:
111,129,107129,5,8,1:2:0:0:
118,147,107204,1,0,0:0:0:0:
119,167,107279,1,0,3:0:0:0:
117,187,107354,1,0,1:0:0:0:
110,206,107429,6,0,P|96:249|102:281,1,67.5000002574921,0|0,1:0|0:0,0:0:0:0:
251,132,107579,2,0,P|252:98|239:67,1,67.5000002574921,0|0,3:0|0:0,0:0:0:0:
201,208,107729,2,0,P|187:251|193:283,1,67.5000002574921,8|0,1:2|0:0,0:0:0:0:
363,89,107879,2,0,P|364:55|351:24,1,67.5000002574921,0|0,3:0|0:0,0:0:0:0:
146,333,108029,6,0,P|224:335|247:297,1,67.5000002574921,0|0,3:0|0:0,0:0:0:0:
327,302,108179,6,0,P|249:300|226:338,1,67.5000002574921,0|0,1:0|0:0,0:0:0:0:
411,294,108329,5,0,3:2:0:0:
411,294,108404,1,0,0:0:0:0:
411,294,108479,2,0,P|357:237|314:248,1,67.5000002574921,8|0,1:0|0:0,0:0:0:0:
480,353,108629,5,0,1:0:0:0:
480,353,108704,1,0,0:0:0:0:
480,353,108779,1,0,3:0:0:0:
480,353,108854,1,0,0:0:0:0:
484,358,108929,6,0,P|486:279|447:256,1,67.5000002574921,8|0,1:2|0:0,0:0:0:0:
411,294,109079,2,0,P|357:237|314:248,1,67.5000002574921,0|0,3:0|0:0,0:0:0:0:
327,302,109229,6,0,P|249:300|226:338,1,67.5000002574921,0|0,1:0|0:0,0:0:0:0:
209,343,109379,1,0,3:0:0:0:
175,347,109454,1,0,3:0:0:0:
141,350,109529,2,0,L|53:356,1,67.5000002574921,8|0,0:0|0:0,0:0:0:0:
29,248,109679,5,0,3:0:0:0:
62,250,109754,1,0,0:0:0:0:
95,250,109829,5,0,3:0:0:0:
143,226,109904,1,0,1:0:0:0:
134,159,109979,5,0,3:2:0:0:
91,98,110054,1,0,3:2:0:0:
124,31,110129,1,8,1:0:0:0:
204,23,110204,1,0,1:0:0:0:
291,17,110279,1,0,3:0:0:0:
385,11,110354,1,0,0:0:0:0:
385,11,110429,6,0,L|392:100,1,67.5000002574921,10|0,1:2|0:0,0:0:0:0:
264,232,110579,5,0,3:0:0:0:
274,158,110654,1,0,0:0:0:0:
286,84,110729,2,0,L|291:16,1,67.5000002574921,2|0,3:2|0:0,0:0:0:0:
488,131,110879,6,0,L|495:220,1,67.5000002574921,10|0,0:0|0:0,0:0:0:0:
363,293,111029,5,0,3:0:0:0:
373,219,111104,1,0,3:0:0:0:
385,145,111179,2,0,L|390:77,1,67.5000002574921,2|0,3:2|0:0,0:0:0:0:
118,31,111329,6,0,L|111:120,1,67.5000002574921,10|0,0:0|0:0,0:0:0:0:
158,367,111479,5,0,3:0:0:0:
153,330,111554,1,0,0:0:0:0:
148,293,111629,2,0,L|142:225,1,67.5000002574921,2|0,3:2|3:0,0:0:0:0:
35,80,111779,6,0,L|28:169,1,67.5000002574921,10|0,0:0|0:0,0:0:0:0:
148,293,111929,2,0,L|142:225,1,67.5000002574921,2|0,3:2|0:0,0:0:0:0:
199,11,112079,2,0,L|192:100,1,67.5000002574921,2|0,3:2|0:0,0:0:0:0:
158,367,112229,6,0,P|209:362|236:335,1,67.5000002574921,10|0,0:0|0:0,0:0:0:0:
306,353,112379,2,0,P|338:313|338:275,1,67.5000002574921,2|0,3:2|3:0,0:0:0:0:
404,227,112529,2,0,P|399:176|372:149,1,67.5000002574921,10|0,0:0|0:0,0:0:0:0:
384,56,112679,2,0,P|344:23|306:23,1,67.5000002574921,0|0,3:0|0:0,0:0:0:0:
125,77,112829,6,0,L|131:144,1,67.5000002574921,10|0,1:0|0:0,0:0:0:0:
199,213,112979,1,2,3:2:0:0:
199,213,113054,1,0,1:0:0:0:
259,141,113129,6,0,L|264:73,1,67.5000002574921,10|8,1:0|0:0,0:0:0:0:
200,4,113279,1,2,3:2:0:0:
200,4,113354,1,0,1:0:0:0:
125,77,113429,6,0,L|131:144,1,67.5000002574921,10|0,1:0|0:0,0:0:0:0:
199,213,113579,1,2,3:2:0:0:
199,213,113654,1,0,1:0:0:0:
259,141,113729,5,10,1:0:0:0:
230,125,113804,1,0,0:0:0:0:
196,123,113879,1,2,3:2:0:0:
165,134,113954,1,0,1:0:0:0:
140,156,114029,5,14,0:0:0:0:
130,206,114104,1,10,0:0:0:0:
121,256,114179,1,10,0:0:0:0:
111,305,114254,1,10,0:0:0:0:
102,355,114329,5,2,3:2:0:0:
97,330,114404,1,2,3:2:0:0:
77,265,114479,5,2,3:2:0:0:
60,191,114554,1,2,3:2:0:0:
37,103,114629,6,0,L|21:30,1,75.0000028610231,10|2,0:0|0:0,0:0:0:0:
409,169,114779,6,0,L|425:96,1,75.0000028610231,2|2,3:2|3:2,0:0:0:0:
77,265,114929,6,0,L|61:192,1,75.0000028610231,8|8,1:0|1:0,0:0:0:0:
501,109,115079,6,0,L|485:182,1,75.0000028610231,8|8,1:0|1:0,0:0:0:0:
102,355,115229,5,14,1:0:0:0:
