osu file format v14

[General]
AudioFilename: audio.mp3
AudioLeadIn: 0
PreviewTime: 96448
Countdown: 0
SampleSet: Soft
StackLeniency: 0.7
Mode: 3
LetterboxInBreaks: 0
SpecialStyle: 0
WidescreenStoryboard: 1

[Editor]
DistanceSpacing: 0.8
BeatDivisor: 4
GridSize: 8
TimelineZoom: 2.1

[Metadata]
Title:Journey
TitleUnicode:Journey
Artist:ARForest
ArtistUnicode:ARForest
Creator:[ A v a l o n ]
Version:Ultra
Source:Lanota
Tags:Instrumental Video Game Featured Artist FA Arcaea Collaboration Art for Rest First Album Frost Era M3-43 _VianK_ Artcore
BeatmapID:2004429
BeatmapSetID:942240

[Difficulty]
HPDrainRate:7.5
CircleSize:4
OverallDifficulty:7.5
ApproachRate:5
SliderMultiplier:1.4
SliderTickRate:1

[Events]
//Background and Video events
0,0,"3.jpg",0,0
//Break Periods
//Storyboard Layer 0 (Background)
//Storyboard Layer 1 (Fail)
//Storyboard Layer 2 (Pass)
//Storyboard Layer 3 (Foreground)
//Storyboard Layer 4 (Overlay)
//Storyboard Sound Samples
Sample,81893,0,"Soft Snare.wav",50
Sample,91493,0,"Soft Snare.wav",50

[TimingPoints]
443,300,4,2,1,35,1,0
19643,-100,4,2,1,40,0,0
29243,-100,4,2,1,45,0,0
38843,-100,4,2,1,35,0,0
58043,-100,4,2,1,50,0,0
96443,-100,4,2,1,60,0,1
134843,-100,4,2,1,35,0,0

[HitObjects]
192,192,443,5,0,0:0:0:0:
320,192,443,128,0,743:0:0:0:0:
64,192,743,1,0,0:0:0:0:
448,192,893,1,0,0:0:0:0:
192,192,1043,1,0,0:0:0:0:
64,192,1643,128,0,1943:0:0:0:0:
320,192,1643,1,0,0:0:0:0:
448,192,1943,1,0,0:0:0:0:
192,192,2093,1,0,0:0:0:0:
320,192,2243,1,0,0:0:0:0:
192,192,2543,1,0,0:0:0:0:
448,192,2543,128,0,2843:0:0:0:0:
64,192,2843,128,0,3143:0:0:0:0:
320,192,2843,1,0,0:0:0:0:
192,192,3143,1,0,0:0:0:0:
320,192,3293,1,0,0:0:0:0:
448,192,3443,1,0,0:0:0:0:
64,192,3743,128,0,4043:0:0:0:0:
192,192,4043,128,0,4343:0:0:0:0:
320,192,4043,1,0,0:0:0:0:
64,192,4343,1,0,0:0:0:0:
448,192,4343,128,0,4643:0:0:0:0:
192,192,4643,1,0,0:0:0:0:
320,192,4643,128,0,4943:0:0:0:0:
192,192,4943,128,0,5243:0:0:0:0:
448,192,4943,1,0,0:0:0:0:
64,192,5243,128,0,5543:0:0:0:0:
320,192,5243,1,0,0:0:0:0:
448,192,5543,1,0,0:0:0:0:
192,192,5693,1,0,0:0:0:0:
320,192,5843,1,0,0:0:0:0:
64,192,6143,128,0,6443:0:0:0:0:
448,192,6143,1,0,0:0:0:0:
192,192,6443,1,0,0:0:0:0:
320,192,6443,128,0,6743:0:0:0:0:
448,192,6743,1,0,0:0:0:0:
64,192,6893,1,0,0:0:0:0:
192,192,7043,1,0,0:0:0:0:
320,192,7343,128,0,7643:0:0:0:0:
448,192,7343,1,0,0:0:0:0:
64,192,7643,1,0,0:0:0:0:
192,192,7643,128,0,7943:0:0:0:0:
320,192,7943,1,0,0:0:0:0:
448,192,8093,1,0,0:0:0:0:
64,192,8243,1,0,0:0:0:0:
448,192,8543,128,0,8843:0:0:0:0:
192,192,8843,1,0,0:0:0:0:
320,192,8843,128,0,9143:0:0:0:0:
64,192,9143,128,0,9443:0:0:0:0:
448,192,9143,1,0,0:0:0:0:
192,192,9443,1,0,0:0:0:0:
448,192,9443,128,0,9743:0:0:0:0:
192,192,9743,128,0,10043:0:0:0:0:
320,192,9743,1,0,0:0:0:0:
64,192,10043,1,0,0:0:0:0:
448,192,10043,128,0,10943:0:0:0:0:
320,192,10493,128,0,10943:0:0:0:0:
64,192,10943,128,0,12443:0:0:0:0:
192,192,11243,128,0,12443:0:0:0:0:
448,192,11243,1,0,0:0:0:0:
320,192,12443,1,0,0:0:0:0:
448,192,12443,128,0,13343:0:0:0:0:
64,192,12893,128,0,13343:0:0:0:0:
192,192,13343,128,0,14843:0:0:0:0:
320,192,13643,128,0,14843:0:0:0:0:
448,192,13643,1,0,0:0:0:0:
64,192,14843,128,0,15743:0:0:0:0:
192,192,15293,128,0,15743:0:0:0:0:
448,192,15743,128,0,17243:0:0:0:0:
64,192,16043,1,0,0:0:0:0:
320,192,16043,128,0,16643:0:0:0:0:
192,192,16643,128,0,17243:0:0:0:0:
64,192,17243,128,0,19643:0:0:0:0:
320,192,17243,1,0,0:0:0:0:
448,192,17693,1,0,0:0:0:0:
192,192,18143,1,0,0:0:0:0:
320,192,18443,1,0,0:0:0:0:
448,192,18743,1,0,0:0:0:0:
320,192,19043,1,0,0:0:0:0:
192,192,19343,1,0,0:0:0:0:
320,192,19643,1,2,0:0:0:0:
448,192,19643,128,0,20843:0:0:0:45:Synth.wav
64,192,20093,1,0,0:0:0:45:Synth.wav
64,192,20543,1,0,0:0:0:45:Synth.wav
192,192,20843,128,0,21443:0:0:0:45:Synth.wav
320,192,20843,1,0,0:0:0:0:
448,192,21143,1,0,0:0:0:0:
64,192,21293,1,0,0:0:0:45:Synth.wav
320,192,21443,128,0,22043:0:0:0:0:
448,192,21443,1,0,0:0:0:0:
64,192,21743,1,0,0:0:0:45:Synth.wav
192,192,21893,1,0,0:0:0:0:
64,192,22043,128,0,23243:0:0:0:45:Synth.wav
448,192,22043,1,0,0:0:0:0:
320,192,22493,1,0,0:0:0:45:Synth.wav
320,192,22943,1,0,0:0:0:45:Synth.wav
192,192,23243,128,0,23843:0:0:0:45:Synth.wav
448,192,23243,1,0,0:0:0:0:
320,192,23543,1,0,0:0:0:0:
64,192,23693,1,0,0:0:0:45:Synth.wav
320,192,23843,128,0,24443:0:0:0:0:
448,192,23843,1,0,0:0:0:0:
64,192,24143,1,0,0:0:0:45:Synth.wav
192,192,24293,1,0,0:0:0:0:
64,192,24443,1,2,0:0:0:0:
448,192,24443,128,0,25643:0:0:0:45:Synth.wav
192,192,24893,1,0,0:0:0:45:Synth.wav
192,192,25343,1,0,0:0:0:45:Synth.wav
64,192,25643,1,0,0:0:0:45:Synth.wav
320,192,25643,128,0,26243:0:0:0:0:
448,192,25943,1,0,0:0:0:0:
64,192,26093,1,0,0:0:0:45:Synth.wav
192,192,26243,128,0,26843:0:0:0:0:
448,192,26243,1,0,0:0:0:0:
320,192,26543,1,0,0:0:0:45:Synth.wav
448,192,26693,1,0,0:0:0:0:
64,192,26843,128,0,28043:0:0:0:45:Synth.wav
320,192,26843,1,0,0:0:0:0:
192,192,27293,1,0,0:0:0:45:Synth.wav
192,192,27743,1,0,0:0:0:45:Synth.wav
448,192,28043,1,0,0:0:0:40:Soft Snare.wav
320,192,28143,1,0,0:0:0:40:Soft Snare.wav
192,192,28243,1,0,0:0:0:40:Soft Snare.wav
64,192,28343,1,0,0:0:0:40:Soft Snare.wav
448,192,28443,1,0,0:0:0:40:Soft Snare.wav
320,192,28543,1,0,0:0:0:40:Soft Snare.wav
192,192,28643,1,0,0:0:0:40:Soft Snare.wav
64,192,28743,1,0,0:0:0:40:Soft Snare.wav
448,192,28843,1,0,0:0:0:40:Soft Snare.wav
320,192,28943,1,0,0:0:0:40:Soft Snare.wav
192,192,29043,1,0,0:0:0:40:Soft Snare.wav
64,192,29143,1,0,0:0:0:40:Soft Snare.wav
320,192,29243,1,4,0:0:0:0:
448,192,29243,1,0,0:0:0:50:Soft Snare.wav
192,192,29393,1,0,0:0:0:50:Soft Snare.wav
64,192,29693,1,0,0:0:0:50:Soft Snare.wav
448,192,29993,1,0,0:0:0:50:Soft Snare.wav
192,192,30143,1,0,0:0:0:50:Soft Snare.wav
192,192,30593,1,0,0:0:0:50:Soft Snare.wav
320,192,30668,1,0,0:0:0:50:Soft Snare.wav
448,192,30743,1,0,0:0:0:50:Soft Snare.wav
192,192,30893,1,0,0:0:0:50:Soft Snare.wav
64,192,31043,1,0,0:0:0:50:Soft Snare.wav
320,192,31193,1,0,0:0:0:50:Soft Snare.wav
192,192,31493,1,0,0:0:0:50:Soft Snare.wav
64,192,31643,1,0,0:0:0:50:Soft Snare.wav
320,192,31793,1,0,0:0:0:50:Soft Snare.wav
192,192,32093,1,0,0:0:0:50:Soft Snare.wav
448,192,32393,1,0,0:0:0:50:Soft Snare.wav
320,192,32543,1,0,0:0:0:50:Soft Snare.wav
192,192,32993,1,0,0:0:0:50:Soft Snare.wav
320,192,33068,1,0,0:0:0:50:Soft Snare.wav
448,192,33143,1,0,0:0:0:50:Soft Snare.wav
192,192,33293,1,0,0:0:0:50:Soft Snare.wav
64,192,33443,1,0,0:0:0:50:Soft Snare.wav
320,192,33593,128,0,33743:0:0:0:50:Soft Snare.wav
192,192,33743,1,0,0:0:0:50:Soft Snare.wav
448,192,33893,1,0,0:0:0:50:Soft Snare.wav
320,192,33968,1,0,0:0:0:50:Soft Snare.wav
64,192,34043,1,2,0:0:0:0:
192,192,34043,1,0,0:0:0:50:Soft Snare.wav
320,192,34193,1,0,0:0:0:50:Soft Snare.wav
448,192,34493,1,0,0:0:0:50:Soft Snare.wav
192,192,34793,1,0,0:0:0:50:Soft Snare.wav
448,192,34943,1,0,0:0:0:50:Soft Snare.wav
64,192,35393,1,0,0:0:0:50:Soft Snare.wav
192,192,35468,1,0,0:0:0:50:Soft Snare.wav
320,192,35543,1,0,0:0:0:50:Soft Snare.wav
192,192,35693,1,0,0:0:0:50:Soft Snare.wav
448,192,35843,1,0,0:0:0:50:Soft Snare.wav
320,192,35993,1,0,0:0:0:50:Soft Snare.wav
192,192,36293,1,0,0:0:0:50:Soft Snare.wav
448,192,36443,1,0,0:0:0:50:Soft Snare.wav
320,192,36593,1,0,0:0:0:50:Soft Snare.wav
64,192,36893,1,0,0:0:0:50:Soft Snare.wav
192,192,37193,1,0,0:0:0:50:Soft Snare.wav
320,192,37268,1,0,0:0:0:50:Soft Snare.wav
448,192,37343,1,0,0:0:0:50:Soft Snare.wav
64,192,37493,1,0,0:0:0:50:Soft Snare.wav
320,192,37793,1,0,0:0:0:50:Soft Snare.wav
192,192,37868,1,0,0:0:0:50:Soft Snare.wav
448,192,37943,1,0,0:0:0:50:Soft Snare.wav
320,192,38018,1,0,0:0:0:50:Soft Snare.wav
64,192,38093,1,0,0:0:0:50:Soft Snare.wav
192,192,38168,1,0,0:0:0:50:Soft Snare.wav
320,192,38243,128,0,38543:0:0:0:50:Soft Snare.wav
64,192,38543,128,0,38843:0:0:0:50:Soft Snare.wav
320,192,38843,1,4,0:0:0:0:
448,192,38843,128,0,39143:0:0:0:45:Synth.wav
192,192,39143,128,0,39443:0:0:0:0:
64,192,39443,128,0,39743:0:0:0:45:Synth.wav
448,192,39443,1,0,0:0:0:0:
320,192,39743,1,0,0:0:0:0:
192,192,39893,1,0,0:0:0:0:
64,192,40043,1,0,0:0:0:45:Synth.wav
448,192,40043,128,0,40493:0:0:0:0:
64,192,40493,128,0,40943:0:0:0:0:
320,192,40643,1,0,0:0:0:45:Synth.wav
448,192,40943,1,0,0:0:0:0:
320,192,41018,1,0,0:0:0:0:
192,192,41093,1,0,0:0:0:0:
64,192,41168,1,0,0:0:0:0:
320,192,41243,128,0,41393:0:0:0:45:Synth.wav
448,192,41243,1,0,0:0:0:0:
192,192,41393,128,0,41543:0:0:0:0:
64,192,41543,128,0,41843:0:0:0:0:
320,192,41843,128,0,41918:0:0:0:45:Synth.wav
448,192,41843,128,0,41918:0:0:0:0:
192,192,41993,128,0,42143:0:0:0:0:
320,192,42143,128,0,42293:0:0:0:0:
64,192,42443,128,0,42893:0:0:0:45:Synth.wav
448,192,42443,1,0,0:0:0:0:
192,192,42743,128,0,42893:0:0:0:0:
320,192,42893,1,0,0:0:0:0:
448,192,42968,1,0,0:0:0:0:
192,192,43043,1,0,0:0:0:45:Synth.wav
64,192,43193,1,0,0:0:0:0:
320,192,43343,1,0,0:0:0:0:
192,192,43493,1,0,0:0:0:0:
64,192,43643,128,0,43943:0:0:0:45:Synth.wav
448,192,43643,1,0,0:0:0:0:
320,192,43943,128,0,44243:0:0:0:0:
192,192,44243,1,0,0:0:0:45:Synth.wav
448,192,44243,128,0,44393:0:0:0:0:
64,192,44543,128,0,44693:0:0:0:0:
192,192,44693,1,0,0:0:0:0:
320,192,44768,1,0,0:0:0:0:
64,192,44843,1,0,0:0:0:45:Synth.wav
448,192,44843,128,0,45293:0:0:0:0:
192,192,45293,1,0,0:0:0:0:
320,192,45293,128,0,45743:0:0:0:0:
64,192,45443,1,0,0:0:0:45:Synth.wav
64,192,45743,1,0,0:0:0:0:
192,192,45818,1,0,0:0:0:0:
320,192,45893,1,0,0:0:0:0:
448,192,45968,1,0,0:0:0:0:
64,192,46043,128,0,46193:0:0:0:45:Synth.wav
192,192,46043,128,0,46193:0:0:0:0:
320,192,46268,128,0,46343:0:0:0:0:
448,192,46268,128,0,46343:0:0:0:0:
64,192,46643,1,0,0:0:0:45:Synth.wav
448,192,46643,128,0,46793:0:0:0:0:
192,192,46793,128,0,46943:0:0:0:0:
64,192,46943,128,0,47243:0:0:0:0:
320,192,47243,1,0,0:0:0:45:Synth.wav
448,192,47243,1,0,0:0:0:0:
192,192,47318,1,0,0:0:0:0:
448,192,47393,128,0,47693:0:0:0:0:
320,192,47543,128,0,47693:0:0:0:0:
64,192,47843,1,0,0:0:0:45:Synth.wav
192,192,47843,128,0,47993:0:0:0:0:
320,192,47993,128,0,48143:0:0:0:0:
64,192,48143,128,0,48443:0:0:0:0:
192,192,48293,128,0,48443:0:0:0:0:
448,192,48443,1,0,0:0:0:45:Synth.wav
320,192,48593,1,0,0:0:0:0:
64,192,48743,1,0,0:0:0:0:
192,192,48893,1,0,0:0:0:0:
320,192,49043,1,0,0:0:0:45:Synth.wav
448,192,49043,128,0,49193:0:0:0:0:
64,192,49343,128,0,49643:0:0:0:0:
192,192,49643,1,0,0:0:0:45:Synth.wav
448,192,49643,1,0,0:0:0:0:
320,192,49793,1,0,0:0:0:0:
64,192,49943,1,0,0:0:0:0:
192,192,50093,1,0,0:0:0:0:
448,192,50093,128,0,50543:0:0:0:0:
320,192,50243,128,0,50543:0:0:0:45:Synth.wav
64,192,50543,1,0,0:0:0:0:
192,192,50618,1,0,0:0:0:0:
320,192,50693,1,0,0:0:0:0:
448,192,50768,1,0,0:0:0:0:
64,192,50843,1,0,0:0:0:45:Synth.wav
192,192,50843,128,0,50993:0:0:0:0:
448,192,50993,128,0,51143:0:0:0:0:
320,192,51143,1,0,0:0:0:0:
192,192,51293,1,0,0:0:0:0:
64,192,51443,1,0,0:0:0:45:Synth.wav
448,192,51443,1,0,0:0:0:0:
320,192,51593,128,0,51743:0:0:0:0:
64,192,51743,1,0,0:0:0:0:
192,192,51893,1,0,0:0:0:0:
64,192,52043,1,0,0:0:0:45:Synth.wav
448,192,52043,1,0,0:0:0:0:
320,192,52193,1,0,0:0:0:0:
192,192,52268,1,0,0:0:0:0:
64,192,52343,1,0,0:0:0:0:
448,192,52493,1,0,0:0:0:0:
320,192,52568,1,0,0:0:0:0:
64,192,52643,1,0,0:0:0:45:Synth.wav
192,192,52643,1,0,0:0:0:0:
448,192,52793,1,0,0:0:0:0:
64,192,52943,1,0,0:0:0:0:
192,192,53093,1,0,0:0:0:0:
320,192,53243,1,0,0:0:0:45:Synth.wav
448,192,53243,1,0,0:0:0:0:
192,192,53393,1,0,0:0:0:0:
320,192,53468,1,0,0:0:0:0:
64,192,53543,128,0,53693:0:0:0:0:
448,192,53543,1,0,0:0:0:0:
192,192,53693,128,0,53843:0:0:0:0:
320,192,53843,128,0,53993:0:0:0:45:Synth.wav
448,192,53843,128,0,53993:0:0:0:0:
192,192,54143,1,0,0:0:0:0:
320,192,54293,1,0,0:0:0:0:
64,192,54443,1,0,0:0:0:45:Synth.wav
448,192,54443,1,0,0:0:0:0:
192,192,54593,1,0,0:0:0:0:
320,192,54743,1,0,0:0:0:0:
64,192,54893,128,0,55043:0:0:0:0:
192,192,54893,128,0,55043:0:0:0:0:
320,192,55043,1,0,0:0:0:45:Synth.wav
448,192,55043,1,0,0:0:0:0:
192,192,55343,1,0,0:0:0:0:
64,192,55418,1,0,0:0:0:0:
192,192,55493,1,0,0:0:0:0:
64,192,55568,1,0,0:0:0:0:
320,192,55643,1,0,0:0:0:45:Synth.wav
448,192,55643,1,0,0:0:0:0:
192,192,55793,1,0,0:0:0:0:
64,192,55943,1,0,0:0:0:0:
448,192,55943,1,0,0:0:0:0:
320,192,56093,1,0,0:0:0:0:
192,192,56243,1,0,0:0:0:45:Synth.wav
448,192,56243,1,0,0:0:0:0:
64,192,56393,128,0,56843:0:0:0:0:
192,192,56543,128,0,56843:0:0:0:0:
320,192,56843,1,0,0:0:0:45:Synth.wav
448,192,56843,128,0,57143:0:0:0:0:
320,192,57143,128,0,57443:0:0:0:0:
192,192,57443,128,0,57743:0:0:0:0:
64,192,57743,128,0,58043:0:0:0:0:
320,192,58043,1,4,0:0:0:0:
448,192,58043,1,0,0:0:0:50:Synth.wav
64,192,58193,1,0,0:0:0:0:
448,192,58343,1,0,0:0:0:0:
64,192,58493,1,0,0:0:0:50:Synth.wav
192,192,58493,1,0,0:0:0:0:
320,192,58643,1,0,0:0:0:0:
192,192,58793,1,0,0:0:0:0:
320,192,58943,1,0,0:0:0:50:Synth.wav
448,192,58943,1,0,0:0:0:0:
64,192,59093,1,0,0:0:0:0:
448,192,59243,1,0,0:0:0:0:
64,192,59393,1,0,0:0:0:50:Synth.wav
192,192,59393,1,0,0:0:0:0:
320,192,59543,1,0,0:0:0:0:
192,192,59693,1,0,0:0:0:0:
320,192,59843,1,0,0:0:0:50:Synth.wav
448,192,59843,1,0,0:0:0:0:
64,192,59993,1,0,0:0:0:0:
192,192,60143,1,0,0:0:0:50:Synth.wav
320,192,60143,1,0,0:0:0:0:
448,192,60293,1,0,0:0:0:0:
64,192,60443,1,0,0:0:0:50:Synth.wav
192,192,60443,1,0,0:0:0:0:
320,192,60593,1,0,0:0:0:0:
64,192,60743,1,0,0:0:0:0:
320,192,60893,1,0,0:0:0:50:Synth.wav
448,192,60893,1,0,0:0:0:0:
192,192,61043,1,0,0:0:0:0:
448,192,61193,1,0,0:0:0:0:
64,192,61343,1,0,0:0:0:50:Synth.wav
192,192,61343,1,0,0:0:0:0:
320,192,61493,1,0,0:0:0:0:
64,192,61643,1,0,0:0:0:0:
320,192,61793,1,0,0:0:0:50:Synth.wav
448,192,61793,1,0,0:0:0:0:
192,192,61943,1,0,0:0:0:0:
64,192,62093,1,0,0:0:0:0:
320,192,62243,1,0,0:0:0:50:Synth.wav
448,192,62243,1,0,0:0:0:0:
192,192,62393,1,0,0:0:0:0:
64,192,62543,1,0,0:0:0:50:Synth.wav
320,192,62543,1,0,0:0:0:0:
448,192,62693,1,0,0:0:0:0:
64,192,62843,1,0,0:0:0:50:Synth.wav
192,192,62843,1,0,0:0:0:0:
320,192,62993,1,0,0:0:0:0:
64,192,63143,1,0,0:0:0:0:
320,192,63293,1,0,0:0:0:50:Synth.wav
448,192,63293,1,0,0:0:0:0:
192,192,63443,1,0,0:0:0:0:
448,192,63593,1,0,0:0:0:0:
64,192,63743,1,0,0:0:0:50:Synth.wav
192,192,63743,1,0,0:0:0:0:
320,192,63893,1,0,0:0:0:0:
64,192,64043,1,0,0:0:0:0:
320,192,64193,1,0,0:0:0:50:Synth.wav
448,192,64193,1,0,0:0:0:0:
192,192,64343,1,0,0:0:0:0:
448,192,64493,1,0,0:0:0:0:
64,192,64643,1,0,0:0:0:50:Synth.wav
192,192,64643,1,0,0:0:0:0:
320,192,64793,1,0,0:0:0:0:
64,192,64943,1,0,0:0:0:50:Synth.wav
448,192,64943,1,0,0:0:0:0:
192,192,65093,1,0,0:0:0:0:
320,192,65243,1,0,0:0:0:50:Synth.wav
448,192,65243,1,0,0:0:0:0:
64,192,65393,1,0,0:0:0:0:
448,192,65543,1,0,0:0:0:0:
64,192,65693,1,0,0:0:0:50:Synth.wav
192,192,65693,1,0,0:0:0:0:
320,192,65843,1,0,0:0:0:0:
192,192,65993,1,0,0:0:0:0:
320,192,66143,1,0,0:0:0:50:Synth.wav
448,192,66143,1,0,0:0:0:0:
64,192,66293,1,0,0:0:0:0:
448,192,66443,1,0,0:0:0:0:
64,192,66593,1,0,0:0:0:50:Synth.wav
192,192,66593,1,0,0:0:0:0:
320,192,66743,1,0,0:0:0:0:
448,192,66893,1,0,0:0:0:0:
64,192,67043,1,0,0:0:0:50:Synth.wav
192,192,67043,1,0,0:0:0:0:
320,192,67193,1,0,0:0:0:0:
64,192,67343,1,0,0:0:0:50:Synth.wav
448,192,67343,1,0,0:0:0:0:
192,192,67493,1,0,0:0:0:0:
320,192,67643,1,2,0:0:0:0:
448,192,67643,1,0,0:0:0:50:Synth.wav
192,192,67793,1,0,0:0:0:0:
448,192,67943,1,0,0:0:0:0:
64,192,68093,1,0,0:0:0:50:Synth.wav
192,192,68093,1,0,0:0:0:0:
320,192,68243,1,8,0:0:0:0:
448,192,68243,1,0,0:0:0:0:
64,192,68393,1,0,0:0:0:0:
192,192,68543,1,0,0:0:0:50:Synth.wav
448,192,68543,1,0,0:0:0:0:
64,192,68693,1,0,0:0:0:0:
320,192,68843,1,0,0:0:0:0:
192,192,68993,1,0,0:0:0:50:Synth.wav
448,192,68993,1,0,0:0:0:0:
320,192,69143,1,0,0:0:0:0:
64,192,69293,1,0,0:0:0:0:
320,192,69443,1,8,0:0:0:0:
448,192,69443,1,0,0:0:0:50:Synth.wav
192,192,69593,1,0,0:0:0:0:
64,192,69743,1,0,0:0:0:50:Synth.wav
320,192,69743,1,0,0:0:0:0:
448,192,69893,1,0,0:0:0:0:
64,192,70043,1,2,0:0:0:0:
192,192,70043,1,0,0:0:0:50:Synth.wav
448,192,70193,1,0,0:0:0:0:
192,192,70343,1,0,0:0:0:0:
320,192,70493,1,0,0:0:0:50:Synth.wav
448,192,70493,1,0,0:0:0:0:
64,192,70643,1,8,0:0:0:0:
192,192,70643,1,0,0:0:0:0:
448,192,70793,1,0,0:0:0:0:
64,192,70943,1,0,0:0:0:50:Synth.wav
320,192,70943,1,0,0:0:0:0:
192,192,71093,1,0,0:0:0:0:
320,192,71243,1,0,0:0:0:0:
64,192,71393,1,0,0:0:0:50:Synth.wav
192,192,71393,1,0,0:0:0:0:
448,192,71543,1,0,0:0:0:0:
320,192,71693,1,0,0:0:0:0:
64,192,71843,1,8,0:0:0:0:
192,192,71843,1,0,0:0:0:50:Synth.wav
448,192,71993,1,0,0:0:0:0:
192,192,72143,1,0,0:0:0:50:Synth.wav
320,192,72143,1,0,0:0:0:0:
64,192,72293,1,0,0:0:0:0:
320,192,72443,1,2,0:0:0:0:
448,192,72443,1,0,0:0:0:50:Synth.wav
192,192,72593,1,0,0:0:0:0:
448,192,72743,1,0,0:0:0:0:
64,192,72893,1,0,0:0:0:50:Synth.wav
192,192,72893,1,0,0:0:0:0:
320,192,73043,1,8,0:0:0:0:
448,192,73043,1,0,0:0:0:0:
64,192,73193,1,0,0:0:0:0:
192,192,73343,1,0,0:0:0:50:Synth.wav
320,192,73343,1,0,0:0:0:0:
448,192,73493,1,0,0:0:0:0:
64,192,73643,1,0,0:0:0:0:
192,192,73793,1,0,0:0:0:50:Synth.wav
320,192,73793,1,0,0:0:0:0:
448,192,73943,1,0,0:0:0:0:
192,192,74093,1,0,0:0:0:0:
64,192,74243,1,8,0:0:0:0:
320,192,74243,1,0,0:0:0:50:Synth.wav
448,192,74393,1,0,0:0:0:0:
64,192,74543,1,0,0:0:0:50:Synth.wav
192,192,74543,1,0,0:0:0:0:
320,192,74693,1,0,0:0:0:0:
192,192,74843,1,2,0:0:0:0:
448,192,74843,1,0,0:0:0:50:Synth.wav
64,192,74993,1,0,0:0:0:0:
320,192,75143,1,0,0:0:0:0:
64,192,75293,1,0,0:0:0:50:Synth.wav
192,192,75293,1,0,0:0:0:0:
448,192,75443,1,0,0:0:0:0:
192,192,75593,1,0,0:0:0:0:
320,192,75743,1,0,0:0:0:50:Synth.wav
448,192,75743,1,0,0:0:0:0:
64,192,75893,1,8,0:0:0:0:
320,192,76043,1,0,0:0:0:0:
64,192,76193,1,8,0:0:0:0:
448,192,76193,1,0,0:0:0:50:Synth.wav
192,192,76343,1,0,0:0:0:0:
320,192,76493,1,0,0:0:0:0:
64,192,76643,1,8,0:0:0:0:
448,192,76643,1,0,0:0:0:50:Synth.wav
192,192,76793,1,0,0:0:0:0:
64,192,76943,1,8,0:0:0:0:
448,192,76943,1,0,0:0:0:0:
320,192,77018,1,8,0:0:0:0:
192,192,77093,1,8,0:0:0:0:
64,192,77168,1,8,0:0:0:0:
320,192,77243,1,2,0:0:0:0:
448,192,77243,1,4,0:0:0:0:
192,192,77393,128,0,77543:0:0:0:0:
64,192,77543,128,0,77693:0:0:0:0:
320,192,77693,128,2,77843:0:0:0:0:
448,192,77693,1,0,0:0:0:50:Soft Snare.wav
192,192,77843,128,0,77993:0:0:0:0:
64,192,77993,1,0,0:0:0:50:Soft Snare.wav
320,192,78143,1,2,0:0:0:0:
448,192,78143,1,0,0:0:0:50:Soft Snare.wav
320,192,78443,128,0,78593:0:0:0:0:
192,192,78593,128,0,78743:0:0:0:50:Soft Snare.wav
64,192,78743,1,0,0:0:0:50:Soft Snare.wav
320,192,78893,1,0,0:0:0:50:Soft Snare.wav
192,192,79043,1,0,0:0:0:50:Soft Snare.wav
448,192,79193,1,0,0:0:0:50:Soft Snare.wav
64,192,79343,128,0,79493:0:0:0:0:
192,192,79493,128,0,79643:0:0:0:50:Soft Snare.wav
320,192,79643,1,2,0:0:0:0:
448,192,79643,1,0,0:0:0:50:Soft Snare.wav
192,192,79943,128,0,80093:0:0:0:0:
320,192,80093,128,2,80243:0:0:0:0:
448,192,80093,1,0,0:0:0:50:Soft Snare.wav
64,192,80243,128,0,80393:0:0:0:0:
192,192,80393,1,0,0:0:0:50:Soft Snare.wav
320,192,80543,1,2,0:0:0:0:
448,192,80543,1,0,0:0:0:50:Soft Snare.wav
192,192,80843,128,0,80993:0:0:0:0:
64,192,80993,128,0,81143:0:0:0:50:Soft Snare.wav
320,192,81143,128,0,81293:0:0:0:50:Soft Snare.wav
192,192,81293,1,0,0:0:0:50:Soft Snare.wav
64,192,81443,1,2,0:0:0:0:
448,192,81443,1,0,0:0:0:50:Soft Snare.wav
320,192,81593,1,0,0:0:0:50:Soft Snare.wav
64,192,81743,128,2,82043:0:0:0:0:
448,192,81743,1,0,0:0:0:50:Soft Snare.wav
192,192,81893,1,2,0:0:0:0:
320,192,82043,1,2,0:0:0:0:
448,192,82043,1,0,0:0:0:50:Soft Snare.wav
192,192,82193,128,0,82343:0:0:0:50:Soft Snare.wav
320,192,82343,128,0,82493:0:0:0:0:
64,192,82493,128,2,82643:0:0:0:0:
448,192,82493,1,0,0:0:0:50:Soft Snare.wav
192,192,82643,128,0,82793:0:0:0:0:
320,192,82793,1,0,0:0:0:50:Soft Snare.wav
64,192,82943,1,2,0:0:0:0:
448,192,82943,1,0,0:0:0:50:Soft Snare.wav
448,192,83243,128,0,83393:0:0:0:0:
320,192,83393,128,0,83543:0:0:0:50:Soft Snare.wav
192,192,83543,128,0,83693:0:0:0:50:Soft Snare.wav
64,192,83693,128,0,83843:0:0:0:50:Soft Snare.wav
320,192,83843,1,0,0:0:0:50:Soft Snare.wav
448,192,83993,1,0,0:0:0:50:Soft Snare.wav
192,192,84143,128,0,84293:0:0:0:0:
320,192,84293,128,0,84443:0:0:0:50:Soft Snare.wav
64,192,84443,1,2,0:0:0:0:
448,192,84443,1,0,0:0:0:50:Soft Snare.wav
192,192,84593,1,0,0:0:0:50:Soft Snare.wav
448,192,84743,128,0,84893:0:0:0:0:
64,192,84893,1,2,0:0:0:0:
320,192,84893,128,0,85043:0:0:0:50:Soft Snare.wav
192,192,85043,128,0,85193:0:0:0:0:
64,192,85193,128,0,85343:0:0:0:50:Soft Snare.wav
320,192,85343,1,2,0:0:0:0:
448,192,85343,1,0,0:0:0:50:Soft Snare.wav
192,192,85493,1,0,0:0:0:50:Soft Snare.wav
64,192,85643,128,0,85793:0:0:0:0:
192,192,85793,128,2,85943:0:0:0:0:
448,192,85793,1,0,0:0:0:50:Soft Snare.wav
320,192,85943,128,0,86093:0:0:0:50:Soft Snare.wav
64,192,86093,1,2,0:0:0:0:
448,192,86093,128,0,86243:0:0:0:50:Soft Snare.wav
64,192,86243,1,2,0:0:0:0:
192,192,86243,1,0,0:0:0:50:Soft Snare.wav
320,192,86543,1,2,0:0:0:0:
448,192,86543,1,0,0:0:0:50:Soft Snare.wav
64,192,86843,128,2,89243:0:0:0:0:
448,192,86843,1,0,0:0:0:50:Soft Snare.wav
192,192,86993,1,0,0:0:0:50:Soft Snare.wav
320,192,87293,1,2,0:0:0:0:
448,192,87293,1,0,0:0:0:50:Soft Snare.wav
192,192,87593,1,0,0:0:0:50:Soft Snare.wav
320,192,87743,1,2,0:0:0:0:
448,192,87743,1,0,0:0:0:50:Soft Snare.wav
320,192,88193,1,0,0:0:0:50:Soft Snare.wav
448,192,88343,1,0,0:0:0:50:Soft Snare.wav
192,192,88493,1,0,0:0:0:50:Soft Snare.wav
448,192,88643,1,0,0:0:0:50:Soft Snare.wav
320,192,88793,1,0,0:0:0:50:Soft Snare.wav
448,192,89093,1,0,0:0:0:50:Soft Snare.wav
192,192,89243,128,2,90143:0:0:0:0:
320,192,89243,1,0,0:0:0:50:Soft Snare.wav
448,192,89393,1,0,0:0:0:50:Soft Snare.wav
64,192,89693,1,2,0:0:0:0:
320,192,89693,1,0,0:0:0:50:Soft Snare.wav
448,192,89993,1,0,0:0:0:50:Soft Snare.wav
64,192,90143,1,2,0:0:0:0:
320,192,90143,128,0,91643:0:0:0:50:Soft Snare.wav
192,192,90593,1,0,0:0:0:50:Soft Snare.wav
64,192,90743,1,0,0:0:0:50:Soft Snare.wav
192,192,90893,1,0,0:0:0:50:Soft Snare.wav
64,192,91043,1,2,0:0:0:0:
448,192,91043,1,0,0:0:0:50:Soft Snare.wav
64,192,91343,1,2,0:0:0:0:
448,192,91343,1,0,0:0:0:50:Soft Snare.wav
192,192,91493,1,2,0:0:0:0:
64,192,91643,1,2,0:0:0:0:
448,192,91643,128,0,94043:0:0:0:50:Soft Snare.wav
192,192,91793,1,0,0:0:0:50:Soft Snare.wav
64,192,92093,1,2,0:0:0:0:
192,192,92093,1,0,0:0:0:50:Soft Snare.wav
320,192,92393,1,0,0:0:0:50:Soft Snare.wav
64,192,92543,1,2,0:0:0:0:
192,192,92543,1,0,0:0:0:50:Soft Snare.wav
192,192,92993,1,0,0:0:0:50:Soft Snare.wav
320,192,93143,1,0,0:0:0:50:Soft Snare.wav
64,192,93293,1,0,0:0:0:50:Soft Snare.wav
320,192,93443,1,0,0:0:0:50:Soft Snare.wav
192,192,93593,1,0,0:0:0:50:Soft Snare.wav
320,192,93893,1,0,0:0:0:50:Soft Snare.wav
64,192,94043,128,2,95243:0:0:0:0:
192,192,94043,1,0,0:0:0:50:Soft Snare.wav
320,192,94193,1,0,0:0:0:50:Soft Snare.wav
192,192,94493,1,2,0:0:0:0:
448,192,94493,1,0,0:0:0:50:Soft Snare.wav
320,192,94793,1,0,0:0:0:50:Soft Snare.wav
192,192,94943,1,2,0:0:0:0:
448,192,94943,1,0,0:0:0:50:Soft Snare.wav
320,192,95093,1,0,0:0:0:50:Soft Snare.wav
448,192,95243,1,0,0:0:0:0:
320,192,95318,1,0,0:0:0:0:
192,192,95393,1,0,0:0:0:0:
64,192,95468,1,0,0:0:0:0:
448,192,95543,128,0,95843:0:0:0:0:
320,192,95693,128,0,95843:0:0:0:0:
64,192,95843,1,0,0:0:0:0:
192,192,95918,1,0,0:0:0:0:
320,192,95993,1,0,0:0:0:0:
448,192,96068,1,0,0:0:0:0:
64,192,96143,128,0,96293:0:0:0:0:
320,192,96443,128,4,96593:0:0:0:0:
448,192,96443,1,2,0:0:0:0:
192,192,96593,128,0,96743:0:0:0:0:
64,192,96743,128,8,96893:0:0:0:0:
448,192,96743,1,0,0:0:0:0:
320,192,96893,1,2,0:0:0:0:
192,192,97043,128,0,97193:0:0:0:0:
320,192,97193,128,2,97343:0:0:0:0:
448,192,97343,1,8,0:0:0:0:
64,192,97343,128,0,97493:0:0:0:0:
192,192,97493,128,2,97643:0:0:0:0:
448,192,97643,1,0,0:0:0:0:
320,192,97793,1,2,0:0:0:0:
64,192,97793,1,0,0:0:0:0:
192,192,97943,1,8,0:0:0:0:
448,192,97943,1,0,0:0:0:0:
64,192,98093,1,2,0:0:0:0:
320,192,98093,1,0,0:0:0:0:
192,192,98243,1,0,0:0:0:0:
320,192,98393,1,2,0:0:0:0:
448,192,98393,1,0,0:0:0:0:
192,192,98543,1,8,0:0:0:0:
448,192,98543,1,0,0:0:0:0:
64,192,98693,1,2,0:0:0:0:
320,192,98693,1,0,0:0:0:0:
64,192,98843,1,2,0:0:0:0:
192,192,98843,1,0,0:0:0:0:
320,192,98993,128,0,99143:0:0:0:0:
448,192,99143,128,2,99293:0:0:0:0:
64,192,99293,1,8,0:0:0:0:
192,192,99293,1,0,0:0:0:0:
320,192,99443,128,0,99593:0:0:0:0:
192,192,99593,128,2,99743:0:0:0:0:
448,192,99743,128,8,99893:0:0:0:0:
64,192,99743,1,0,0:0:0:0:
320,192,99893,128,2,100043:0:0:0:0:
192,192,100043,1,0,0:0:0:0:
448,192,100193,1,2,0:0:0:0:
320,192,100268,1,2,0:0:0:0:
64,192,100343,1,8,0:0:0:0:
192,192,100343,1,0,0:0:0:0:
448,192,100493,1,2,0:0:0:0:
320,192,100493,1,0,0:0:0:0:
192,192,100643,1,2,0:0:0:0:
64,192,100643,1,0,0:0:0:0:
448,192,100793,1,2,0:0:0:0:
320,192,100868,1,2,0:0:0:0:
192,192,100943,1,8,0:0:0:0:
448,192,100943,1,0,0:0:0:0:
64,192,101093,1,2,0:0:0:0:
192,192,101168,1,2,0:0:0:0:
320,192,101243,1,2,0:0:0:0:
448,192,101243,1,0,0:0:0:0:
192,192,101393,128,0,101543:0:0:0:0:
64,192,101543,128,8,101693:0:0:0:0:
448,192,101543,1,0,0:0:0:0:
320,192,101693,1,2,0:0:0:0:
192,192,101843,128,0,101993:0:0:0:0:
320,192,101993,128,2,102143:0:0:0:0:
448,192,102143,1,8,0:0:0:0:
64,192,102143,128,0,102293:0:0:0:0:
192,192,102293,128,2,102443:0:0:0:0:
320,192,102443,1,0,0:0:0:0:
448,192,102593,1,0,0:0:0:0:
192,192,102668,1,2,0:0:0:0:
320,192,102743,1,8,0:0:0:0:
448,192,102743,1,0,0:0:0:0:
192,192,102893,1,2,0:0:0:0:
64,192,102893,1,0,0:0:0:0:
448,192,103043,1,0,0:0:0:0:
320,192,103193,1,2,0:0:0:0:
192,192,103193,1,0,0:0:0:0:
64,192,103343,1,8,0:0:0:0:
448,192,103343,1,0,0:0:0:0:
192,192,103493,1,2,0:0:0:0:
320,192,103568,1,2,0:0:0:0:
64,192,103643,128,0,103793:0:0:0:0:
448,192,103643,1,0,0:0:0:0:
320,192,103793,1,2,0:0:0:0:
448,192,103793,1,0,0:0:0:0:
64,192,103943,1,8,0:0:0:0:
192,192,103943,1,0,0:0:0:0:
320,192,104093,1,2,0:0:0:0:
448,192,104093,128,0,104243:0:0:0:0:
64,192,104243,1,0,0:0:0:0:
192,192,104393,1,2,0:0:0:0:
320,192,104468,1,2,0:0:0:0:
64,192,104543,1,8,0:0:0:0:
448,192,104543,1,0,0:0:0:0:
64,192,104693,1,2,0:0:0:0:
192,192,104693,1,0,0:0:0:0:
192,192,104843,1,2,0:0:0:0:
320,192,104843,1,0,0:0:0:0:
448,192,104993,1,2,0:0:0:0:
320,192,105068,1,2,0:0:0:0:
192,192,105143,1,8,0:0:0:0:
448,192,105143,1,0,0:0:0:0:
64,192,105293,1,2,0:0:0:0:
320,192,105293,1,0,0:0:0:0:
192,192,105443,1,2,0:0:0:0:
64,192,105518,1,8,0:0:0:0:
448,192,105593,1,2,0:0:0:0:
320,192,105668,1,2,0:0:0:0:
64,192,105743,1,8,0:0:0:0:
192,192,105743,1,0,0:0:0:0:
192,192,105893,1,2,0:0:0:0:
448,192,105893,1,0,0:0:0:0:
320,192,106043,1,4,0:0:0:0:
448,192,106043,1,2,0:0:0:0:
192,192,106193,128,0,106343:0:0:0:0:
64,192,106343,128,8,106493:0:0:0:0:
448,192,106343,1,0,0:0:0:0:
320,192,106493,1,2,0:0:0:0:
192,192,106643,128,0,106793:0:0:0:0:
320,192,106793,128,2,106943:0:0:0:0:
64,192,106943,1,8,0:0:0:0:
448,192,106943,128,0,107093:0:0:0:0:
192,192,107093,128,2,107243:0:0:0:0:
448,192,107243,1,0,0:0:0:0:
320,192,107393,1,2,0:0:0:0:
64,192,107393,1,0,0:0:0:0:
192,192,107543,1,8,0:0:0:0:
448,192,107543,1,0,0:0:0:0:
64,192,107693,1,2,0:0:0:0:
320,192,107693,1,0,0:0:0:0:
192,192,107843,1,0,0:0:0:0:
320,192,107993,1,2,0:0:0:0:
448,192,107993,1,0,0:0:0:0:
448,192,108143,1,8,0:0:0:0:
192,192,108143,1,0,0:0:0:0:
64,192,108293,1,2,0:0:0:0:
320,192,108293,1,0,0:0:0:0:
192,192,108443,1,2,0:0:0:0:
64,192,108443,1,0,0:0:0:0:
320,192,108593,128,0,108743:0:0:0:0:
448,192,108743,128,2,108893:0:0:0:0:
192,192,108743,1,0,0:0:0:0:
64,192,108893,1,8,0:0:0:0:
320,192,109043,128,0,109193:0:0:0:0:
192,192,109193,128,2,109343:0:0:0:0:
448,192,109343,1,8,0:0:0:0:
64,192,109343,128,0,109493:0:0:0:0:
320,192,109493,128,2,109643:0:0:0:0:
64,192,109643,1,0,0:0:0:0:
448,192,109793,1,2,0:0:0:0:
320,192,109868,1,2,0:0:0:0:
64,192,109943,1,8,0:0:0:0:
192,192,109943,1,0,0:0:0:0:
448,192,110093,1,2,0:0:0:0:
320,192,110093,1,0,0:0:0:0:
64,192,110243,1,2,0:0:0:0:
192,192,110318,1,8,0:0:0:0:
320,192,110393,1,2,0:0:0:0:
448,192,110468,1,2,0:0:0:0:
64,192,110543,1,8,0:0:0:0:
192,192,110543,1,0,0:0:0:0:
320,192,110693,1,2,0:0:0:0:
192,192,110768,1,0,0:0:0:0:
64,192,110843,128,8,110993:0:0:0:0:
448,192,110843,1,4,0:0:0:0:
320,192,110993,1,2,0:0:0:0:
192,192,111068,1,0,0:0:0:0:
64,192,111143,1,2,0:0:0:0:
320,192,111293,1,8,0:0:0:0:
448,192,111293,128,0,111443:0:0:0:0:
64,192,111443,1,2,0:0:0:0:
192,192,111518,1,2,0:0:0:0:
320,192,111593,1,2,0:0:0:0:
64,192,111743,128,8,111893:0:0:0:0:
448,192,111743,1,0,0:0:0:0:
192,192,111893,1,2,0:0:0:0:
320,192,111968,1,0,0:0:0:0:
448,192,112043,1,2,0:0:0:0:
192,192,112118,1,2,0:0:0:0:
64,192,112193,1,8,0:0:0:0:
320,192,112268,1,0,0:0:0:0:
192,192,112343,1,2,0:0:0:0:
448,192,112418,1,0,0:0:0:0:
320,192,112493,1,2,0:0:0:0:
192,192,112568,1,0,0:0:0:0:
64,192,112643,1,8,0:0:0:0:
448,192,112643,1,0,0:0:0:0:
192,192,112793,1,2,0:0:0:0:
320,192,112868,1,2,0:0:0:0:
64,192,112943,1,8,0:0:0:0:
448,192,112943,1,0,0:0:0:0:
320,192,113093,1,2,0:0:0:0:
192,192,113168,1,0,0:0:0:0:
64,192,113243,1,8,0:0:0:0:
448,192,113243,128,4,113393:0:0:0:0:
192,192,113393,1,2,0:0:0:0:
64,192,113543,1,8,0:0:0:0:
448,192,113543,1,0,0:0:0:0:
320,192,113618,1,8,0:0:0:0:
192,192,113693,1,2,0:0:0:0:
320,192,113768,1,0,0:0:0:0:
64,192,113843,1,8,0:0:0:0:
448,192,113843,1,0,0:0:0:0:
192,192,113993,1,2,0:0:0:0:
320,192,114068,1,2,0:0:0:0:
64,192,114143,1,8,0:0:0:0:
192,192,114143,1,0,0:0:0:0:
320,192,114293,1,2,0:0:0:0:
192,192,114368,1,0,0:0:0:0:
64,192,114443,1,2,0:0:0:0:
448,192,114443,1,0,0:0:0:0:
320,192,114518,1,2,0:0:0:0:
192,192,114593,1,8,0:0:0:0:
64,192,114668,1,8,0:0:0:0:
448,192,114743,1,2,0:0:0:0:
320,192,114818,1,2,0:0:0:0:
64,192,114893,1,2,0:0:0:0:
192,192,114968,1,2,0:0:0:0:
320,192,115043,1,8,0:0:0:0:
448,192,115043,1,0,0:0:0:0:
64,192,115118,1,0,0:0:0:0:
192,192,115193,1,2,0:0:0:0:
320,192,115268,1,2,0:0:0:0:
64,192,115343,1,8,0:0:0:0:
448,192,115343,1,0,0:0:0:0:
192,192,115418,1,8,0:0:0:0:
320,192,115493,1,8,0:0:0:0:
448,192,115568,1,8,0:0:0:0:
64,192,115643,1,4,0:0:0:0:
192,192,115643,128,2,115793:0:0:0:0:
320,192,115793,128,0,115943:0:0:0:0:
64,192,115943,128,8,116093:0:0:0:0:
448,192,115943,1,0,0:0:0:0:
192,192,116093,1,2,0:0:0:0:
320,192,116093,1,0,0:0:0:0:
448,192,116243,128,0,116393:0:0:0:0:
64,192,116393,1,2,0:0:0:0:
320,192,116393,128,0,116543:0:0:0:0:
192,192,116543,128,8,116693:0:0:0:0:
448,192,116543,1,0,0:0:0:0:
64,192,116693,1,2,0:0:0:0:
320,192,116693,128,0,116843:0:0:0:0:
448,192,116843,128,0,116993:0:0:0:0:
192,192,116993,1,2,0:0:0:0:
320,192,116993,1,0,0:0:0:0:
64,192,117143,1,8,0:0:0:0:
448,192,117143,128,0,117293:0:0:0:0:
192,192,117293,1,2,0:0:0:0:
320,192,117293,1,0,0:0:0:0:
64,192,117443,128,0,117593:0:0:0:0:
320,192,117593,128,2,117743:0:0:0:0:
448,192,117593,1,0,0:0:0:0:
64,192,117743,1,8,0:0:0:0:
192,192,117743,128,0,117893:0:0:0:0:
320,192,117893,1,2,0:0:0:0:
448,192,117893,128,0,118043:0:0:0:0:
64,192,118043,1,2,0:0:0:0:
192,192,118043,1,0,0:0:0:0:
320,192,118193,128,0,118343:0:0:0:0:
64,192,118343,1,2,0:0:0:0:
448,192,118343,128,0,118493:0:0:0:0:
192,192,118493,1,8,0:0:0:0:
320,192,118493,1,0,0:0:0:0:
64,192,118643,128,0,118793:0:0:0:0:
192,192,118793,128,2,118943:0:0:0:0:
448,192,118793,1,0,0:0:0:0:
64,192,118943,1,8,0:0:0:0:
320,192,118943,128,0,119093:0:0:0:0:
192,192,119093,128,2,119243:0:0:0:0:
448,192,119093,1,0,0:0:0:0:
64,192,119243,128,0,119393:0:0:0:0:
320,192,119393,1,2,0:0:0:0:
192,192,119468,1,2,0:0:0:0:
64,192,119543,128,8,119693:0:0:0:0:
448,192,119543,1,0,0:0:0:0:
192,192,119693,1,2,0:0:0:0:
320,192,119693,1,0,0:0:0:0:
64,192,119843,1,2,0:0:0:0:
448,192,119843,1,0,0:0:0:0:
192,192,119993,1,2,0:0:0:0:
320,192,120068,1,2,0:0:0:0:
64,192,120143,1,8,0:0:0:0:
192,192,120143,1,0,0:0:0:0:
320,192,120293,1,2,0:0:0:0:
192,192,120368,1,2,0:0:0:0:
320,192,120443,1,2,0:0:0:0:
448,192,120443,1,0,0:0:0:0:
192,192,120593,128,0,120743:0:0:0:0:
64,192,120743,128,8,120893:0:0:0:0:
448,192,120743,1,0,0:0:0:0:
320,192,120893,1,2,0:0:0:0:
448,192,120893,1,0,0:0:0:0:
192,192,121043,128,0,121193:0:0:0:0:
64,192,121193,1,2,0:0:0:0:
320,192,121193,128,0,121343:0:0:0:0:
192,192,121343,1,8,0:0:0:0:
448,192,121343,128,0,121493:0:0:0:0:
64,192,121493,128,2,121643:0:0:0:0:
320,192,121493,1,0,0:0:0:0:
192,192,121643,128,0,121793:0:0:0:0:
448,192,121793,1,0,0:0:0:0:
320,192,121868,1,2,0:0:0:0:
64,192,121943,1,8,0:0:0:0:
192,192,121943,128,0,122093:0:0:0:0:
320,192,122093,1,2,0:0:0:0:
448,192,122093,1,0,0:0:0:0:
64,192,122243,128,0,122393:0:0:0:0:
192,192,122393,1,2,0:0:0:0:
320,192,122393,128,0,122543:0:0:0:0:
64,192,122543,1,8,0:0:0:0:
448,192,122543,1,0,0:0:0:0:
192,192,122693,1,2,0:0:0:0:
320,192,122768,1,2,0:0:0:0:
64,192,122843,128,0,122993:0:0:0:0:
320,192,122993,1,2,0:0:0:0:
448,192,122993,128,0,123143:0:0:0:0:
64,192,123143,1,8,0:0:0:0:
192,192,123143,1,0,0:0:0:0:
320,192,123293,128,2,123443:0:0:0:0:
448,192,123293,1,0,0:0:0:0:
64,192,123443,1,0,0:0:0:0:
192,192,123593,1,2,0:0:0:0:
320,192,123668,1,2,0:0:0:0:
64,192,123743,1,8,0:0:0:0:
192,192,123743,1,0,0:0:0:0:
320,192,123893,1,2,0:0:0:0:
448,192,123893,1,0,0:0:0:0:
320,192,124043,1,2,0:0:0:0:
448,192,124043,1,0,0:0:0:0:
192,192,124193,1,2,0:0:0:0:
320,192,124268,1,2,0:0:0:0:
64,192,124343,1,8,0:0:0:0:
192,192,124343,1,0,0:0:0:0:
320,192,124493,1,2,0:0:0:0:
448,192,124493,1,0,0:0:0:0:
64,192,124643,1,2,0:0:0:0:
192,192,124643,1,0,0:0:0:0:
448,192,124718,1,8,0:0:0:0:
320,192,124793,1,2,0:0:0:0:
192,192,124868,1,2,0:0:0:0:
64,192,124943,1,8,0:0:0:0:
448,192,124943,1,0,0:0:0:0:
192,192,125093,1,2,0:0:0:0:
320,192,125093,1,0,0:0:0:0:
64,192,125243,1,4,0:0:0:0:
448,192,125243,1,2,0:0:0:0:
192,192,125393,128,0,125543:0:0:0:0:
64,192,125543,128,8,125693:0:0:0:0:
448,192,125543,1,0,0:0:0:0:
192,192,125693,1,2,0:0:0:0:
320,192,125693,1,0,0:0:0:0:
448,192,125843,128,0,125993:0:0:0:0:
64,192,125993,1,2,0:0:0:0:
320,192,125993,128,0,126143:0:0:0:0:
192,192,126143,128,8,126293:0:0:0:0:
448,192,126143,1,0,0:0:0:0:
64,192,126293,128,2,126443:0:0:0:0:
320,192,126293,1,0,0:0:0:0:
448,192,126443,128,0,126593:0:0:0:0:
192,192,126593,1,2,0:0:0:0:
320,192,126593,1,0,0:0:0:0:
64,192,126743,1,8,0:0:0:0:
448,192,126743,128,0,126893:0:0:0:0:
192,192,126893,1,2,0:0:0:0:
320,192,126893,1,0,0:0:0:0:
64,192,127043,128,0,127193:0:0:0:0:
320,192,127193,128,2,127343:0:0:0:0:
448,192,127193,1,0,0:0:0:0:
64,192,127343,1,8,0:0:0:0:
192,192,127343,128,0,127493:0:0:0:0:
320,192,127493,1,2,0:0:0:0:
448,192,127493,128,0,127643:0:0:0:0:
64,192,127643,1,2,0:0:0:0:
192,192,127643,1,0,0:0:0:0:
320,192,127793,128,0,127943:0:0:0:0:
64,192,127943,1,2,0:0:0:0:
448,192,127943,128,0,128093:0:0:0:0:
192,192,128093,1,8,0:0:0:0:
320,192,128093,1,0,0:0:0:0:
64,192,128243,128,0,128393:0:0:0:0:
192,192,128393,128,2,128543:0:0:0:0:
448,192,128393,1,0,0:0:0:0:
64,192,128543,1,8,0:0:0:0:
320,192,128543,128,0,128693:0:0:0:0:
192,192,128693,1,2,0:0:0:0:
448,192,128693,128,0,128843:0:0:0:0:
64,192,128843,128,0,128993:0:0:0:0:
320,192,128993,1,2,0:0:0:0:
448,192,129068,1,2,0:0:0:0:
64,192,129143,128,8,129293:0:0:0:0:
192,192,129143,1,0,0:0:0:0:
320,192,129293,1,2,0:0:0:0:
448,192,129293,1,0,0:0:0:0:
320,192,129443,1,2,0:0:0:0:
448,192,129443,1,0,0:0:0:0:
64,192,129518,1,8,0:0:0:0:
192,192,129593,1,2,0:0:0:0:
320,192,129668,1,2,0:0:0:0:
64,192,129743,1,8,0:0:0:0:
448,192,129743,1,0,0:0:0:0:
320,192,129893,1,2,0:0:0:0:
192,192,129968,1,0,0:0:0:0:
64,192,130043,128,8,130193:0:0:0:0:
448,192,130043,1,4,0:0:0:0:
320,192,130193,1,2,0:0:0:0:
192,192,130268,1,0,0:0:0:0:
64,192,130343,1,2,0:0:0:0:
320,192,130493,1,8,0:0:0:0:
448,192,130493,128,0,130643:0:0:0:0:
64,192,130643,1,2,0:0:0:0:
192,192,130718,1,2,0:0:0:0:
320,192,130793,1,2,0:0:0:0:
64,192,130943,128,8,131093:0:0:0:0:
448,192,130943,1,0,0:0:0:0:
320,192,131093,1,2,0:0:0:0:
192,192,131168,1,0,0:0:0:0:
64,192,131243,1,2,0:0:0:0:
320,192,131318,1,2,0:0:0:0:
192,192,131393,1,8,0:0:0:0:
448,192,131468,1,0,0:0:0:0:
320,192,131543,1,2,0:0:0:0:
64,192,131618,1,0,0:0:0:0:
192,192,131693,1,2,0:0:0:0:
320,192,131768,1,0,0:0:0:0:
64,192,131843,1,8,0:0:0:0:
448,192,131843,1,0,0:0:0:0:
320,192,131993,1,2,0:0:0:0:
192,192,132068,1,2,0:0:0:0:
64,192,132143,1,8,0:0:0:0:
448,192,132143,1,0,0:0:0:0:
192,192,132293,1,2,0:0:0:0:
320,192,132368,1,0,0:0:0:0:
64,192,132443,1,8,0:0:0:0:
448,192,132443,1,4,0:0:0:0:
192,192,132518,1,0,0:0:0:0:
320,192,132593,1,2,0:0:0:0:
192,192,132668,1,0,0:0:0:0:
320,192,132743,1,8,0:0:0:0:
448,192,132743,1,0,0:0:0:0:
64,192,132893,1,2,0:0:0:0:
192,192,132968,1,0,0:0:0:0:
320,192,133043,1,8,0:0:0:0:
448,192,133043,1,0,0:0:0:0:
192,192,133193,1,2,0:0:0:0:
320,192,133268,1,2,0:0:0:0:
64,192,133343,1,8,0:0:0:0:
448,192,133343,1,0,0:0:0:0:
192,192,133493,1,2,0:0:0:0:
320,192,133568,1,0,0:0:0:0:
64,192,133643,1,2,0:0:0:0:
448,192,133643,1,0,0:0:0:0:
192,192,133718,1,2,0:0:0:0:
320,192,133793,1,8,0:0:0:0:
448,192,133868,1,8,0:0:0:0:
64,192,133943,1,2,0:0:0:0:
192,192,134018,1,2,0:0:0:0:
448,192,134093,1,2,0:0:0:0:
320,192,134168,1,2,0:0:0:0:
64,192,134243,1,8,0:0:0:0:
192,192,134243,1,0,0:0:0:0:
448,192,134318,1,0,0:0:0:0:
320,192,134393,1,2,0:0:0:0:
192,192,134468,1,2,0:0:0:0:
64,192,134543,1,8,0:0:0:0:
448,192,134543,1,0,0:0:0:0:
320,192,134618,1,8,0:0:0:0:
192,192,134693,1,8,0:0:0:0:
64,192,134768,1,8,0:0:0:0:
320,192,134843,1,4,0:0:0:0:
448,192,134843,1,2,0:0:0:0:
192,192,134993,1,0,0:0:0:0:
320,192,135143,1,0,0:0:0:0:
192,192,135293,1,0,0:0:0:0:
320,192,135443,1,0,0:0:0:0:
192,192,135593,1,0,0:0:0:0:
192,192,136043,1,0,0:0:0:0:
320,192,136043,1,0,0:0:0:0:
448,192,136343,1,0,0:0:0:0:
64,192,136643,1,0,0:0:0:0:
192,192,136943,1,0,0:0:0:0:
320,192,137243,1,0,0:0:0:0:
448,192,137243,1,0,0:0:0:0:
192,192,137543,1,0,0:0:0:0:
64,192,137843,128,0,138143:0:0:0:0:
448,192,138143,128,0,138443:0:0:0:0:
64,192,138443,1,0,0:0:0:0:
192,192,138443,1,0,0:0:0:0:
320,192,138743,1,0,0:0:0:0:
64,192,139043,1,0,0:0:0:0:
192,192,139343,1,0,0:0:0:0:
320,192,139643,1,0,0:0:0:0:
448,192,139643,1,0,0:0:0:0:
192,192,139943,1,0,0:0:0:0:
64,192,140243,128,0,140543:0:0:0:0:
320,192,140543,1,0,0:0:0:0:
64,192,140843,1,0,0:0:0:0:
192,192,140843,1,0,0:0:0:0:
448,192,141143,128,0,141443:0:0:0:0:
192,192,141443,1,0,0:0:0:0:
320,192,141743,1,0,0:0:0:0:
64,192,142043,1,0,0:0:0:0:
448,192,142043,128,0,142343:0:0:0:0:
320,192,142343,128,0,142643:0:0:0:0:
192,192,142643,128,0,142943:0:0:0:0:
64,192,142943,128,0,143243:0:0:0:0:
320,192,143243,1,0,0:0:0:0:
448,192,143243,1,0,0:0:0:0:
64,192,143543,128,0,143843:0:0:0:0:
192,192,143843,1,0,0:0:0:0:
320,192,143843,1,0,0:0:0:0:
448,192,144143,1,0,0:0:0:0:
64,192,144443,1,0,0:0:0:0:
192,192,144443,1,0,0:0:0:0:
448,192,144743,1,0,0:0:0:0:
320,192,144818,1,0,0:0:0:0:
192,192,144893,1,0,0:0:0:0:
64,192,144968,1,0,0:0:0:0:
448,192,145043,128,0,145343:0:0:0:0:
192,192,145343,1,0,0:0:0:0:
320,192,145643,1,0,0:0:0:0:
448,192,145643,1,0,0:0:0:0:
64,192,145943,128,0,146243:0:0:0:0:
320,192,146243,1,0,0:0:0:0:
448,192,146318,1,0,0:0:0:0:
192,192,146393,1,0,0:0:0:0:
64,192,146468,1,0,0:0:0:0:
448,192,146543,128,0,146843:0:0:0:0:
192,192,146843,128,0,146993:0:0:0:0:
320,192,146993,1,0,0:0:0:0:
64,192,147143,1,0,0:0:0:0:
320,192,147218,128,0,147368:0:0:0:0:
448,192,147368,1,0,0:0:0:0:
64,192,147443,128,0,147743:0:0:0:0:
448,192,147743,128,0,148043:0:0:0:0:
64,192,148043,1,0,0:0:0:0:
192,192,148043,1,0,0:0:0:0:
320,192,148343,1,0,0:0:0:0:
64,192,148643,128,0,148943:0:0:0:0:
448,192,148943,1,0,0:0:0:0:
320,192,149018,1,0,0:0:0:0:
192,192,149093,1,0,0:0:0:0:
64,192,149168,1,0,0:0:0:0:
320,192,149243,1,0,0:0:0:0:
448,192,149243,128,0,149543:0:0:0:0:
64,192,149543,1,0,0:0:0:0:
192,192,149618,1,0,0:0:0:0:
320,192,149693,1,0,0:0:0:0:
448,192,149768,1,0,0:0:0:0:
64,192,149843,128,0,150143:0:0:0:0:
192,192,150443,1,0,0:0:0:0:
320,192,150443,1,0,0:0:0:0:
448,192,150593,1,0,0:0:0:0:
64,192,150743,1,0,0:0:0:0:
192,192,150743,128,0,151043:0:0:0:0:
320,192,151043,128,0,151343:0:0:0:0:
448,192,151343,128,0,151643:0:0:0:0:
64,192,151643,1,0,0:0:0:0:
192,192,151643,1,0,0:0:0:0:
