osu file format v14

[General]
AudioFilename: audio.mp3
AudioLeadIn: 0
PreviewTime: 96448
Countdown: 0
SampleSet: Soft
StackLeniency: 0.7
Mode: 3
LetterboxInBreaks: 0
SpecialStyle: 0
WidescreenStoryboard: 1

[Editor]
DistanceSpacing: 0.8
BeatDivisor: 4
GridSize: 8
TimelineZoom: 3

[Metadata]
Title:Journey
TitleUnicode:Journey
Artist:ARForest
ArtistUnicode:ARForest
Creator:[ A v a l o n ]
Version:Last Adventure
Source:Lanota
Tags:Instrumental Video Game Featured Artist FA Arcaea Collaboration Art for Rest First Album Frost Era M3-43 _VianK_ Artcore
BeatmapID:1967430
BeatmapSetID:942240

[Difficulty]
HPDrainRate:8.5
CircleSize:4
OverallDifficulty:8
ApproachRate:5
SliderMultiplier:1.4
SliderTickRate:1

[Events]
//Background and Video events
0,0,"5.jpg",0,0
//Break Periods
//Storyboard Layer 0 (Background)
//Storyboard Layer 1 (Fail)
//Storyboard Layer 2 (Pass)
//Storyboard Layer 3 (Foreground)
//Storyboard Layer 4 (Overlay)
//Storyboard Sound Samples
Sample,91493,0,"Soft Snare.wav",50

[TimingPoints]
443,300,4,2,1,35,1,0
19643,-100,4,2,1,40,0,0
29243,-100,4,2,1,45,0,0
38843,-100,4,2,1,35,0,0
58043,-100,4,2,1,50,0,0
96443,-100,4,2,1,60,0,1
134843,-100,4,2,1,35,0,0

[HitObjects]
64,192,443,128,0,593:0:0:0:0:
448,192,443,1,0,0:0:0:0:
192,192,743,1,0,0:0:0:0:
64,192,893,1,0,0:0:0:0:
320,192,893,128,0,1043:0:0:0:0:
448,192,1043,1,0,0:0:0:0:
320,192,1643,1,0,0:0:0:0:
448,192,1643,128,0,1793:0:0:0:0:
64,192,1943,1,0,0:0:0:0:
192,192,2093,128,0,2243:0:0:0:0:
320,192,2093,1,0,0:0:0:0:
448,192,2243,1,0,0:0:0:0:
192,192,2543,1,0,0:0:0:0:
320,192,2543,128,0,2843:0:0:0:0:
64,192,2843,128,0,2993:0:0:0:0:
448,192,2843,1,0,0:0:0:0:
320,192,3143,1,0,0:0:0:0:
192,192,3293,1,0,0:0:0:0:
64,192,3443,1,0,0:0:0:0:
192,192,3743,128,0,4043:0:0:0:0:
448,192,3743,1,0,0:0:0:0:
64,192,4043,1,0,0:0:0:0:
320,192,4043,128,0,4343:0:0:0:0:
64,192,4343,128,0,4643:0:0:0:0:
448,192,4343,1,0,0:0:0:0:
192,192,4643,128,0,4943:0:0:0:0:
320,192,4643,1,0,0:0:0:0:
64,192,4943,1,0,0:0:0:0:
448,192,4943,128,0,5243:0:0:0:0:
64,192,5243,128,0,5393:0:0:0:0:
320,192,5243,1,0,0:0:0:0:
448,192,5543,1,0,0:0:0:0:
64,192,5693,1,0,0:0:0:0:
320,192,5693,128,0,5843:0:0:0:0:
192,192,5843,1,0,0:0:0:0:
64,192,6143,1,0,0:0:0:0:
448,192,6143,128,0,6293:0:0:0:0:
192,192,6443,128,0,6593:0:0:0:0:
320,192,6443,1,0,0:0:0:0:
448,192,6743,1,0,0:0:0:0:
64,192,6893,128,0,7043:0:0:0:0:
192,192,6893,1,0,0:0:0:0:
320,192,7043,1,0,0:0:0:0:
320,192,7343,128,0,7643:0:0:0:0:
448,192,7343,1,0,0:0:0:0:
64,192,7643,1,0,0:0:0:0:
192,192,7643,128,0,8093:0:0:0:0:
320,192,7943,1,0,0:0:0:0:
64,192,8093,1,0,0:0:0:0:
448,192,8093,128,0,8243:0:0:0:0:
192,192,8243,1,0,0:0:0:0:
64,192,8543,1,0,0:0:0:0:
320,192,8543,128,0,8693:0:0:0:0:
64,192,8843,128,0,9143:0:0:0:0:
448,192,8843,1,0,0:0:0:0:
320,192,9143,1,0,0:0:0:0:
448,192,9143,128,0,9443:0:0:0:0:
64,192,9443,1,0,0:0:0:0:
192,192,9443,128,0,9743:0:0:0:0:
320,192,9743,128,0,10043:0:0:0:0:
448,192,9743,1,0,0:0:0:0:
64,192,10043,128,0,10493:0:0:0:0:
192,192,10043,1,0,0:0:0:0:
448,192,10193,1,0,0:0:0:0:
192,192,10493,1,0,0:0:0:0:
320,192,10493,128,0,10943:0:0:0:0:
64,192,10643,1,0,0:0:0:0:
448,192,10793,1,0,0:0:0:0:
64,192,10943,1,0,0:0:0:0:
192,192,10943,128,0,11243:0:0:0:0:
320,192,11093,1,0,0:0:0:0:
64,192,11243,1,0,0:0:0:0:
448,192,11243,128,0,12443:0:0:0:0:
192,192,11543,1,0,0:0:0:0:
320,192,11693,1,0,0:0:0:0:
64,192,11843,1,0,0:0:0:0:
192,192,11993,1,0,0:0:0:0:
64,192,12143,1,0,0:0:0:0:
320,192,12293,1,0,0:0:0:0:
64,192,12443,1,0,0:0:0:0:
192,192,12443,128,0,12893:0:0:0:0:
320,192,12593,1,0,0:0:0:0:
320,192,12893,128,0,13343:0:0:0:0:
448,192,12893,1,0,0:0:0:0:
64,192,13043,1,0,0:0:0:0:
192,192,13193,1,0,0:0:0:0:
64,192,13343,128,0,14843:0:0:0:0:
448,192,13343,1,0,0:0:0:0:
320,192,13493,1,0,0:0:0:0:
192,192,13793,1,0,0:0:0:0:
448,192,13943,1,0,0:0:0:0:
320,192,14093,1,0,0:0:0:0:
192,192,14243,1,0,0:0:0:0:
320,192,14393,1,0,0:0:0:0:
448,192,14543,1,0,0:0:0:0:
192,192,14693,1,0,0:0:0:0:
320,192,14843,128,0,15293:0:0:0:0:
448,192,14843,1,0,0:0:0:0:
64,192,14993,1,0,0:0:0:0:
64,192,15293,1,0,0:0:0:0:
192,192,15293,128,0,15743:0:0:0:0:
448,192,15443,1,0,0:0:0:0:
320,192,15593,1,0,0:0:0:0:
64,192,15743,1,0,0:0:0:0:
448,192,15743,128,0,16043:0:0:0:0:
192,192,15893,1,0,0:0:0:0:
64,192,16043,128,0,16643:0:0:0:0:
320,192,16043,1,0,0:0:0:0:
448,192,16343,1,0,0:0:0:0:
192,192,16493,1,0,0:0:0:0:
320,192,16643,128,0,17243:0:0:0:0:
448,192,16643,1,0,0:0:0:0:
192,192,16793,1,0,0:0:0:0:
448,192,16943,1,0,0:0:0:0:
64,192,17093,1,0,0:0:0:0:
192,192,17243,1,0,0:0:0:0:
448,192,17243,128,0,19643:0:0:0:0:
320,192,17393,1,0,0:0:0:0:
64,192,17693,1,0,0:0:0:0:
192,192,17843,1,0,0:0:0:0:
320,192,17993,1,0,0:0:0:0:
192,192,18143,1,0,0:0:0:0:
64,192,18293,1,0,0:0:0:0:
320,192,18443,1,0,0:0:0:0:
64,192,18593,128,0,18743:0:0:0:0:
192,192,18743,128,0,18893:0:0:0:0:
320,192,18893,128,0,19043:0:0:0:0:
64,192,19043,128,0,19193:0:0:0:0:
192,192,19193,128,0,19343:0:0:0:0:
320,192,19343,128,0,19493:0:0:0:0:
192,192,19493,128,0,19643:0:0:0:0:
64,192,19643,128,2,20843:0:0:0:0:
320,192,19643,1,0,0:0:0:45:Synth.wav
320,192,19943,1,0,0:0:0:0:
192,192,20093,1,0,0:0:0:45:Synth.wav
448,192,20093,1,0,0:0:0:0:
320,192,20243,1,0,0:0:0:0:
320,192,20543,1,0,0:0:0:45:Synth.wav
448,192,20543,1,0,0:0:0:0:
192,192,20843,1,0,0:0:0:45:Synth.wav
448,192,20843,128,0,21443:0:0:0:0:
64,192,21143,1,0,0:0:0:0:
320,192,21143,1,0,0:0:0:0:
192,192,21293,1,0,0:0:0:45:Synth.wav
64,192,21443,1,0,0:0:0:0:
320,192,21443,128,0,22043:0:0:0:0:
448,192,21743,1,0,0:0:0:45:Synth.wav
64,192,21893,1,0,0:0:0:0:
192,192,22043,128,0,23243:0:0:0:45:Synth.wav
448,192,22043,1,0,0:0:0:0:
320,192,22343,1,0,0:0:0:0:
64,192,22493,1,0,0:0:0:45:Synth.wav
448,192,22493,1,0,0:0:0:0:
320,192,22643,1,0,0:0:0:0:
64,192,22793,1,0,0:0:0:0:
320,192,22943,1,0,0:0:0:45:Synth.wav
448,192,22943,1,0,0:0:0:0:
64,192,23243,128,0,23843:0:0:0:45:Synth.wav
448,192,23243,1,0,0:0:0:0:
192,192,23543,1,0,0:0:0:0:
320,192,23693,1,0,0:0:0:45:Synth.wav
448,192,23693,1,0,0:0:0:0:
192,192,23843,128,0,24443:0:0:0:0:
320,192,24143,1,0,0:0:0:45:Synth.wav
448,192,24143,1,0,0:0:0:0:
64,192,24293,1,0,0:0:0:0:
320,192,24443,128,2,25643:0:0:0:0:
448,192,24443,1,0,0:0:0:45:Synth.wav
192,192,24743,1,0,0:0:0:0:
64,192,24893,1,0,0:0:0:45:Synth.wav
448,192,24893,1,0,0:0:0:0:
192,192,25043,1,0,0:0:0:0:
64,192,25343,1,0,0:0:0:45:Synth.wav
448,192,25343,1,0,0:0:0:0:
192,192,25643,1,0,0:0:0:45:Synth.wav
448,192,25643,128,0,26243:0:0:0:0:
64,192,25943,1,0,0:0:0:0:
192,192,26093,1,0,0:0:0:45:Synth.wav
320,192,26093,1,0,0:0:0:0:
64,192,26243,128,0,26843:0:0:0:0:
192,192,26543,1,0,0:0:0:45:Synth.wav
320,192,26543,1,0,0:0:0:0:
448,192,26693,1,0,0:0:0:0:
192,192,26843,128,0,28043:0:0:0:45:Synth.wav
320,192,26843,1,0,0:0:0:0:
320,192,27143,1,0,0:0:0:0:
64,192,27293,1,0,0:0:0:45:Synth.wav
448,192,27293,1,0,0:0:0:0:
320,192,27443,1,0,0:0:0:0:
320,192,27743,1,0,0:0:0:45:Synth.wav
448,192,27743,1,0,0:0:0:0:
64,192,28043,1,0,0:0:0:40:Soft Snare.wav
448,192,28043,1,0,0:0:0:0:
320,192,28143,1,0,0:0:0:40:Soft Snare.wav
192,192,28243,1,0,0:0:0:40:Soft Snare.wav
64,192,28343,1,0,0:0:0:40:Soft Snare.wav
448,192,28343,1,0,0:0:0:0:
320,192,28443,1,0,0:0:0:40:Soft Snare.wav
192,192,28543,1,0,0:0:0:40:Soft Snare.wav
64,192,28643,1,0,0:0:0:40:Soft Snare.wav
448,192,28643,1,0,0:0:0:0:
320,192,28743,1,0,0:0:0:40:Soft Snare.wav
192,192,28843,1,0,0:0:0:40:Soft Snare.wav
64,192,28943,1,0,0:0:0:40:Soft Snare.wav
448,192,28943,1,0,0:0:0:0:
320,192,29043,1,0,0:0:0:40:Soft Snare.wav
192,192,29143,1,0,0:0:0:40:Soft Snare.wav
64,192,29243,1,4,0:0:0:0:
320,192,29243,1,0,0:0:0:50:Soft Snare.wav
448,192,29243,128,0,31643:0:0:0:0:
192,192,29393,1,0,0:0:0:50:Soft Snare.wav
64,192,29693,1,0,0:0:0:50:Soft Snare.wav
192,192,29693,1,0,0:0:0:0:
320,192,29993,1,0,0:0:0:50:Soft Snare.wav
64,192,30143,1,0,0:0:0:50:Soft Snare.wav
192,192,30143,1,0,0:0:0:0:
64,192,30593,1,0,0:0:0:50:Soft Snare.wav
192,192,30668,1,0,0:0:0:50:Soft Snare.wav
320,192,30743,1,0,0:0:0:50:Soft Snare.wav
64,192,30893,1,0,0:0:0:50:Soft Snare.wav
320,192,31043,1,0,0:0:0:50:Soft Snare.wav
64,192,31193,1,0,0:0:0:50:Soft Snare.wav
192,192,31193,1,0,0:0:0:0:
192,192,31493,1,0,0:0:0:50:Soft Snare.wav
64,192,31643,1,0,0:0:0:50:Soft Snare.wav
320,192,31643,128,0,34043:0:0:0:0:
192,192,31793,1,0,0:0:0:50:Soft Snare.wav
64,192,32093,1,0,0:0:0:50:Soft Snare.wav
448,192,32093,1,0,0:0:0:0:
192,192,32393,1,0,0:0:0:50:Soft Snare.wav
64,192,32543,1,0,0:0:0:50:Soft Snare.wav
448,192,32543,1,0,0:0:0:0:
64,192,32993,1,0,0:0:0:50:Soft Snare.wav
192,192,33068,1,0,0:0:0:50:Soft Snare.wav
448,192,33143,1,0,0:0:0:50:Soft Snare.wav
64,192,33293,1,0,0:0:0:50:Soft Snare.wav
448,192,33443,1,0,0:0:0:50:Soft Snare.wav
192,192,33593,1,0,0:0:0:50:Soft Snare.wav
448,192,33668,1,0,0:0:0:50:Soft Snare.wav
64,192,33743,1,0,0:0:0:50:Soft Snare.wav
448,192,33893,1,0,0:0:0:50:Soft Snare.wav
64,192,33968,1,0,0:0:0:50:Soft Snare.wav
192,192,34043,128,2,36443:0:0:0:0:
448,192,34043,1,0,0:0:0:50:Soft Snare.wav
64,192,34193,1,0,0:0:0:50:Soft Snare.wav
320,192,34193,1,0,0:0:0:0:
64,192,34493,1,0,0:0:0:50:Soft Snare.wav
448,192,34493,1,0,0:0:0:0:
320,192,34793,1,0,0:0:0:50:Soft Snare.wav
64,192,34943,1,0,0:0:0:50:Soft Snare.wav
448,192,34943,1,0,0:0:0:0:
320,192,35393,1,0,0:0:0:50:Soft Snare.wav
64,192,35468,1,0,0:0:0:50:Soft Snare.wav
448,192,35543,1,0,0:0:0:50:Soft Snare.wav
320,192,35693,1,0,0:0:0:50:Soft Snare.wav
64,192,35843,1,0,0:0:0:50:Soft Snare.wav
320,192,35993,1,0,0:0:0:50:Soft Snare.wav
448,192,35993,1,0,0:0:0:0:
320,192,36293,1,0,0:0:0:50:Soft Snare.wav
64,192,36443,128,0,38843:0:0:0:50:Soft Snare.wav
448,192,36443,1,0,0:0:0:0:
192,192,36593,1,0,0:0:0:50:Soft Snare.wav
320,192,36593,1,0,0:0:0:0:
320,192,36893,1,0,0:0:0:50:Soft Snare.wav
448,192,36893,1,0,0:0:0:0:
192,192,37193,1,0,0:0:0:50:Soft Snare.wav
320,192,37268,1,0,0:0:0:50:Soft Snare.wav
448,192,37343,1,0,0:0:0:50:Soft Snare.wav
192,192,37493,1,0,0:0:0:50:Soft Snare.wav
320,192,37493,1,0,0:0:0:0:
448,192,37793,1,0,0:0:0:50:Soft Snare.wav
320,192,37868,1,0,0:0:0:50:Soft Snare.wav
192,192,37943,1,0,0:0:0:50:Soft Snare.wav
448,192,38018,1,0,0:0:0:50:Soft Snare.wav
320,192,38093,1,0,0:0:0:50:Soft Snare.wav
192,192,38168,1,0,0:0:0:50:Soft Snare.wav
320,192,38243,1,0,0:0:0:50:Soft Snare.wav
448,192,38243,1,0,0:0:0:0:
192,192,38393,1,0,0:0:0:0:
320,192,38543,1,0,0:0:0:50:Soft Snare.wav
448,192,38543,1,0,0:0:0:0:
192,192,38693,1,0,0:0:0:0:
192,192,38843,1,4,0:0:0:0:
320,192,38843,1,0,0:0:0:45:Synth.wav
448,192,38843,128,0,39143:0:0:0:0:
64,192,39143,1,0,0:0:0:0:
192,192,39180,1,0,0:0:0:0:
320,192,39218,1,0,0:0:0:0:
448,192,39255,1,0,0:0:0:0:
64,192,39293,1,0,0:0:0:0:
192,192,39330,1,0,0:0:0:0:
320,192,39368,1,0,0:0:0:0:
448,192,39405,1,0,0:0:0:0:
192,192,39443,128,0,39743:0:0:0:45:Synth.wav
64,192,39743,1,0,0:0:0:0:
448,192,39893,1,0,0:0:0:0:
320,192,39968,1,0,0:0:0:0:
64,192,40043,128,0,40493:0:0:0:45:Synth.wav
192,192,40043,1,0,0:0:0:0:
320,192,40493,1,0,0:0:0:0:
448,192,40493,128,0,40943:0:0:0:0:
64,192,40643,1,0,0:0:0:45:Synth.wav
192,192,40643,1,0,0:0:0:0:
192,192,40943,128,0,41018:0:0:0:0:
320,192,41018,128,0,41093:0:0:0:0:
192,192,41093,128,0,41168:0:0:0:0:
320,192,41168,128,0,41243:0:0:0:0:
64,192,41243,128,0,41393:0:0:0:45:Synth.wav
448,192,41243,1,0,0:0:0:0:
192,192,41393,128,0,41543:0:0:0:0:
320,192,41543,128,0,41843:0:0:0:0:
64,192,41843,128,0,41993:0:0:0:45:Synth.wav
448,192,41843,128,0,41993:0:0:0:0:
192,192,41993,1,0,0:0:0:0:
320,192,42043,1,0,0:0:0:0:
448,192,42093,1,0,0:0:0:0:
192,192,42143,128,0,42443:0:0:0:0:
64,192,42293,128,0,42443:0:0:0:0:
448,192,42443,1,0,0:0:0:45:Synth.wav
320,192,42518,1,0,0:0:0:0:
64,192,42593,1,0,0:0:0:0:
192,192,42630,1,0,0:0:0:0:
320,192,42668,1,0,0:0:0:0:
448,192,42705,1,0,0:0:0:0:
64,192,42743,128,0,42893:0:0:0:0:
192,192,42893,1,0,0:0:0:0:
320,192,42968,1,0,0:0:0:0:
64,192,43043,1,0,0:0:0:45:Synth.wav
448,192,43043,1,0,0:0:0:0:
320,192,43193,1,0,0:0:0:0:
192,192,43343,1,0,0:0:0:0:
64,192,43493,1,0,0:0:0:0:
320,192,43643,128,0,43943:0:0:0:45:Synth.wav
448,192,43643,1,0,0:0:0:0:
64,192,43943,1,0,0:0:0:0:
192,192,43980,1,0,0:0:0:0:
448,192,44018,1,0,0:0:0:0:
320,192,44055,1,0,0:0:0:0:
64,192,44093,1,0,0:0:0:0:
192,192,44130,1,0,0:0:0:0:
448,192,44168,1,0,0:0:0:0:
320,192,44205,1,0,0:0:0:0:
64,192,44243,1,0,0:0:0:45:Synth.wav
192,192,44243,128,0,44543:0:0:0:0:
64,192,44543,128,0,44693:0:0:0:0:
320,192,44693,128,0,44768:0:0:0:0:
192,192,44768,128,0,44843:0:0:0:0:
64,192,44843,1,0,0:0:0:45:Synth.wav
448,192,44843,128,0,45293:0:0:0:0:
64,192,45293,128,0,45743:0:0:0:0:
320,192,45293,1,0,0:0:0:0:
192,192,45443,128,0,45743:0:0:0:45:Synth.wav
448,192,45743,128,0,45818:0:0:0:0:
320,192,45818,128,0,45893:0:0:0:0:
64,192,45893,128,0,45968:0:0:0:0:
192,192,45968,128,0,46043:0:0:0:0:
320,192,46043,128,0,46193:0:0:0:45:Synth.wav
448,192,46043,128,0,46193:0:0:0:0:
64,192,46268,128,0,46343:0:0:0:0:
192,192,46268,128,0,46343:0:0:0:0:
64,192,46643,128,0,46943:0:0:0:45:Synth.wav
448,192,46643,128,0,46793:0:0:0:0:
320,192,46793,128,0,46943:0:0:0:0:
448,192,46943,128,0,47243:0:0:0:0:
64,192,47243,1,0,0:0:0:45:Synth.wav
192,192,47243,1,0,0:0:0:0:
320,192,47318,1,0,0:0:0:0:
448,192,47318,1,0,0:0:0:0:
64,192,47393,1,0,0:0:0:0:
192,192,47443,1,0,0:0:0:0:
320,192,47493,1,0,0:0:0:0:
64,192,47543,1,0,0:0:0:0:
448,192,47543,1,0,0:0:0:0:
320,192,47693,1,0,0:0:0:0:
192,192,47768,1,0,0:0:0:0:
64,192,47843,128,0,48143:0:0:0:45:Synth.wav
448,192,47843,128,0,47993:0:0:0:0:
192,192,47993,128,0,48143:0:0:0:0:
320,192,47993,128,0,48143:0:0:0:0:
448,192,48143,128,0,48293:0:0:0:0:
64,192,48293,128,0,48443:0:0:0:0:
192,192,48293,128,0,48443:0:0:0:0:
320,192,48443,1,0,0:0:0:45:Synth.wav
448,192,48443,1,0,0:0:0:0:
192,192,48593,1,0,0:0:0:0:
448,192,48593,1,0,0:0:0:0:
64,192,48743,1,0,0:0:0:0:
192,192,48818,1,0,0:0:0:0:
320,192,48893,1,0,0:0:0:0:
64,192,49043,1,0,0:0:0:45:Synth.wav
192,192,49043,1,0,0:0:0:0:
320,192,49118,1,0,0:0:0:0:
448,192,49193,1,0,0:0:0:0:
64,192,49343,128,0,49643:0:0:0:0:
192,192,49343,1,0,0:0:0:0:
448,192,49493,1,0,0:0:0:0:
192,192,49643,1,0,0:0:0:45:Synth.wav
320,192,49643,1,0,0:0:0:0:
64,192,49793,1,0,0:0:0:0:
448,192,49793,1,0,0:0:0:0:
320,192,49943,1,0,0:0:0:0:
64,192,50093,128,0,50543:0:0:0:0:
192,192,50093,1,0,0:0:0:0:
320,192,50243,1,0,0:0:0:45:Synth.wav
448,192,50243,1,0,0:0:0:0:
448,192,50543,128,0,50618:0:0:0:0:
320,192,50618,128,0,50693:0:0:0:0:
192,192,50693,128,0,50768:0:0:0:0:
64,192,50768,128,0,50843:0:0:0:0:
320,192,50843,1,0,0:0:0:45:Synth.wav
448,192,50843,128,0,50993:0:0:0:0:
64,192,50993,128,0,51143:0:0:0:0:
192,192,50993,1,0,0:0:0:0:
320,192,51143,1,0,0:0:0:0:
448,192,51143,1,0,0:0:0:0:
192,192,51293,1,0,0:0:0:0:
64,192,51443,1,0,0:0:0:45:Synth.wav
320,192,51443,1,0,0:0:0:0:
448,192,51593,1,0,0:0:0:0:
320,192,51643,1,0,0:0:0:0:
192,192,51693,1,0,0:0:0:0:
64,192,51743,1,0,0:0:0:0:
320,192,51818,1,0,0:0:0:0:
192,192,51893,1,0,0:0:0:0:
320,192,52043,1,0,0:0:0:45:Synth.wav
448,192,52043,1,0,0:0:0:0:
64,192,52193,1,0,0:0:0:0:
192,192,52243,1,0,0:0:0:0:
320,192,52293,1,0,0:0:0:0:
448,192,52343,1,0,0:0:0:0:
320,192,52493,1,0,0:0:0:0:
192,192,52568,1,0,0:0:0:0:
64,192,52643,128,0,52793:0:0:0:45:Synth.wav
448,192,52643,1,0,0:0:0:0:
192,192,52793,128,0,52943:0:0:0:0:
320,192,52943,128,0,53093:0:0:0:0:
448,192,53093,128,0,53243:0:0:0:0:
64,192,53243,1,0,0:0:0:45:Synth.wav
192,192,53243,1,0,0:0:0:0:
320,192,53393,1,0,0:0:0:0:
448,192,53468,1,0,0:0:0:0:
64,192,53543,1,0,0:0:0:0:
192,192,53580,1,0,0:0:0:0:
448,192,53618,1,0,0:0:0:0:
320,192,53655,1,0,0:0:0:0:
192,192,53693,1,0,0:0:0:0:
64,192,53730,1,0,0:0:0:0:
320,192,53768,1,0,0:0:0:0:
448,192,53805,1,0,0:0:0:0:
64,192,53843,128,0,53993:0:0:0:45:Synth.wav
192,192,53843,1,0,0:0:0:0:
448,192,53993,1,0,0:0:0:0:
320,192,54143,128,0,54293:0:0:0:0:
192,192,54293,128,0,54443:0:0:0:0:
320,192,54443,1,0,0:0:0:45:Synth.wav
448,192,54443,1,0,0:0:0:0:
64,192,54593,128,0,54743:0:0:0:0:
448,192,54593,1,0,0:0:0:0:
192,192,54743,128,0,54893:0:0:0:0:
320,192,54893,1,0,0:0:0:0:
448,192,54893,128,0,55343:0:0:0:0:
64,192,55043,1,0,0:0:0:45:Synth.wav
192,192,55043,1,0,0:0:0:0:
192,192,55343,128,0,55418:0:0:0:0:
64,192,55418,128,0,55493:0:0:0:0:
320,192,55493,128,0,55568:0:0:0:0:
448,192,55568,128,0,55643:0:0:0:0:
64,192,55643,1,0,0:0:0:45:Synth.wav
192,192,55643,128,0,55793:0:0:0:0:
320,192,55793,128,0,55943:0:0:0:0:
64,192,55943,1,0,0:0:0:0:
448,192,55943,128,0,56243:0:0:0:0:
192,192,56093,1,0,0:0:0:0:
64,192,56243,1,0,0:0:0:45:Synth.wav
320,192,56243,1,0,0:0:0:0:
192,192,56393,128,0,56543:0:0:0:0:
64,192,56543,1,0,0:0:0:0:
320,192,56543,128,0,56843:0:0:0:0:
64,192,56843,128,0,57968:0:0:0:45:Synth.wav
448,192,56843,1,0,0:0:0:0:
192,192,57143,128,0,57968:0:0:0:0:
320,192,57443,128,0,57968:0:0:0:0:
448,192,57743,128,0,57968:0:0:0:0:
192,192,58043,1,4,0:0:0:0:
320,192,58043,1,0,0:0:0:50:Synth.wav
448,192,58043,128,0,58118:0:0:0:0:
64,192,58193,1,0,0:0:0:0:
192,192,58343,1,0,0:0:0:0:
320,192,58493,128,0,58568:0:0:0:50:Synth.wav
448,192,58493,1,0,0:0:0:0:
64,192,58643,1,0,0:0:0:0:
448,192,58793,1,0,0:0:0:0:
320,192,58868,1,0,0:0:0:0:
64,192,58943,128,0,59018:0:0:0:50:Synth.wav
192,192,58943,1,0,0:0:0:0:
448,192,59093,1,0,0:0:0:0:
64,192,59243,1,0,0:0:0:0:
192,192,59318,1,0,0:0:0:0:
320,192,59393,1,0,0:0:0:50:Synth.wav
448,192,59393,128,0,59468:0:0:0:0:
192,192,59543,1,0,0:0:0:0:
448,192,59693,1,0,0:0:0:0:
320,192,59768,1,0,0:0:0:0:
64,192,59843,128,0,59918:0:0:0:50:Synth.wav
192,192,59843,1,0,0:0:0:0:
320,192,59993,1,0,0:0:0:0:
192,192,60068,1,0,0:0:0:0:
64,192,60143,1,0,0:0:0:50:Synth.wav
448,192,60143,128,0,60218:0:0:0:0:
192,192,60293,1,0,0:0:0:0:
320,192,60443,128,0,60518:0:0:0:50:Synth.wav
448,192,60443,1,0,0:0:0:0:
64,192,60593,1,0,0:0:0:0:
448,192,60743,1,0,0:0:0:0:
64,192,60893,1,0,0:0:0:50:Synth.wav
192,192,60893,128,0,60968:0:0:0:0:
320,192,61043,1,0,0:0:0:0:
64,192,61193,1,0,0:0:0:0:
192,192,61268,1,0,0:0:0:0:
320,192,61343,1,0,0:0:0:50:Synth.wav
448,192,61343,128,0,61418:0:0:0:0:
64,192,61418,1,0,0:0:0:0:
192,192,61493,1,0,0:0:0:0:
448,192,61643,1,0,0:0:0:0:
64,192,61793,128,0,61868:0:0:0:50:Synth.wav
320,192,61793,1,0,0:0:0:0:
192,192,61868,1,0,0:0:0:0:
448,192,61943,1,0,0:0:0:0:
320,192,62018,1,0,0:0:0:0:
192,192,62093,1,0,0:0:0:0:
64,192,62168,1,0,0:0:0:0:
320,192,62243,1,0,0:0:0:50:Synth.wav
448,192,62243,128,0,62318:0:0:0:0:
192,192,62393,1,0,0:0:0:0:
320,192,62468,1,0,0:0:0:0:
64,192,62543,128,0,62618:0:0:0:50:Synth.wav
448,192,62543,1,0,0:0:0:0:
192,192,62693,1,0,0:0:0:0:
64,192,62843,1,0,0:0:0:50:Synth.wav
320,192,62843,128,0,62918:0:0:0:0:
448,192,62993,1,0,0:0:0:0:
320,192,63143,1,0,0:0:0:0:
64,192,63293,128,0,63368:0:0:0:50:Synth.wav
192,192,63293,1,0,0:0:0:0:
448,192,63443,1,0,0:0:0:0:
64,192,63593,1,0,0:0:0:0:
192,192,63668,1,0,0:0:0:0:
320,192,63743,1,0,0:0:0:50:Synth.wav
448,192,63743,128,0,63818:0:0:0:0:
192,192,63893,1,0,0:0:0:0:
448,192,64043,1,0,0:0:0:0:
320,192,64118,1,0,0:0:0:0:
64,192,64193,1,0,0:0:0:50:Synth.wav
192,192,64193,128,0,64268:0:0:0:0:
320,192,64343,1,0,0:0:0:0:
64,192,64493,1,0,0:0:0:0:
192,192,64568,1,0,0:0:0:0:
320,192,64643,1,0,0:0:0:50:Synth.wav
448,192,64643,128,0,64718:0:0:0:0:
192,192,64793,1,0,0:0:0:0:
320,192,64868,1,0,0:0:0:0:
64,192,64943,128,0,65018:0:0:0:50:Synth.wav
448,192,64943,1,0,0:0:0:0:
320,192,65093,1,0,0:0:0:0:
64,192,65243,1,0,0:0:0:50:Synth.wav
192,192,65243,128,0,65318:0:0:0:0:
448,192,65393,1,0,0:0:0:0:
192,192,65543,1,0,0:0:0:0:
320,192,65693,128,0,65768:0:0:0:50:Synth.wav
448,192,65693,1,0,0:0:0:0:
64,192,65843,1,0,0:0:0:0:
320,192,65993,1,0,0:0:0:0:
192,192,66068,1,0,0:0:0:0:
64,192,66143,128,0,66218:0:0:0:50:Synth.wav
448,192,66143,1,0,0:0:0:0:
320,192,66218,1,0,0:0:0:0:
192,192,66293,1,0,0:0:0:0:
320,192,66443,1,0,0:0:0:0:
64,192,66593,1,0,0:0:0:50:Synth.wav
448,192,66593,128,0,66668:0:0:0:0:
192,192,66668,1,0,0:0:0:0:
320,192,66743,1,0,0:0:0:0:
448,192,66818,1,0,0:0:0:0:
64,192,66893,1,0,0:0:0:0:
192,192,66968,1,0,0:0:0:0:
320,192,67043,128,0,67118:0:0:0:50:Synth.wav
448,192,67043,1,0,0:0:0:0:
192,192,67193,1,0,0:0:0:0:
320,192,67268,1,0,0:0:0:0:
64,192,67343,128,0,67418:0:0:0:50:Synth.wav
448,192,67343,1,0,0:0:0:0:
192,192,67418,1,0,0:0:0:0:
320,192,67493,1,0,0:0:0:0:
192,192,67568,1,0,0:0:0:0:
64,192,67643,1,2,0:0:0:0:
320,192,67643,1,0,0:0:0:50:Synth.wav
448,192,67643,1,0,0:0:0:0:
192,192,67793,1,0,0:0:0:0:
320,192,67943,1,0,0:0:0:0:
64,192,68093,1,0,0:0:0:50:Synth.wav
448,192,68093,1,0,0:0:0:0:
192,192,68243,1,8,0:0:0:0:
448,192,68243,1,0,0:0:0:0:
320,192,68393,1,0,0:0:0:0:
192,192,68468,1,0,0:0:0:0:
64,192,68543,1,0,0:0:0:50:Synth.wav
448,192,68543,1,0,0:0:0:0:
192,192,68693,1,0,0:0:0:0:
64,192,68768,1,0,0:0:0:0:
448,192,68843,1,0,0:0:0:0:
320,192,68918,1,0,0:0:0:0:
64,192,68993,1,0,0:0:0:50:Synth.wav
192,192,68993,1,0,0:0:0:0:
448,192,69068,1,0,0:0:0:0:
320,192,69143,1,0,0:0:0:0:
192,192,69293,1,0,0:0:0:0:
320,192,69368,1,0,0:0:0:0:
64,192,69443,1,8,0:0:0:0:
448,192,69443,1,0,0:0:0:50:Synth.wav
320,192,69593,1,0,0:0:0:0:
192,192,69668,1,0,0:0:0:0:
64,192,69743,1,0,0:0:0:50:Synth.wav
448,192,69743,1,0,0:0:0:0:
320,192,69893,1,0,0:0:0:0:
64,192,70043,1,2,0:0:0:0:
320,192,70043,1,0,0:0:0:50:Synth.wav
448,192,70043,1,0,0:0:0:0:
192,192,70193,1,0,0:0:0:0:
448,192,70343,1,0,0:0:0:0:
64,192,70493,1,0,0:0:0:50:Synth.wav
192,192,70493,1,0,0:0:0:0:
320,192,70643,1,8,0:0:0:0:
448,192,70643,1,0,0:0:0:0:
192,192,70793,1,0,0:0:0:0:
320,192,70868,1,0,0:0:0:0:
64,192,70943,1,0,0:0:0:50:Synth.wav
448,192,70943,1,0,0:0:0:0:
192,192,71018,1,0,0:0:0:0:
320,192,71093,1,0,0:0:0:0:
64,192,71168,1,0,0:0:0:0:
192,192,71243,1,0,0:0:0:0:
64,192,71393,1,0,0:0:0:50:Synth.wav
448,192,71393,1,0,0:0:0:0:
320,192,71468,1,0,0:0:0:0:
192,192,71543,1,0,0:0:0:0:
64,192,71618,1,0,0:0:0:0:
448,192,71693,1,0,0:0:0:0:
320,192,71768,1,0,0:0:0:0:
64,192,71843,1,8,0:0:0:0:
192,192,71843,1,0,0:0:0:50:Synth.wav
320,192,71993,1,0,0:0:0:0:
192,192,72068,1,0,0:0:0:0:
64,192,72143,1,0,0:0:0:50:Synth.wav
448,192,72143,1,0,0:0:0:0:
192,192,72293,1,0,0:0:0:0:
64,192,72443,1,2,0:0:0:0:
320,192,72443,1,0,0:0:0:50:Synth.wav
448,192,72443,1,0,0:0:0:0:
320,192,72593,1,0,0:0:0:0:
192,192,72743,1,0,0:0:0:0:
64,192,72893,1,0,0:0:0:50:Synth.wav
320,192,72893,1,0,0:0:0:0:
64,192,73043,1,8,0:0:0:0:
448,192,73043,1,0,0:0:0:0:
192,192,73193,1,0,0:0:0:0:
320,192,73268,1,0,0:0:0:0:
64,192,73343,1,0,0:0:0:50:Synth.wav
448,192,73343,1,0,0:0:0:0:
192,192,73493,1,0,0:0:0:0:
64,192,73568,1,0,0:0:0:0:
448,192,73643,1,0,0:0:0:0:
320,192,73718,1,0,0:0:0:0:
64,192,73793,1,0,0:0:0:50:Synth.wav
192,192,73793,1,0,0:0:0:0:
448,192,73868,1,0,0:0:0:0:
320,192,73943,1,0,0:0:0:0:
192,192,74093,1,0,0:0:0:0:
320,192,74168,1,0,0:0:0:0:
64,192,74243,1,8,0:0:0:0:
448,192,74243,1,0,0:0:0:50:Synth.wav
192,192,74393,1,0,0:0:0:0:
64,192,74468,1,0,0:0:0:0:
320,192,74543,1,0,0:0:0:50:Synth.wav
448,192,74543,1,0,0:0:0:0:
192,192,74618,1,0,0:0:0:0:
448,192,74693,1,0,0:0:0:0:
64,192,74843,1,2,0:0:0:0:
192,192,74843,1,0,0:0:0:50:Synth.wav
320,192,74843,1,0,0:0:0:0:
192,192,74993,1,0,0:0:0:0:
64,192,75143,1,0,0:0:0:0:
320,192,75293,1,0,0:0:0:50:Synth.wav
448,192,75293,1,0,0:0:0:0:
64,192,75443,1,0,0:0:0:0:
192,192,75518,1,0,0:0:0:0:
320,192,75593,1,0,0:0:0:0:
448,192,75668,1,0,0:0:0:0:
64,192,75743,1,0,0:0:0:50:Synth.wav
192,192,75743,1,0,0:0:0:0:
320,192,75893,1,8,0:0:0:0:
64,192,76043,1,0,0:0:0:0:
448,192,76043,1,0,0:0:0:0:
320,192,76193,1,8,0:0:0:0:
448,192,76193,1,0,0:0:0:50:Synth.wav
64,192,76268,1,0,0:0:0:0:
192,192,76343,1,0,0:0:0:0:
320,192,76418,1,0,0:0:0:0:
64,192,76493,1,0,0:0:0:0:
192,192,76568,1,0,0:0:0:0:
320,192,76643,1,8,0:0:0:0:
448,192,76643,1,0,0:0:0:50:Synth.wav
192,192,76793,1,0,0:0:0:0:
320,192,76868,1,0,0:0:0:0:
64,192,76943,128,8,77018:0:0:0:0:
448,192,76943,1,0,0:0:0:0:
192,192,77018,128,8,77093:0:0:0:0:
320,192,77093,128,8,77168:0:0:0:0:
448,192,77168,128,8,77243:0:0:0:0:
64,192,77243,1,2,0:0:0:0:
192,192,77243,1,4,0:0:0:0:
320,192,77393,128,0,77543:0:0:0:0:
64,192,77543,128,0,77693:0:0:0:0:
192,192,77693,128,2,77843:0:0:0:0:
448,192,77693,1,0,0:0:0:50:Soft Snare.wav
320,192,77843,128,0,77993:0:0:0:0:
192,192,77993,1,0,0:0:0:50:Soft Snare.wav
64,192,78143,1,2,0:0:0:0:
448,192,78143,1,0,0:0:0:50:Soft Snare.wav
192,192,78443,128,0,78593:0:0:0:0:
64,192,78593,128,0,78743:0:0:0:50:Soft Snare.wav
448,192,78593,1,0,0:0:0:0:
320,192,78668,1,0,0:0:0:50:Soft Snare.wav
448,192,78743,1,0,0:0:0:50:Soft Snare.wav
192,192,78893,1,0,0:0:0:50:Soft Snare.wav
64,192,79043,1,0,0:0:0:50:Soft Snare.wav
320,192,79193,1,0,0:0:0:50:Soft Snare.wav
192,192,79343,128,0,79493:0:0:0:0:
64,192,79493,128,0,79643:0:0:0:50:Soft Snare.wav
320,192,79643,1,2,0:0:0:0:
448,192,79643,1,0,0:0:0:50:Soft Snare.wav
192,192,79793,1,0,0:0:0:50:Soft Snare.wav
448,192,79943,128,0,80093:0:0:0:0:
64,192,80093,1,2,0:0:0:0:
320,192,80093,128,0,80243:0:0:0:50:Soft Snare.wav
192,192,80243,128,0,80393:0:0:0:0:
320,192,80393,1,0,0:0:0:50:Soft Snare.wav
64,192,80543,1,2,0:0:0:0:
448,192,80543,1,0,0:0:0:50:Soft Snare.wav
320,192,80843,128,0,80993:0:0:0:0:
64,192,80993,1,0,0:0:0:50:Soft Snare.wav
448,192,80993,128,0,81143:0:0:0:0:
192,192,81068,1,0,0:0:0:50:Soft Snare.wav
64,192,81143,128,0,81293:0:0:0:50:Soft Snare.wav
320,192,81293,1,0,0:0:0:50:Soft Snare.wav
64,192,81443,1,2,0:0:0:0:
192,192,81443,1,0,0:0:0:50:Soft Snare.wav
448,192,81593,1,0,0:0:0:50:Soft Snare.wav
320,192,81630,1,0,0:0:0:50:Soft Snare.wav
192,192,81668,1,0,0:0:0:50:Soft Snare.wav
64,192,81705,1,0,0:0:0:50:Soft Snare.wav
320,192,81743,1,2,0:0:0:0:
448,192,81743,128,0,81893:0:0:0:50:Soft Snare.wav
64,192,81893,1,0,0:0:0:50:Soft Snare.wav
192,192,81893,1,2,0:0:0:0:
320,192,81968,1,0,0:0:0:50:Soft Snare.wav
64,192,82043,1,2,0:0:0:0:
448,192,82043,1,0,0:0:0:50:Soft Snare.wav
192,192,82193,128,0,82343:0:0:0:50:Soft Snare.wav
64,192,82343,128,0,82493:0:0:0:0:
320,192,82493,128,2,82643:0:0:0:0:
448,192,82493,1,0,0:0:0:50:Soft Snare.wav
192,192,82643,128,0,82793:0:0:0:0:
448,192,82793,1,0,0:0:0:50:Soft Snare.wav
64,192,82943,1,2,0:0:0:0:
192,192,82943,1,0,0:0:0:50:Soft Snare.wav
320,192,83243,128,0,83393:0:0:0:0:
64,192,83393,1,0,0:0:0:50:Soft Snare.wav
448,192,83393,128,0,83543:0:0:0:0:
192,192,83468,1,0,0:0:0:50:Soft Snare.wav
64,192,83543,128,0,83693:0:0:0:50:Soft Snare.wav
192,192,83693,128,0,83843:0:0:0:50:Soft Snare.wav
320,192,83843,1,0,0:0:0:50:Soft Snare.wav
64,192,83993,1,0,0:0:0:50:Soft Snare.wav
448,192,84143,128,0,84293:0:0:0:0:
320,192,84293,128,0,84443:0:0:0:50:Soft Snare.wav
64,192,84443,1,2,0:0:0:0:
192,192,84443,1,0,0:0:0:50:Soft Snare.wav
320,192,84593,1,0,0:0:0:50:Soft Snare.wav
64,192,84743,128,0,84893:0:0:0:0:
192,192,84893,128,2,85043:0:0:0:0:
448,192,84893,1,0,0:0:0:50:Soft Snare.wav
320,192,85043,128,0,85193:0:0:0:0:
64,192,85193,1,0,0:0:0:50:Soft Snare.wav
448,192,85193,128,0,85343:0:0:0:0:
192,192,85268,1,0,0:0:0:50:Soft Snare.wav
64,192,85343,1,2,0:0:0:0:
320,192,85343,1,0,0:0:0:50:Soft Snare.wav
192,192,85493,1,0,0:0:0:50:Soft Snare.wav
320,192,85643,1,0,0:0:0:0:
64,192,85793,1,2,0:0:0:0:
448,192,85793,1,0,0:0:0:50:Soft Snare.wav
192,192,85868,1,0,0:0:0:50:Soft Snare.wav
320,192,85943,1,0,0:0:0:50:Soft Snare.wav
192,192,86018,1,0,0:0:0:50:Soft Snare.wav
64,192,86093,1,2,0:0:0:0:
448,192,86093,1,0,0:0:0:50:Soft Snare.wav
320,192,86168,1,0,0:0:0:50:Soft Snare.wav
64,192,86243,1,2,0:0:0:0:
192,192,86243,1,0,0:0:0:50:Soft Snare.wav
320,192,86393,1,0,0:0:0:50:Soft Snare.wav
448,192,86430,1,0,0:0:0:0:
64,192,86468,1,0,0:0:0:0:
192,192,86505,1,0,0:0:0:0:
320,192,86543,1,2,0:0:0:0:
448,192,86543,1,0,0:0:0:50:Soft Snare.wav
192,192,86693,1,0,0:0:0:50:Soft Snare.wav
320,192,86768,1,0,0:0:0:50:Soft Snare.wav
64,192,86843,128,2,89243:0:0:0:0:
448,192,86843,1,0,0:0:0:50:Soft Snare.wav
192,192,86993,1,0,0:0:0:50:Soft Snare.wav
192,192,87293,1,2,0:0:0:0:
448,192,87293,1,0,0:0:0:50:Soft Snare.wav
320,192,87593,1,0,0:0:0:50:Soft Snare.wav
192,192,87743,1,2,0:0:0:0:
448,192,87743,1,0,0:0:0:50:Soft Snare.wav
448,192,88193,1,0,0:0:0:50:Soft Snare.wav
320,192,88268,1,0,0:0:0:50:Soft Snare.wav
192,192,88343,1,0,0:0:0:50:Soft Snare.wav
448,192,88493,1,0,0:0:0:50:Soft Snare.wav
192,192,88643,1,0,0:0:0:50:Soft Snare.wav
320,192,88793,1,0,0:0:0:50:Soft Snare.wav
448,192,89093,1,0,0:0:0:50:Soft Snare.wav
192,192,89243,1,2,0:0:0:0:
320,192,89243,128,0,90143:0:0:0:50:Soft Snare.wav
64,192,89393,1,0,0:0:0:50:Soft Snare.wav
64,192,89693,1,2,0:0:0:0:
448,192,89693,1,0,0:0:0:50:Soft Snare.wav
448,192,89993,1,0,0:0:0:50:Soft Snare.wav
64,192,90143,1,2,0:0:0:0:
192,192,90143,128,0,91643:0:0:0:50:Soft Snare.wav
320,192,90593,1,0,0:0:0:50:Soft Snare.wav
448,192,90743,1,0,0:0:0:50:Soft Snare.wav
320,192,90893,1,0,0:0:0:50:Soft Snare.wav
64,192,91043,1,2,0:0:0:0:
448,192,91043,1,0,0:0:0:50:Soft Snare.wav
320,192,91193,128,0,91343:0:0:0:50:Soft Snare.wav
64,192,91343,1,2,0:0:0:0:
448,192,91343,1,0,0:0:0:50:Soft Snare.wav
320,192,91493,1,2,0:0:0:0:
64,192,91568,1,0,0:0:0:50:Soft Snare.wav
320,192,91643,1,2,0:0:0:0:
448,192,91643,128,0,94043:0:0:0:50:Soft Snare.wav
64,192,91793,1,0,0:0:0:50:Soft Snare.wav
192,192,92093,1,2,0:0:0:0:
320,192,92093,1,0,0:0:0:50:Soft Snare.wav
320,192,92393,1,0,0:0:0:50:Soft Snare.wav
64,192,92543,1,2,0:0:0:0:
192,192,92543,1,0,0:0:0:50:Soft Snare.wav
64,192,92993,1,0,0:0:0:50:Soft Snare.wav
192,192,93068,1,0,0:0:0:50:Soft Snare.wav
320,192,93143,1,0,0:0:0:50:Soft Snare.wav
64,192,93293,1,0,0:0:0:50:Soft Snare.wav
320,192,93443,1,0,0:0:0:50:Soft Snare.wav
192,192,93593,1,0,0:0:0:50:Soft Snare.wav
320,192,93893,1,0,0:0:0:50:Soft Snare.wav
64,192,94043,128,2,95243:0:0:0:0:
192,192,94043,1,0,0:0:0:50:Soft Snare.wav
320,192,94193,1,0,0:0:0:50:Soft Snare.wav
192,192,94493,1,2,0:0:0:0:
448,192,94493,1,0,0:0:0:50:Soft Snare.wav
448,192,94793,1,0,0:0:0:50:Soft Snare.wav
320,192,94868,1,0,0:0:0:50:Soft Snare.wav
192,192,94943,1,2,0:0:0:0:
448,192,94943,1,0,0:0:0:50:Soft Snare.wav
320,192,95093,1,0,0:0:0:50:Soft Snare.wav
448,192,95243,1,0,0:0:0:0:
320,192,95280,1,0,0:0:0:0:
192,192,95318,1,0,0:0:0:0:
64,192,95355,1,0,0:0:0:0:
448,192,95393,1,0,0:0:0:0:
320,192,95430,1,0,0:0:0:0:
192,192,95468,1,0,0:0:0:0:
64,192,95505,1,0,0:0:0:0:
448,192,95543,128,0,95843:0:0:0:0:
320,192,95693,128,0,95843:0:0:0:0:
64,192,95843,128,0,95918:0:0:0:0:
192,192,95918,128,0,95993:0:0:0:0:
320,192,95993,128,0,96068:0:0:0:0:
448,192,96068,128,0,96143:0:0:0:0:
64,192,96143,128,0,96293:0:0:0:0:
192,192,96143,128,0,96293:0:0:0:0:
192,192,96443,128,4,96593:0:0:0:0:
320,192,96443,1,2,0:0:0:0:
448,192,96443,1,0,0:0:0:0:
320,192,96593,128,0,96743:0:0:0:0:
64,192,96743,1,8,0:0:0:0:
192,192,96743,1,0,0:0:0:0:
448,192,96743,128,0,96893:0:0:0:0:
64,192,96893,1,2,0:0:0:0:
320,192,96893,1,0,0:0:0:0:
192,192,97043,128,0,97193:0:0:0:0:
64,192,97193,128,2,97343:0:0:0:0:
448,192,97193,1,0,0:0:0:0:
192,192,97343,1,8,0:0:0:0:
320,192,97343,1,0,0:0:0:0:
448,192,97343,128,0,97493:0:0:0:0:
64,192,97493,1,2,0:0:0:0:
320,192,97493,128,0,97643:0:0:0:0:
192,192,97643,128,0,97793:0:0:0:0:
320,192,97793,1,2,0:0:0:0:
448,192,97793,1,0,0:0:0:0:
64,192,97868,1,0,0:0:0:0:
192,192,97943,1,8,0:0:0:0:
320,192,97943,1,0,0:0:0:0:
448,192,97943,128,0,98093:0:0:0:0:
64,192,98093,1,2,0:0:0:0:
192,192,98093,1,0,0:0:0:0:
320,192,98168,1,0,0:0:0:0:
64,192,98243,128,0,98393:0:0:0:0:
320,192,98393,1,2,0:0:0:0:
448,192,98393,1,0,0:0:0:0:
192,192,98468,1,0,0:0:0:0:
64,192,98543,1,8,0:0:0:0:
320,192,98543,1,0,0:0:0:0:
448,192,98618,1,0,0:0:0:0:
64,192,98693,1,2,0:0:0:0:
192,192,98693,1,0,0:0:0:0:
320,192,98768,1,0,0:0:0:0:
64,192,98843,1,2,0:0:0:0:
448,192,98843,1,0,0:0:0:0:
192,192,98993,128,0,99143:0:0:0:0:
64,192,99143,128,2,99293:0:0:0:0:
448,192,99143,1,0,0:0:0:0:
192,192,99293,1,8,0:0:0:0:
320,192,99293,1,0,0:0:0:0:
448,192,99293,1,0,0:0:0:0:
320,192,99443,128,0,99593:0:0:0:0:
64,192,99593,1,2,0:0:0:0:
448,192,99593,128,0,99743:0:0:0:0:
64,192,99743,128,8,99893:0:0:0:0:
192,192,99743,1,0,0:0:0:0:
320,192,99743,1,0,0:0:0:0:
192,192,99893,128,2,100043:0:0:0:0:
448,192,99893,1,0,0:0:0:0:
320,192,100043,128,0,100193:0:0:0:0:
64,192,100193,1,2,0:0:0:0:
192,192,100193,1,0,0:0:0:0:
320,192,100268,1,2,0:0:0:0:
448,192,100268,1,0,0:0:0:0:
64,192,100343,1,8,0:0:0:0:
192,192,100343,1,0,0:0:0:0:
448,192,100418,1,0,0:0:0:0:
64,192,100493,1,2,0:0:0:0:
320,192,100493,1,0,0:0:0:0:
192,192,100568,1,0,0:0:0:0:
320,192,100643,1,2,0:0:0:0:
448,192,100643,1,0,0:0:0:0:
64,192,100718,1,0,0:0:0:0:
192,192,100793,1,2,0:0:0:0:
448,192,100793,1,0,0:0:0:0:
64,192,100868,1,2,0:0:0:0:
320,192,100868,1,0,0:0:0:0:
192,192,100943,1,8,0:0:0:0:
448,192,100943,1,0,0:0:0:0:
320,192,101018,1,0,0:0:0:0:
64,192,101093,1,2,0:0:0:0:
192,192,101093,1,0,0:0:0:0:
448,192,101168,1,2,0:0:0:0:
64,192,101243,1,2,0:0:0:0:
320,192,101243,1,0,0:0:0:0:
192,192,101393,128,0,101543:0:0:0:0:
64,192,101543,128,8,101693:0:0:0:0:
320,192,101543,1,0,0:0:0:0:
448,192,101543,1,0,0:0:0:0:
192,192,101693,1,2,0:0:0:0:
320,192,101693,1,0,0:0:0:0:
448,192,101843,128,0,101993:0:0:0:0:
192,192,101993,1,2,0:0:0:0:
320,192,101993,128,0,102143:0:0:0:0:
64,192,102143,1,8,0:0:0:0:
192,192,102143,128,0,102293:0:0:0:0:
448,192,102143,1,0,0:0:0:0:
64,192,102293,128,2,102443:0:0:0:0:
320,192,102293,1,0,0:0:0:0:
448,192,102443,128,0,102593:0:0:0:0:
192,192,102593,1,0,0:0:0:0:
320,192,102668,1,2,0:0:0:0:
448,192,102668,1,0,0:0:0:0:
64,192,102743,1,8,0:0:0:0:
192,192,102743,1,0,0:0:0:0:
448,192,102818,1,0,0:0:0:0:
64,192,102893,1,2,0:0:0:0:
320,192,102893,1,0,0:0:0:0:
192,192,102968,1,0,0:0:0:0:
448,192,103043,1,0,0:0:0:0:
320,192,103118,1,0,0:0:0:0:
64,192,103193,1,2,0:0:0:0:
192,192,103193,1,0,0:0:0:0:
448,192,103268,1,0,0:0:0:0:
64,192,103343,1,8,0:0:0:0:
320,192,103343,1,0,0:0:0:0:
192,192,103418,1,0,0:0:0:0:
320,192,103493,1,2,0:0:0:0:
448,192,103493,1,0,0:0:0:0:
64,192,103568,1,2,0:0:0:0:
192,192,103568,1,0,0:0:0:0:
448,192,103643,1,0,0:0:0:0:
192,192,103793,1,2,0:0:0:0:
320,192,103793,1,0,0:0:0:0:
64,192,103943,1,8,0:0:0:0:
192,192,103943,1,0,0:0:0:0:
448,192,103943,1,0,0:0:0:0:
64,192,104093,1,2,0:0:0:0:
320,192,104093,128,0,104243:0:0:0:0:
192,192,104243,1,0,0:0:0:0:
64,192,104393,1,2,0:0:0:0:
448,192,104393,1,0,0:0:0:0:
192,192,104468,1,2,0:0:0:0:
320,192,104468,1,0,0:0:0:0:
64,192,104543,1,8,0:0:0:0:
448,192,104543,1,0,0:0:0:0:
192,192,104618,1,0,0:0:0:0:
320,192,104693,1,2,0:0:0:0:
448,192,104693,1,0,0:0:0:0:
64,192,104768,1,0,0:0:0:0:
192,192,104843,1,2,0:0:0:0:
320,192,104843,1,0,0:0:0:0:
448,192,104918,1,0,0:0:0:0:
64,192,104993,1,2,0:0:0:0:
192,192,104993,1,0,0:0:0:0:
320,192,105068,1,2,0:0:0:0:
448,192,105068,1,0,0:0:0:0:
64,192,105143,1,8,0:0:0:0:
192,192,105143,1,0,0:0:0:0:
448,192,105218,1,0,0:0:0:0:
64,192,105293,1,2,0:0:0:0:
320,192,105293,1,0,0:0:0:0:
192,192,105368,1,0,0:0:0:0:
320,192,105443,1,2,0:0:0:0:
448,192,105443,1,0,0:0:0:0:
64,192,105518,1,8,0:0:0:0:
192,192,105518,1,0,0:0:0:0:
320,192,105593,1,2,0:0:0:0:
448,192,105593,1,0,0:0:0:0:
64,192,105668,1,2,0:0:0:0:
192,192,105668,1,0,0:0:0:0:
320,192,105743,1,8,0:0:0:0:
448,192,105743,1,0,0:0:0:0:
64,192,105818,1,0,0:0:0:0:
192,192,105893,1,2,0:0:0:0:
448,192,105893,1,0,0:0:0:0:
320,192,105968,1,0,0:0:0:0:
64,192,106043,1,4,0:0:0:0:
192,192,106043,128,2,106193:0:0:0:0:
448,192,106043,1,0,0:0:0:0:
320,192,106193,128,0,106343:0:0:0:0:
64,192,106343,1,8,0:0:0:0:
192,192,106343,1,0,0:0:0:0:
448,192,106343,128,0,106493:0:0:0:0:
64,192,106493,1,2,0:0:0:0:
192,192,106493,1,0,0:0:0:0:
320,192,106643,128,0,106793:0:0:0:0:
64,192,106793,1,2,0:0:0:0:
192,192,106793,128,0,106943:0:0:0:0:
64,192,106943,128,8,107093:0:0:0:0:
320,192,106943,1,0,0:0:0:0:
448,192,106943,1,0,0:0:0:0:
320,192,107093,128,2,107243:0:0:0:0:
448,192,107093,1,0,0:0:0:0:
192,192,107243,128,0,107393:0:0:0:0:
320,192,107393,1,2,0:0:0:0:
448,192,107393,1,0,0:0:0:0:
64,192,107468,1,0,0:0:0:0:
192,192,107543,1,8,0:0:0:0:
320,192,107543,1,0,0:0:0:0:
448,192,107543,128,0,107693:0:0:0:0:
64,192,107693,1,2,0:0:0:0:
192,192,107693,1,0,0:0:0:0:
320,192,107768,1,0,0:0:0:0:
64,192,107843,128,0,107993:0:0:0:0:
320,192,107993,1,2,0:0:0:0:
448,192,107993,1,0,0:0:0:0:
192,192,108068,1,0,0:0:0:0:
64,192,108143,1,8,0:0:0:0:
448,192,108143,1,0,0:0:0:0:
320,192,108218,1,0,0:0:0:0:
192,192,108293,1,2,0:0:0:0:
448,192,108293,1,0,0:0:0:0:
320,192,108368,1,0,0:0:0:0:
64,192,108443,1,2,0:0:0:0:
192,192,108443,1,0,0:0:0:0:
320,192,108593,128,0,108743:0:0:0:0:
64,192,108743,1,2,0:0:0:0:
448,192,108743,128,0,108893:0:0:0:0:
64,192,108893,1,8,0:0:0:0:
192,192,108893,1,0,0:0:0:0:
320,192,108893,1,0,0:0:0:0:
192,192,109043,128,0,109193:0:0:0:0:
64,192,109193,128,2,109343:0:0:0:0:
448,192,109193,1,0,0:0:0:0:
192,192,109343,1,8,0:0:0:0:
320,192,109343,1,0,0:0:0:0:
448,192,109343,128,0,109493:0:0:0:0:
64,192,109493,1,2,0:0:0:0:
320,192,109493,128,0,109643:0:0:0:0:
192,192,109643,128,0,109793:0:0:0:0:
320,192,109793,1,2,0:0:0:0:
448,192,109793,1,0,0:0:0:0:
64,192,109868,1,2,0:0:0:0:
192,192,109868,1,0,0:0:0:0:
320,192,109943,1,8,0:0:0:0:
448,192,109943,1,0,0:0:0:0:
192,192,110018,1,0,0:0:0:0:
64,192,110093,1,2,0:0:0:0:
448,192,110093,1,0,0:0:0:0:
320,192,110168,1,0,0:0:0:0:
64,192,110243,1,2,0:0:0:0:
192,192,110243,1,0,0:0:0:0:
320,192,110318,1,8,0:0:0:0:
448,192,110318,1,0,0:0:0:0:
64,192,110393,1,2,0:0:0:0:
192,192,110393,1,0,0:0:0:0:
320,192,110468,1,2,0:0:0:0:
448,192,110468,1,0,0:0:0:0:
64,192,110543,1,8,0:0:0:0:
192,192,110543,1,0,0:0:0:0:
320,192,110618,1,0,0:0:0:0:
64,192,110693,1,2,0:0:0:0:
448,192,110693,1,0,0:0:0:0:
192,192,110768,1,0,0:0:0:0:
64,192,110843,128,8,110993:0:0:0:0:
320,192,110843,1,4,0:0:0:0:
448,192,110843,1,0,0:0:0:0:
320,192,110993,1,2,0:0:0:0:
448,192,110993,1,0,0:0:0:0:
192,192,111068,1,0,0:0:0:0:
64,192,111143,1,2,0:0:0:0:
448,192,111143,1,0,0:0:0:0:
320,192,111218,1,0,0:0:0:0:
64,192,111293,1,8,0:0:0:0:
192,192,111293,1,0,0:0:0:0:
448,192,111293,128,0,111443:0:0:0:0:
64,192,111443,1,2,0:0:0:0:
192,192,111443,1,0,0:0:0:0:
320,192,111518,1,2,0:0:0:0:
448,192,111518,1,0,0:0:0:0:
64,192,111593,1,2,0:0:0:0:
192,192,111593,1,0,0:0:0:0:
320,192,111668,1,0,0:0:0:0:
64,192,111743,128,8,111893:0:0:0:0:
192,192,111743,1,0,0:0:0:0:
448,192,111743,1,0,0:0:0:0:
320,192,111893,1,2,0:0:0:0:
448,192,111893,1,0,0:0:0:0:
192,192,111968,1,0,0:0:0:0:
320,192,112043,1,2,0:0:0:0:
448,192,112043,1,0,0:0:0:0:
64,192,112118,1,2,0:0:0:0:
192,192,112118,1,0,0:0:0:0:
320,192,112193,1,8,0:0:0:0:
448,192,112193,1,0,0:0:0:0:
64,192,112268,1,0,0:0:0:0:
192,192,112343,1,2,0:0:0:0:
320,192,112343,1,0,0:0:0:0:
448,192,112418,1,0,0:0:0:0:
64,192,112493,1,2,0:0:0:0:
192,192,112493,1,0,0:0:0:0:
320,192,112568,1,0,0:0:0:0:
64,192,112643,1,8,0:0:0:0:
448,192,112643,1,0,0:0:0:0:
192,192,112718,1,0,0:0:0:0:
320,192,112793,1,2,0:0:0:0:
448,192,112793,1,0,0:0:0:0:
64,192,112868,1,2,0:0:0:0:
192,192,112868,1,0,0:0:0:0:
320,192,112943,1,8,0:0:0:0:
448,192,112943,1,0,0:0:0:0:
192,192,113018,1,0,0:0:0:0:
64,192,113093,1,2,0:0:0:0:
448,192,113093,1,0,0:0:0:0:
320,192,113168,1,0,0:0:0:0:
64,192,113243,1,8,0:0:0:0:
192,192,113243,1,4,0:0:0:0:
448,192,113243,1,0,0:0:0:0:
320,192,113318,1,0,0:0:0:0:
64,192,113393,1,2,0:0:0:0:
448,192,113393,1,0,0:0:0:0:
192,192,113468,1,0,0:0:0:0:
320,192,113543,1,8,0:0:0:0:
448,192,113543,1,0,0:0:0:0:
64,192,113618,1,8,0:0:0:0:
192,192,113618,1,0,0:0:0:0:
320,192,113693,1,2,0:0:0:0:
448,192,113693,1,0,0:0:0:0:
64,192,113768,1,0,0:0:0:0:
192,192,113843,1,8,0:0:0:0:
320,192,113843,1,0,0:0:0:0:
448,192,113918,1,0,0:0:0:0:
64,192,113993,1,2,0:0:0:0:
192,192,113993,1,0,0:0:0:0:
320,192,114068,1,2,0:0:0:0:
448,192,114068,1,0,0:0:0:0:
64,192,114143,1,8,0:0:0:0:
192,192,114143,1,0,0:0:0:0:
448,192,114218,1,0,0:0:0:0:
64,192,114293,1,2,0:0:0:0:
320,192,114293,1,0,0:0:0:0:
192,192,114368,1,0,0:0:0:0:
320,192,114443,1,2,0:0:0:0:
448,192,114443,1,0,0:0:0:0:
64,192,114518,1,2,0:0:0:0:
192,192,114518,1,0,0:0:0:0:
320,192,114593,1,8,0:0:0:0:
448,192,114593,1,0,0:0:0:0:
64,192,114668,1,8,0:0:0:0:
192,192,114668,1,0,0:0:0:0:
320,192,114743,1,2,0:0:0:0:
448,192,114743,1,0,0:0:0:0:
64,192,114818,1,2,0:0:0:0:
192,192,114818,1,0,0:0:0:0:
320,192,114893,1,2,0:0:0:0:
448,192,114893,1,0,0:0:0:0:
64,192,114968,1,2,0:0:0:0:
192,192,114968,1,0,0:0:0:0:
320,192,115043,1,8,0:0:0:0:
448,192,115043,1,0,0:0:0:0:
192,192,115118,1,0,0:0:0:0:
64,192,115193,1,2,0:0:0:0:
448,192,115193,128,0,115268:0:0:0:0:
192,192,115268,1,2,0:0:0:0:
320,192,115268,128,0,115343:0:0:0:0:
64,192,115343,1,8,0:0:0:0:
448,192,115343,128,0,115418:0:0:0:0:
192,192,115418,1,8,0:0:0:0:
320,192,115418,128,0,115493:0:0:0:0:
64,192,115493,1,8,0:0:0:0:
448,192,115493,128,0,115568:0:0:0:0:
192,192,115568,1,8,0:0:0:0:
320,192,115568,128,0,115643:0:0:0:0:
64,192,115643,128,4,115793:0:0:0:0:
448,192,115643,1,2,0:0:0:0:
192,192,115793,128,0,115943:0:0:0:0:
64,192,115943,1,8,0:0:0:0:
320,192,115943,128,0,116093:0:0:0:0:
448,192,115943,1,0,0:0:0:0:
64,192,116093,1,2,0:0:0:0:
192,192,116093,1,0,0:0:0:0:
448,192,116243,128,0,116393:0:0:0:0:
192,192,116393,1,2,0:0:0:0:
320,192,116393,128,0,116543:0:0:0:0:
64,192,116543,1,8,0:0:0:0:
192,192,116543,128,0,116693:0:0:0:0:
448,192,116543,1,0,0:0:0:0:
320,192,116693,128,2,116843:0:0:0:0:
448,192,116693,1,0,0:0:0:0:
64,192,116843,128,0,116993:0:0:0:0:
320,192,116993,1,2,0:0:0:0:
448,192,116993,1,0,0:0:0:0:
192,192,117068,1,0,0:0:0:0:
64,192,117143,1,8,0:0:0:0:
320,192,117143,1,0,0:0:0:0:
448,192,117143,128,0,117293:0:0:0:0:
64,192,117293,1,2,0:0:0:0:
192,192,117293,1,0,0:0:0:0:
320,192,117368,1,0,0:0:0:0:
64,192,117443,128,0,117593:0:0:0:0:
320,192,117593,1,2,0:0:0:0:
448,192,117593,1,0,0:0:0:0:
192,192,117668,1,0,0:0:0:0:
64,192,117743,1,8,0:0:0:0:
448,192,117743,1,0,0:0:0:0:
320,192,117818,1,0,0:0:0:0:
192,192,117893,1,2,0:0:0:0:
448,192,117893,1,0,0:0:0:0:
320,192,117968,1,0,0:0:0:0:
64,192,118043,1,2,0:0:0:0:
192,192,118043,1,0,0:0:0:0:
320,192,118193,128,0,118343:0:0:0:0:
64,192,118343,1,2,0:0:0:0:
448,192,118343,128,0,118493:0:0:0:0:
64,192,118493,1,8,0:0:0:0:
192,192,118493,1,0,0:0:0:0:
320,192,118493,1,0,0:0:0:0:
192,192,118643,128,0,118793:0:0:0:0:
64,192,118793,128,2,118943:0:0:0:0:
448,192,118793,1,0,0:0:0:0:
192,192,118943,1,8,0:0:0:0:
320,192,118943,1,0,0:0:0:0:
448,192,118943,128,0,119093:0:0:0:0:
64,192,119093,1,2,0:0:0:0:
320,192,119093,128,0,119243:0:0:0:0:
192,192,119243,128,0,119393:0:0:0:0:
320,192,119393,1,2,0:0:0:0:
448,192,119393,1,0,0:0:0:0:
64,192,119468,1,2,0:0:0:0:
192,192,119468,1,0,0:0:0:0:
320,192,119543,1,8,0:0:0:0:
448,192,119543,1,0,0:0:0:0:
64,192,119618,1,0,0:0:0:0:
192,192,119693,1,2,0:0:0:0:
320,192,119693,1,0,0:0:0:0:
448,192,119768,1,0,0:0:0:0:
64,192,119843,1,2,0:0:0:0:
192,192,119843,1,0,0:0:0:0:
320,192,119918,1,0,0:0:0:0:
64,192,119993,1,2,0:0:0:0:
448,192,119993,1,0,0:0:0:0:
192,192,120068,1,2,0:0:0:0:
320,192,120068,1,0,0:0:0:0:
64,192,120143,1,8,0:0:0:0:
448,192,120143,1,0,0:0:0:0:
192,192,120218,1,0,0:0:0:0:
320,192,120293,1,2,0:0:0:0:
448,192,120293,1,0,0:0:0:0:
64,192,120368,1,2,0:0:0:0:
192,192,120443,1,2,0:0:0:0:
320,192,120443,1,0,0:0:0:0:
448,192,120593,128,0,120743:0:0:0:0:
64,192,120743,1,8,0:0:0:0:
192,192,120743,1,0,0:0:0:0:
320,192,120743,128,0,120893:0:0:0:0:
64,192,120893,1,2,0:0:0:0:
448,192,120893,1,0,0:0:0:0:
192,192,121043,128,0,121193:0:0:0:0:
64,192,121193,128,2,121343:0:0:0:0:
448,192,121193,1,0,0:0:0:0:
192,192,121343,1,8,0:0:0:0:
320,192,121343,1,0,0:0:0:0:
448,192,121343,128,0,121493:0:0:0:0:
64,192,121493,1,2,0:0:0:0:
320,192,121493,128,0,121643:0:0:0:0:
192,192,121643,128,0,121793:0:0:0:0:
448,192,121793,1,0,0:0:0:0:
64,192,121868,1,2,0:0:0:0:
320,192,121868,1,0,0:0:0:0:
192,192,121943,1,8,0:0:0:0:
448,192,121943,1,0,0:0:0:0:
64,192,122018,1,0,0:0:0:0:
320,192,122093,1,2,0:0:0:0:
448,192,122093,1,0,0:0:0:0:
192,192,122168,1,0,0:0:0:0:
320,192,122243,1,0,0:0:0:0:
448,192,122318,1,0,0:0:0:0:
64,192,122393,1,2,0:0:0:0:
192,192,122393,1,0,0:0:0:0:
320,192,122468,1,0,0:0:0:0:
64,192,122543,1,8,0:0:0:0:
448,192,122543,1,0,0:0:0:0:
192,192,122618,1,0,0:0:0:0:
320,192,122693,1,2,0:0:0:0:
448,192,122693,1,0,0:0:0:0:
64,192,122768,1,2,0:0:0:0:
192,192,122768,1,0,0:0:0:0:
320,192,122843,1,0,0:0:0:0:
64,192,122993,1,2,0:0:0:0:
448,192,122993,1,0,0:0:0:0:
192,192,123143,1,8,0:0:0:0:
320,192,123143,1,0,0:0:0:0:
448,192,123143,1,0,0:0:0:0:
64,192,123293,1,2,0:0:0:0:
320,192,123293,128,0,123443:0:0:0:0:
192,192,123443,1,0,0:0:0:0:
64,192,123593,1,2,0:0:0:0:
448,192,123593,1,0,0:0:0:0:
192,192,123668,1,2,0:0:0:0:
320,192,123668,1,0,0:0:0:0:
64,192,123743,1,8,0:0:0:0:
448,192,123743,1,0,0:0:0:0:
192,192,123818,1,0,0:0:0:0:
320,192,123893,1,2,0:0:0:0:
448,192,123893,1,0,0:0:0:0:
64,192,123968,1,0,0:0:0:0:
192,192,124043,1,2,0:0:0:0:
320,192,124043,1,0,0:0:0:0:
448,192,124118,1,0,0:0:0:0:
64,192,124193,1,2,0:0:0:0:
192,192,124193,1,0,0:0:0:0:
320,192,124268,1,2,0:0:0:0:
448,192,124268,1,0,0:0:0:0:
64,192,124343,1,8,0:0:0:0:
192,192,124343,1,0,0:0:0:0:
448,192,124418,1,0,0:0:0:0:
64,192,124493,1,2,0:0:0:0:
320,192,124493,1,0,0:0:0:0:
192,192,124568,1,0,0:0:0:0:
320,192,124643,1,2,0:0:0:0:
448,192,124643,1,0,0:0:0:0:
64,192,124718,1,8,0:0:0:0:
192,192,124718,1,0,0:0:0:0:
320,192,124793,1,2,0:0:0:0:
448,192,124793,1,0,0:0:0:0:
64,192,124868,1,2,0:0:0:0:
192,192,124868,1,0,0:0:0:0:
320,192,124943,1,8,0:0:0:0:
448,192,124943,1,0,0:0:0:0:
64,192,125018,1,0,0:0:0:0:
192,192,125093,1,2,0:0:0:0:
448,192,125093,1,0,0:0:0:0:
320,192,125168,1,0,0:0:0:0:
64,192,125243,1,4,0:0:0:0:
192,192,125243,128,2,125393:0:0:0:0:
448,192,125243,1,0,0:0:0:0:
320,192,125393,128,0,125543:0:0:0:0:
64,192,125543,1,8,0:0:0:0:
192,192,125543,1,0,0:0:0:0:
448,192,125543,128,0,125693:0:0:0:0:
64,192,125693,1,2,0:0:0:0:
192,192,125693,1,0,0:0:0:0:
320,192,125843,128,0,125993:0:0:0:0:
64,192,125993,1,2,0:0:0:0:
192,192,125993,128,0,126143:0:0:0:0:
64,192,126143,128,8,126293:0:0:0:0:
320,192,126143,1,0,0:0:0:0:
448,192,126143,1,0,0:0:0:0:
192,192,126293,1,2,0:0:0:0:
448,192,126293,128,0,126443:0:0:0:0:
192,192,126443,128,0,126593:0:0:0:0:
320,192,126593,1,2,0:0:0:0:
448,192,126593,1,0,0:0:0:0:
64,192,126668,1,0,0:0:0:0:
192,192,126743,1,8,0:0:0:0:
320,192,126743,1,0,0:0:0:0:
448,192,126743,128,0,126893:0:0:0:0:
64,192,126893,1,2,0:0:0:0:
192,192,126893,1,0,0:0:0:0:
320,192,126968,1,0,0:0:0:0:
64,192,127043,128,0,127193:0:0:0:0:
192,192,127193,1,2,0:0:0:0:
320,192,127193,1,0,0:0:0:0:
448,192,127268,1,0,0:0:0:0:
64,192,127343,1,8,0:0:0:0:
192,192,127343,1,0,0:0:0:0:
320,192,127418,1,0,0:0:0:0:
64,192,127493,1,2,0:0:0:0:
448,192,127493,1,0,0:0:0:0:
192,192,127568,1,0,0:0:0:0:
320,192,127643,1,2,0:0:0:0:
448,192,127643,1,0,0:0:0:0:
192,192,127793,128,0,127943:0:0:0:0:
320,192,127943,128,2,128093:0:0:0:0:
448,192,127943,1,0,0:0:0:0:
64,192,128093,1,8,0:0:0:0:
192,192,128093,1,0,0:0:0:0:
448,192,128093,1,0,0:0:0:0:
192,192,128243,128,0,128393:0:0:0:0:
64,192,128393,128,2,128543:0:0:0:0:
448,192,128393,1,0,0:0:0:0:
192,192,128543,1,8,0:0:0:0:
320,192,128543,1,0,0:0:0:0:
448,192,128543,128,0,128693:0:0:0:0:
64,192,128693,1,2,0:0:0:0:
320,192,128693,128,0,128843:0:0:0:0:
192,192,128843,128,0,128993:0:0:0:0:
320,192,128993,1,2,0:0:0:0:
448,192,128993,1,0,0:0:0:0:
64,192,129068,1,2,0:0:0:0:
192,192,129068,1,0,0:0:0:0:
320,192,129143,1,8,0:0:0:0:
448,192,129143,1,0,0:0:0:0:
192,192,129218,1,0,0:0:0:0:
64,192,129293,1,2,0:0:0:0:
448,192,129293,1,0,0:0:0:0:
320,192,129368,1,0,0:0:0:0:
64,192,129443,1,2,0:0:0:0:
192,192,129443,1,0,0:0:0:0:
320,192,129518,1,8,0:0:0:0:
448,192,129518,1,0,0:0:0:0:
64,192,129593,1,2,0:0:0:0:
192,192,129593,1,0,0:0:0:0:
320,192,129668,1,2,0:0:0:0:
448,192,129668,1,0,0:0:0:0:
64,192,129743,1,8,0:0:0:0:
192,192,129743,1,0,0:0:0:0:
320,192,129818,1,0,0:0:0:0:
64,192,129893,1,2,0:0:0:0:
448,192,129893,1,0,0:0:0:0:
192,192,129968,1,0,0:0:0:0:
64,192,130043,128,8,130193:0:0:0:0:
320,192,130043,1,4,0:0:0:0:
448,192,130043,1,0,0:0:0:0:
320,192,130193,1,2,0:0:0:0:
448,192,130193,1,0,0:0:0:0:
192,192,130268,1,0,0:0:0:0:
64,192,130343,1,2,0:0:0:0:
448,192,130343,1,0,0:0:0:0:
320,192,130418,1,0,0:0:0:0:
64,192,130493,1,8,0:0:0:0:
192,192,130493,1,0,0:0:0:0:
448,192,130493,128,0,130643:0:0:0:0:
64,192,130643,1,2,0:0:0:0:
192,192,130643,1,0,0:0:0:0:
320,192,130718,1,2,0:0:0:0:
448,192,130718,1,0,0:0:0:0:
64,192,130793,1,2,0:0:0:0:
192,192,130793,1,0,0:0:0:0:
320,192,130868,1,0,0:0:0:0:
64,192,130943,128,8,131093:0:0:0:0:
192,192,130943,1,0,0:0:0:0:
448,192,130943,1,0,0:0:0:0:
320,192,131093,1,2,0:0:0:0:
448,192,131093,1,0,0:0:0:0:
192,192,131168,1,0,0:0:0:0:
320,192,131243,1,2,0:0:0:0:
448,192,131243,1,0,0:0:0:0:
64,192,131318,1,2,0:0:0:0:
192,192,131318,1,0,0:0:0:0:
320,192,131393,1,8,0:0:0:0:
448,192,131393,1,0,0:0:0:0:
64,192,131468,1,0,0:0:0:0:
192,192,131543,1,2,0:0:0:0:
320,192,131543,1,0,0:0:0:0:
448,192,131618,1,0,0:0:0:0:
64,192,131693,1,2,0:0:0:0:
192,192,131693,1,0,0:0:0:0:
320,192,131768,1,0,0:0:0:0:
64,192,131843,1,8,0:0:0:0:
448,192,131843,1,0,0:0:0:0:
192,192,131918,1,0,0:0:0:0:
320,192,131993,1,2,0:0:0:0:
448,192,131993,1,0,0:0:0:0:
64,192,132068,1,2,0:0:0:0:
192,192,132068,1,0,0:0:0:0:
320,192,132143,1,8,0:0:0:0:
448,192,132143,1,0,0:0:0:0:
192,192,132218,1,0,0:0:0:0:
64,192,132293,1,2,0:0:0:0:
448,192,132293,1,0,0:0:0:0:
320,192,132368,1,0,0:0:0:0:
64,192,132443,1,8,0:0:0:0:
192,192,132443,1,4,0:0:0:0:
448,192,132443,1,0,0:0:0:0:
320,192,132518,1,0,0:0:0:0:
64,192,132593,1,2,0:0:0:0:
448,192,132593,1,0,0:0:0:0:
192,192,132668,1,0,0:0:0:0:
320,192,132743,1,8,0:0:0:0:
448,192,132743,1,0,0:0:0:0:
64,192,132818,1,8,0:0:0:0:
192,192,132818,1,0,0:0:0:0:
320,192,132893,1,2,0:0:0:0:
448,192,132893,1,0,0:0:0:0:
64,192,132968,1,0,0:0:0:0:
192,192,133043,1,8,0:0:0:0:
320,192,133043,1,0,0:0:0:0:
448,192,133118,1,0,0:0:0:0:
64,192,133193,1,2,0:0:0:0:
192,192,133193,1,0,0:0:0:0:
320,192,133268,1,2,0:0:0:0:
448,192,133268,1,0,0:0:0:0:
64,192,133343,1,8,0:0:0:0:
192,192,133343,1,0,0:0:0:0:
448,192,133418,1,0,0:0:0:0:
64,192,133493,1,2,0:0:0:0:
320,192,133493,1,0,0:0:0:0:
192,192,133568,1,0,0:0:0:0:
320,192,133643,1,2,0:0:0:0:
448,192,133643,1,0,0:0:0:0:
64,192,133718,1,2,0:0:0:0:
192,192,133718,1,0,0:0:0:0:
320,192,133793,1,8,0:0:0:0:
448,192,133793,1,0,0:0:0:0:
64,192,133868,1,8,0:0:0:0:
192,192,133868,1,0,0:0:0:0:
320,192,133943,1,2,0:0:0:0:
448,192,133943,1,0,0:0:0:0:
64,192,134018,1,2,0:0:0:0:
192,192,134018,1,0,0:0:0:0:
320,192,134093,1,2,0:0:0:0:
448,192,134093,1,0,0:0:0:0:
64,192,134168,1,2,0:0:0:0:
192,192,134168,1,0,0:0:0:0:
320,192,134243,1,8,0:0:0:0:
448,192,134243,1,0,0:0:0:0:
192,192,134318,1,0,0:0:0:0:
64,192,134393,1,2,0:0:0:0:
448,192,134393,128,0,134468:0:0:0:0:
192,192,134468,1,2,0:0:0:0:
320,192,134468,128,0,134543:0:0:0:0:
64,192,134543,1,8,0:0:0:0:
448,192,134543,128,0,134618:0:0:0:0:
192,192,134618,1,8,0:0:0:0:
320,192,134618,128,0,134693:0:0:0:0:
64,192,134693,1,8,0:0:0:0:
448,192,134693,128,0,134768:0:0:0:0:
192,192,134768,1,8,0:0:0:0:
320,192,134768,128,0,134843:0:0:0:0:
64,192,134843,1,4,0:0:0:0:
448,192,134843,1,2,0:0:0:0:
192,192,134993,1,0,0:0:0:0:
320,192,135143,1,0,0:0:0:0:
192,192,135293,1,0,0:0:0:0:
320,192,135443,1,0,0:0:0:0:
448,192,135593,1,0,0:0:0:0:
192,192,136043,1,0,0:0:0:0:
320,192,136043,1,0,0:0:0:0:
448,192,136343,1,0,0:0:0:0:
64,192,136643,1,0,0:0:0:0:
320,192,136943,1,0,0:0:0:0:
448,192,136943,1,0,0:0:0:0:
64,192,137243,1,0,0:0:0:0:
192,192,137243,1,0,0:0:0:0:
448,192,137543,1,0,0:0:0:0:
64,192,137843,128,0,137993:0:0:0:0:
192,192,137843,1,0,0:0:0:0:
320,192,138143,1,0,0:0:0:0:
448,192,138143,128,0,138293:0:0:0:0:
64,192,138443,1,0,0:0:0:0:
192,192,138443,1,0,0:0:0:0:
320,192,138743,1,0,0:0:0:0:
192,192,139043,1,0,0:0:0:0:
448,192,139043,1,0,0:0:0:0:
64,192,139343,1,0,0:0:0:0:
320,192,139343,1,0,0:0:0:0:
64,192,139643,1,0,0:0:0:0:
192,192,139643,1,0,0:0:0:0:
320,192,139943,1,0,0:0:0:0:
64,192,140243,1,0,0:0:0:0:
448,192,140243,128,0,140393:0:0:0:0:
192,192,140543,1,0,0:0:0:0:
320,192,140843,1,0,0:0:0:0:
448,192,140843,1,0,0:0:0:0:
64,192,141143,128,0,141293:0:0:0:0:
448,192,141143,1,0,0:0:0:0:
192,192,141443,1,0,0:0:0:0:
64,192,141743,128,0,142043:0:0:0:0:
320,192,141743,1,0,0:0:0:0:
192,192,142043,1,0,0:0:0:0:
448,192,142043,128,0,142343:0:0:0:0:
64,192,142343,1,0,0:0:0:0:
320,192,142343,128,0,142643:0:0:0:0:
192,192,142643,128,0,142943:0:0:0:0:
448,192,142643,1,0,0:0:0:0:
64,192,142943,128,0,143243:0:0:0:0:
320,192,142943,1,0,0:0:0:0:
448,192,143243,1,0,0:0:0:0:
64,192,143543,1,0,0:0:0:0:
448,192,143543,128,0,143693:0:0:0:0:
192,192,143843,1,0,0:0:0:0:
320,192,143843,1,0,0:0:0:0:
448,192,144143,1,0,0:0:0:0:
64,192,144443,128,0,144743:0:0:0:0:
192,192,144443,1,0,0:0:0:0:
320,192,144743,1,0,0:0:0:0:
448,192,144780,1,0,0:0:0:0:
192,192,144818,1,0,0:0:0:0:
64,192,144855,1,0,0:0:0:0:
320,192,144893,1,0,0:0:0:0:
448,192,144930,1,0,0:0:0:0:
192,192,144968,1,0,0:0:0:0:
64,192,145005,1,0,0:0:0:0:
320,192,145043,1,0,0:0:0:0:
448,192,145043,128,0,145343:0:0:0:0:
64,192,145343,1,0,0:0:0:0:
192,192,145643,1,0,0:0:0:0:
448,192,145643,1,0,0:0:0:0:
320,192,145943,128,0,146243:0:0:0:0:
64,192,146243,1,0,0:0:0:0:
192,192,146318,1,0,0:0:0:0:
320,192,146393,1,0,0:0:0:0:
448,192,146468,1,0,0:0:0:0:
64,192,146543,128,0,146693:0:0:0:0:
192,192,146543,1,0,0:0:0:0:
192,192,146843,128,0,146993:0:0:0:0:
448,192,146843,1,0,0:0:0:0:
320,192,146993,1,0,0:0:0:0:
64,192,147143,1,0,0:0:0:0:
320,192,147218,128,0,147368:0:0:0:0:
448,192,147368,1,0,0:0:0:0:
64,192,147443,128,0,147743:0:0:0:0:
192,192,147443,1,0,0:0:0:0:
320,192,147743,1,0,0:0:0:0:
448,192,147743,128,0,148043:0:0:0:0:
64,192,148043,1,0,0:0:0:0:
192,192,148043,1,0,0:0:0:0:
320,192,148343,1,0,0:0:0:0:
64,192,148643,1,0,0:0:0:0:
448,192,148643,128,0,148943:0:0:0:0:
192,192,148943,1,0,0:0:0:0:
320,192,149018,1,0,0:0:0:0:
192,192,149093,1,0,0:0:0:0:
320,192,149168,1,0,0:0:0:0:
64,192,149243,128,0,149543:0:0:0:0:
448,192,149243,1,0,0:0:0:0:
448,192,149543,1,0,0:0:0:0:
320,192,149580,1,0,0:0:0:0:
64,192,149618,1,0,0:0:0:0:
192,192,149655,1,0,0:0:0:0:
448,192,149693,1,0,0:0:0:0:
320,192,149730,1,0,0:0:0:0:
64,192,149768,1,0,0:0:0:0:
192,192,149805,1,0,0:0:0:0:
320,192,149843,1,0,0:0:0:0:
448,192,149843,128,0,150143:0:0:0:0:
64,192,150443,1,0,0:0:0:0:
192,192,150443,1,0,0:0:0:0:
448,192,150593,1,0,0:0:0:0:
64,192,150743,128,0,151043:0:0:0:0:
320,192,150743,1,0,0:0:0:0:
192,192,151043,128,0,151343:0:0:0:0:
448,192,151043,1,0,0:0:0:0:
64,192,151343,1,0,0:0:0:0:
320,192,151343,128,0,151643:0:0:0:0:
64,192,151643,1,0,0:0:0:0:
448,192,151643,1,0,0:0:0:0:
