osu file format v14

[General]
AudioFilename: audio.mp3
AudioLeadIn: 0
PreviewTime: 40945
Countdown: 0
SampleSet: Normal
StackLeniency: 0.7
Mode: 1
LetterboxInBreaks: 0
WidescreenStoryboard: 0

[Editor]
Bookmarks: 524,10629,20734,35892,40945,61155,71260,81366,91471,101576,121787,131892
DistanceSpacing: 0.5
BeatDivisor: 4
GridSize: 4
TimelineZoom: 2

[Metadata]
Title:Hidden Ending
TitleUnicode:Hidden Ending
Artist:ARForest
ArtistUnicode:ARForest
Creator:Fynbi
Version:True Ending
Source:MUSYNX
Tags:fa featured artist art for rest frost era instrumental electronic artcore musync Eyenine CoEqual
BeatmapID:2779845
BeatmapSetID:1341980

[Difficulty]
HPDrainRate:6.5
CircleSize:4
OverallDifficulty:7
ApproachRate:4
SliderMultiplier:1.4
SliderTickRate:1

[Events]
//Background and Video events
0,0,"florent-boston-starbay.jpg",0,-30
//Break Periods
//Storyboard Layer 0 (Background)
//Storyboard Layer 1 (Fail)
//Storyboard Layer 2 (Pass)
//Storyboard Layer 3 (Foreground)
//Storyboard Layer 4 (Overlay)
//Storyboard Sound Samples

[TimingPoints]
524,315.789473684211,4,1,0,30,1,0
524,-133.333333333333,4,1,0,30,0,0
10589,-117.647058823529,4,1,0,40,0,0
20695,-95.30995,4,1,0,60,0,0
20853,-95.59484,4,1,0,60,0,0
21011,-95.88144,4,1,0,60,0,0
21169,-96.16977,4,1,0,60,0,0
21248,-96.31458,4,1,0,60,0,0
21406,-96.60552,4,1,0,60,0,0
21485,-96.75165,4,1,0,60,0,0
21563,-96.89636,4,1,0,60,0,0
21642,-97.04337,4,1,0,60,0,0
21800,-97.338745,4,1,0,60,0,0
21879,-97.4871,4,1,0,60,0,0
21958,-97.63591,4,1,0,60,0,0
22116,-97.93489,4,1,0,60,0,0
22195,-98.08508,4,1,0,60,0,0
22274,-98.235725,4,1,0,60,0,0
22432,-98.53841,4,1,0,60,0,0
22511,-98.690445,4,1,0,60,0,0
22590,-98.84296,4,1,0,60,0,0
22669,-98.995926,4,1,0,60,0,0
22748,-99.1494,4,1,0,60,0,0
22906,-99.45774,4,1,0,60,0,0
23063,-99.76604,4,1,0,60,0,0
23142,-99.92188,4,1,0,60,0,0
23221,-100.07823,4,1,0,60,0,0
23379,-100.39239,4,1,0,60,0,0
23537,-100.70853,4,1,0,60,0,0
23695,-101.026665,4,1,0,60,0,0
23774,-101.186485,4,1,0,60,0,0
23932,-101.50765,4,1,0,60,0,0
24011,-101.66899,4,1,0,60,0,0
24090,-101.830864,4,1,0,60,0,0
24169,-101.99323,4,1,0,60,0,0
24327,-102.31955,4,1,0,60,0,0
24406,-102.48349,4,1,0,60,0,0
24485,-102.647964,4,1,0,60,0,0
24642,-102.97639,4,1,0,60,0,0
24721,-103.14244,4,1,0,60,0,0
24800,-103.30904,4,1,0,60,0,0
24958,-103.64384,4,1,0,60,0,0
25037,-103.81206,4,1,0,60,0,0
25195,-104.15013,4,1,0,60,0,0
25274,-104.32,4,1,0,60,0,0
25432,-104.6614,4,1,0,60,0,0
25511,-104.83293,4,1,0,60,0,0
25590,-105.00504,4,1,0,60,0,0
25669,-105.177704,4,1,0,60,0,0
25748,-105.263157894737,4,1,0,60,0,0
30800,-95.30995,4,1,0,60,0,0
30958,-95.59484,4,1,0,60,0,0
31116,-95.88144,4,1,0,60,0,0
31274,-96.16977,4,1,0,60,0,0
31353,-96.31458,4,1,0,60,0,0
31511,-96.60552,4,1,0,60,0,0
31590,-96.75165,4,1,0,60,0,0
31669,-96.898224,4,1,0,60,0,0
31748,-97.04524,4,1,0,60,0,0
31906,-97.340614,4,1,0,60,0,0
31985,-97.48898,4,1,0,60,0,0
32063,-97.63591,4,1,0,60,0,0
32221,-97.93489,4,1,0,60,0,0
32300,-98.08508,4,1,0,60,0,0
32379,-98.235725,4,1,0,60,0,0
32537,-98.53841,4,1,0,60,0,0
32616,-98.690445,4,1,0,60,0,0
32695,-98.84296,4,1,0,60,0,0
32774,-98.995926,4,1,0,60,0,0
32853,-99.1494,4,1,0,60,0,0
33011,-99.45774,4,1,0,60,0,0
33169,-99.768,4,1,0,60,0,0
33248,-99.923874,4,1,0,60,0,0
33327,-100.080215,4,1,0,60,0,0
33485,-100.39439,4,1,0,60,0,0
33642,-100.70853,4,1,0,60,0,0
33800,-101.026665,4,1,0,60,0,0
33879,-101.186485,4,1,0,60,0,0
34037,-101.50765,4,1,0,60,0,0
34116,-101.66899,4,1,0,60,0,0
34195,-101.830864,4,1,0,60,0,0
34274,-101.99323,4,1,0,60,0,0
34432,-102.31955,4,1,0,60,0,0
34511,-102.48349,4,1,0,60,0,0
34590,-102.647964,4,1,0,60,0,0
34748,-102.97849,4,1,0,60,0,0
34827,-103.14455,4,1,0,60,0,0
34906,-103.31115,4,1,0,60,0,0
35063,-103.64384,4,1,0,60,0,0
35142,-103.81206,4,1,0,60,0,0
35221,-103.98083,4,1,0,60,0,0
35300,-104.15013,4,1,0,60,0,0
35379,-104.32,4,1,0,60,0,0
35458,-104.49042,4,1,0,60,0,0
35537,-104.6614,4,1,0,60,0,0
35616,-104.83293,4,1,0,60,0,0
35695,-105.00504,4,1,0,60,0,0
35774,-105.177704,4,1,0,60,0,0
35853,-71.4285714285714,4,1,0,60,0,0
36011,-83.3333333333333,4,1,0,20,0,0
38378,-100,4,1,0,20,0,0
39641,-125,4,1,0,50,0,0
39720,-122.641509433962,4,1,0,50,0,0
39799,-120.37037037037,4,1,0,50,0,0
39878,-118.181818181818,4,1,0,50,0,0
39957,-116.071428571429,4,1,0,50,0,0
40036,-114.035087719298,4,1,0,50,0,0
40293,-112.068965517241,4,1,0,50,0,0
40333,-110.169491525424,4,1,0,50,0,0
40451,-108.333333333333,4,1,0,50,0,0
40491,-106.55737704918,4,1,0,50,0,0
40589,-104.838709677419,4,1,0,50,0,0
40668,-103.174603174603,4,1,0,50,0,0
40747,-101.5625,4,1,0,50,0,0
40826,-100,4,1,0,50,0,0
40905,-83.3333333333333,4,1,0,80,0,0
41062,-100,4,1,0,80,0,0
51010,-83.3333333333333,4,1,0,80,0,0
51168,-100,4,1,0,80,0,0
61115,-83.3333333333333,4,1,0,80,0,0
61431,-125,4,1,0,40,0,0
70431,-111.111111111111,4,1,0,90,0,0
71221,-90.9090909090908,4,1,0,90,0,0
71378,-111.111111111111,4,2,0,70,0,0
72641,-111.111111111111,4,1,0,70,0,0
72957,-111.111111111111,4,2,0,70,0,0
73589,-111.111111111111,4,1,0,70,0,0
73905,-111.111111111111,4,2,0,70,0,0
75168,-111.111111111111,4,1,0,70,0,0
75484,-111.111111111111,4,2,0,70,0,0
76115,-111.111111111111,4,1,0,70,0,0
76431,-111.111111111111,4,2,0,70,0,0
77694,-111.111111111111,4,1,0,70,0,0
78010,-111.111111111111,4,2,0,70,0,0
78641,-111.111111111111,4,1,0,70,0,0
78957,-111.111111111111,4,2,0,70,0,0
80220,-111.111111111111,4,1,0,70,0,0
80536,-111.111111111111,4,2,0,70,0,0
81326,-100,4,1,0,40,0,0
81484,-100.113765642776,4,1,0,40,0,0
81641,-100.227790432802,4,1,0,40,0,0
81799,-100.342075256556,4,1,0,40,0,0
82115,-100.456621004566,4,1,0,40,0,0
82273,-100.571428571429,4,1,0,40,0,0
82431,-100.686498855835,4,1,0,40,0,0
82589,-100.801832760596,4,1,0,40,0,0
82668,-100.917431192661,4,1,0,40,0,0
82747,-101.033295063146,4,1,0,40,0,0
82826,-101.149425287356,4,1,0,40,0,0
82905,-101.26582278481,4,1,0,40,0,0
83062,-101.382488479263,4,1,0,40,0,0
83378,-101.499423298731,4,1,0,40,0,0
83457,-101.61662817552,4,1,0,40,0,0
83536,-101.734104046243,4,1,0,40,0,0
83615,-101.851851851852,4,1,0,40,0,0
83694,-101.969872537659,4,1,0,40,0,0
83773,-102.088167053364,4,1,0,40,0,0
83852,-102.206736353078,4,1,0,40,0,0
84010,-102.325581395349,4,1,0,40,0,0
84089,-102.44470314319,4,1,0,40,0,0
84168,-102.564102564103,4,1,0,40,0,0
84326,-102.683780630105,4,1,0,40,0,0
84405,-102.803738317757,4,1,0,40,0,0
84484,-102.923976608187,4,1,0,40,0,0
84641,-103.044496487119,4,1,0,40,0,0
84720,-103.1652989449,4,1,0,40,0,0
84799,-103.286384976526,4,1,0,40,0,0
84878,-103.407755581669,4,1,0,40,0,0
84957,-103.529411764706,4,1,0,40,0,0
85036,-103.651354534747,4,1,0,40,0,0
85115,-103.77358490566,4,1,0,40,0,0
85194,-103.896103896104,4,1,0,40,0,0
85273,-104.018912529551,4,1,0,40,0,0
85352,-104.14201183432,4,1,0,40,0,0
85431,-104.265402843602,4,1,0,40,0,0
85589,-104.389086595492,4,1,0,40,0,0
85905,-104.513064133017,4,1,0,40,0,0
85984,-104.637336504162,4,1,0,40,0,0
86062,-104.761904761905,4,1,0,40,0,0
86220,-104.886769964243,4,1,0,40,0,0
86378,-105.011933174224,4,1,0,40,0,0
86536,-105.137395459976,4,1,0,40,0,0
86615,-105.263157894737,4,1,0,40,0,0
86694,-105.389221556886,4,1,0,40,0,0
86852,-105.515587529976,4,1,0,40,0,0
87168,-105.642256902761,4,1,0,40,0,0
87326,-105.769230769231,4,1,0,40,0,0
87484,-105.89651022864,4,1,0,40,0,0
87641,-106.024096385542,4,1,0,40,0,0
87720,-106.151990349819,4,1,0,40,0,0
87799,-106.280193236715,4,1,0,40,0,0
87878,-106.408706166868,4,1,0,40,0,0
87957,-106.537530266344,4,1,0,40,0,0
88115,-106.666666666667,4,1,0,40,0,0
88431,-106.796116504854,4,1,0,40,0,0
88510,-106.925880923451,4,1,0,40,0,0
88589,-107.05596107056,4,1,0,40,0,0
88668,-107.186358099878,4,1,0,40,0,0
88747,-107.317073170732,4,1,0,40,0,0
88826,-107.448107448107,4,1,0,40,0,0
88905,-107.579462102689,4,1,0,40,0,0
88984,-107.711138310894,4,1,0,40,0,0
89062,-107.843137254902,4,1,0,40,0,0
89141,-107.975460122699,4,1,0,40,0,0
89220,-108.108108108108,4,1,0,40,0,0
89299,-108.241082410824,4,1,0,40,0,0
89378,-108.374384236453,4,1,0,40,0,0
89457,-108.508014796547,4,1,0,40,0,0
89536,-108.641975308642,4,1,0,40,0,0
89615,-108.776266996292,4,1,0,40,0,0
89694,-108.910891089109,4,1,0,40,0,0
89773,-109.0458488228,4,1,0,40,0,0
89852,-109.181141439206,4,1,0,40,0,0
89931,-109.316770186335,4,1,0,40,0,0
90010,-109.452736318408,4,1,0,40,0,0
90089,-109.58904109589,4,1,0,40,0,0
90168,-109.725685785536,4,1,0,40,0,0
90247,-109.862671660424,4,1,0,40,0,0
90326,-110,4,1,0,40,0,0
90405,-110.137672090113,4,1,0,40,0,0
90484,-110.275689223058,4,1,0,40,0,0
90641,-110.414052697616,4,1,0,40,0,0
90820,-110.552763819095,4,1,0,40,0,0
90859,-110.691823899371,4,1,0,40,0,0
90977,-110.831234256927,4,1,0,40,0,0
91017,-110.970996216898,4,1,0,40,0,0
91115,-111.111111111111,4,1,0,40,0,0
91431,-100,4,1,0,90,0,0
91589,-111.111111111111,4,1,0,90,0,0
91747,-110.606060606061,4,1,0,90,0,0
91905,-110.105580693816,4,1,0,90,0,0
92062,-109.60960960961,4,1,0,90,0,0
92220,-109.118086696562,4,1,0,90,0,0
92378,-108.630952380952,4,1,0,90,0,0
92536,-108.148148148148,4,1,0,90,0,0
92694,-107.669616519174,4,1,0,90,0,0
92852,-107.1953010279,4,1,0,90,0,0
93010,-106.72514619883,4,1,0,90,0,0
93168,-106.259097525473,4,1,0,90,0,0
93326,-105.797101449275,4,1,0,90,0,0
93484,-105.339105339105,4,1,0,90,0,0
93641,-104.885057471264,4,1,0,90,0,0
93799,-104.434907010014,4,1,0,90,0,0
93957,-103.988603988604,4,1,0,90,0,0
94115,-103.54609929078,4,1,0,90,0,0
94273,-103.107344632768,4,1,0,90,0,0
94431,-102.67229254571,4,1,0,90,0,0
94589,-102.240896358543,4,1,0,90,0,0
94747,-101.813110181311,4,1,0,90,0,0
94905,-101.388888888889,4,1,0,90,0,0
95062,-100.968188105118,4,1,0,90,0,0
95141,-100.550964187328,4,1,0,90,0,0
95220,-100.137174211248,4,1,0,90,0,0
95378,-99.7267759562841,4,1,0,90,0,0
95536,-99.3197278911565,4,1,0,90,0,0
95694,-98.9159891598916,4,1,0,90,0,0
95852,-98.5155195681511,4,1,0,90,0,0
96010,-98.1182795698925,4,1,0,90,0,0
96089,-97.7242302543507,4,1,0,90,0,0
96168,-97.3333333333333,4,1,0,90,0,0
96247,-96.9455511288181,4,1,0,90,0,0
96326,-96.5608465608466,4,1,0,90,0,0
96405,-96.1791831357049,4,1,0,90,0,0
96484,-95.8005249343832,4,1,0,90,0,0
96641,-95.4248366013072,4,1,0,90,0,0
96721,-95.0520833333333,4,1,0,90,0,0
96799,-94.6822308690013,4,1,0,90,0,0
96957,-94.3152454780362,4,1,0,90,0,0
97115,-93.951093951094,4,1,0,90,0,0
97195,-93.5897435897436,4,1,0,90,0,0
97273,-93.2311621966794,4,1,0,90,0,0
97431,-92.8753180661578,4,1,0,90,0,0
97589,-92.5221799746515,4,1,0,90,0,0
97668,-92.1717171717172,4,1,0,90,0,0
97747,-91.8238993710692,4,1,0,90,0,0
97905,-91.4786967418546,4,1,0,90,0,0
97984,-91.1360799001248,4,1,0,90,0,0
98062,-90.7960199004975,4,1,0,90,0,0
98220,-90.458488228005,4,1,0,90,0,0
98378,-90.1234567901235,4,1,0,90,0,0
98458,-89.7908979089791,4,1,0,90,0,0
98536,-89.4607843137255,4,1,0,90,0,0
98694,-89.1330891330891,4,1,0,90,0,0
98852,-88.8077858880779,4,1,0,90,0,0
98931,-88.4848484848485,4,1,0,90,0,0
99010,-88.1642512077295,4,1,0,90,0,0
99089,-87.8459687123947,4,1,0,90,0,0
99168,-87.5299760191847,4,1,0,90,0,0
99247,-87.2162485065711,4,1,0,90,0,0
99326,-86.9047619047619,4,1,0,90,0,0
99405,-86.5954922894425,4,1,0,90,0,0
99484,-86.2884160756501,4,1,0,90,0,0
99562,-85.9835100117786,4,1,0,90,0,0
99641,-85.6807511737089,4,1,0,90,0,0
99720,-85.3801169590643,4,1,0,90,0,0
99799,-85.0815850815851,4,1,0,90,0,0
99878,-84.7851335656214,4,1,0,90,0,0
99957,-84.4907407407407,4,1,0,90,0,0
100036,-84.1983852364475,4,1,0,90,0,0
100115,-83.9080459770115,4,1,0,90,0,0
100194,-83.6197021764032,4,1,0,90,0,0
100273,-83.3333333333333,4,2,0,80,0,0
100431,-85.3658536585366,4,2,0,80,0,0
100589,-87.5,4,2,0,80,0,0
100747,-89.7435897435897,4,2,0,80,0,0
100826,-92.1052631578947,4,2,0,80,0,0
100905,-94.5945945945946,4,2,0,80,0,0
100984,-97.2222222222222,4,2,0,80,0,0
101062,-100,4,2,0,80,0,0
101220,-94.3396226415094,4,1,0,80,0,0
101299,-93.4579439252336,4,1,0,80,0,0
101378,-92.5925925925926,4,1,0,80,0,0
101457,-91.743119266055,4,1,0,80,0,0
101576,-83.3333333333333,4,1,0,100,0,1
101694,-90.9090909090909,4,1,0,100,0,1
111642,-83.3333333333333,4,1,0,100,0,1
111800,-90.9090909090909,4,1,0,100,0,1
121787,-71.4285714285714,4,1,0,100,0,0
122062,-100,4,1,0,40,0,0

[HitObjects]
256,204,524,5,8,0:0:0:0:
256,204,681,1,8,0:0:0:0:
255,204,997,5,0,0:0:0:0:
255,204,1155,1,0,0:0:0:0:
255,204,1471,5,8,0:0:0:0:
255,204,1629,1,8,0:0:0:0:
255,204,1945,5,0,0:0:0:0:
255,204,2102,1,0,0:0:0:0:
260,202,3050,5,8,0:0:0:0:
260,202,3208,1,8,0:0:0:0:
260,202,3524,5,0,0:0:0:0:
260,202,3681,1,0,0:0:0:0:
260,202,3997,5,8,0:0:0:0:
260,202,4155,1,0,0:0:0:0:
260,202,4471,5,0,0:0:0:0:
260,202,4629,1,0,0:0:0:0:
260,202,4945,5,8,0:0:0:0:
260,202,5102,5,0,0:0:0:0:
260,202,5260,5,0,0:0:0:0:
260,202,5418,5,0,0:0:0:0:
256,204,5576,5,8,0:0:0:0:
256,204,5734,1,8,0:0:0:0:
255,204,6050,5,0,0:0:0:0:
255,204,6208,1,0,0:0:0:0:
255,204,6524,5,8,0:0:0:0:
255,204,6681,1,8,0:0:0:0:
255,204,6997,5,0,0:0:0:0:
255,204,7155,1,0,0:0:0:0:
260,202,8102,5,0,0:0:0:0:
260,202,8260,1,0,0:0:0:0:
260,202,8576,5,0,0:0:0:0:
260,202,8734,1,0,0:0:0:0:
260,202,9050,5,8,0:0:0:0:
260,202,9208,1,0,0:0:0:0:
260,202,9524,5,0,0:0:0:0:
260,202,9681,1,0,0:0:0:0:
260,202,9997,5,8,0:0:0:0:
260,202,10155,5,0,0:0:0:0:
260,202,10313,5,8,0:0:0:0:
260,202,10471,5,0,0:0:0:0:
250,201,10629,5,8,0:0:0:0:
250,201,10787,1,0,0:0:0:0:
250,201,10945,1,8,0:0:0:0:
250,201,11102,1,8,0:0:0:0:
255,204,11418,1,0,0:0:0:0:
255,204,11576,1,8,0:0:0:0:
255,204,11734,1,0,0:0:0:0:
259,205,12050,1,0,0:0:0:0:
259,205,12208,1,0,0:0:0:0:
259,205,12366,1,8,0:0:0:0:
259,205,12524,1,8,0:0:0:0:
259,205,12681,1,0,0:0:0:0:
259,205,12839,1,8,0:0:0:0:
259,205,12997,1,0,0:0:0:0:
246,213,13155,5,8,0:0:0:0:
240,220,13313,1,0,0:0:0:0:
246,213,13471,1,8,0:0:0:0:
246,213,13629,1,8,0:0:0:0:
247,219,13945,1,0,0:0:0:0:
247,219,14102,1,8,0:0:0:0:
247,219,14260,1,0,0:0:0:0:
260,229,14576,1,0,0:0:0:0:
260,229,14734,1,0,0:0:0:0:
260,229,14892,1,8,0:0:0:0:
260,229,15050,1,0,0:0:0:0:
257,222,15208,1,8,0:0:0:0:
257,222,15366,1,8,0:0:0:0:
257,222,15524,1,0,0:0:0:0:
250,201,15681,5,8,0:0:0:0:
250,201,15839,1,0,0:0:0:0:
250,201,15997,1,8,0:0:0:0:
250,201,16155,1,8,0:0:0:0:
255,204,16471,1,0,0:0:0:0:
255,204,16629,1,8,0:0:0:0:
255,204,16787,1,0,0:0:0:0:
259,205,17102,1,0,0:0:0:0:
259,205,17260,1,0,0:0:0:0:
259,205,17418,1,8,0:0:0:0:
259,205,17576,1,8,0:0:0:0:
259,205,17734,1,0,0:0:0:0:
259,205,17892,1,8,0:0:0:0:
259,205,18050,1,0,0:0:0:0:
246,213,18208,5,8,0:0:0:0:
240,220,18366,1,0,0:0:0:0:
246,213,18524,1,8,0:0:0:0:
246,213,18681,1,8,0:0:0:0:
247,219,18997,1,0,0:0:0:0:
247,219,19155,1,8,0:0:0:0:
247,219,19313,1,0,0:0:0:0:
260,229,19629,1,0,0:0:0:0:
260,229,19787,1,0,0:0:0:0:
260,229,19945,1,8,0:0:0:0:
260,229,20102,1,0,0:0:0:0:
257,222,20260,1,8,0:0:0:0:
257,222,20418,1,8,0:0:0:0:
257,222,20576,1,0,0:0:0:0:
261,228,20734,5,4,0:0:0:0:
261,228,20892,1,0,0:0:0:0:
273,245,21050,1,8,0:0:0:0:
262,222,21208,1,0,0:0:0:0:
262,222,21287,1,0,0:0:0:0:
262,222,21445,1,0,0:0:0:0:
282,242,21524,1,0,0:0:0:0:
267,240,21602,1,0,0:0:0:0:
263,230,21681,1,8,0:0:0:0:
255,233,21839,1,0,0:0:0:0:
271,214,21918,1,0,0:0:0:0:
268,215,21997,1,0,0:0:0:0:
246,210,22155,1,0,0:0:0:0:
254,207,22234,1,8,0:0:0:0:
252,211,22313,1,8,0:0:0:0:
235,218,22471,1,0,0:0:0:0:
235,218,22550,1,8,0:0:0:0:
207,258,22629,1,0,0:0:0:0:
235,218,22708,1,8,0:0:0:0:
235,218,22787,1,0,0:0:0:0:
235,218,22945,1,8,0:0:0:0:
235,218,23102,1,0,0:0:0:0:
235,218,23181,1,8,0:0:0:0:
235,218,23260,1,0,0:0:0:0:
261,228,23418,1,0,0:0:0:0:
273,245,23576,1,8,0:0:0:0:
262,222,23734,1,0,0:0:0:0:
254,242,23813,1,0,0:0:0:0:
262,222,23971,1,0,0:0:0:0:
282,242,24050,1,0,0:0:0:0:
267,240,24129,1,0,0:0:0:0:
263,230,24208,1,8,0:0:0:0:
255,233,24366,1,0,0:0:0:0:
271,214,24445,1,0,0:0:0:0:
229,226,24524,1,8,0:0:0:0:
246,210,24681,1,0,0:0:0:0:
254,207,24760,1,0,0:0:0:0:
252,211,24839,1,8,0:0:0:0:
238,235,24997,1,0,0:0:0:0:
235,218,25076,1,8,0:0:0:0:
235,218,25234,1,8,0:0:0:0:
235,218,25313,1,0,0:0:0:0:
235,218,25471,1,8,0:0:0:0:
254,231,25550,1,8,0:0:0:0:
254,233,25629,1,8,0:0:0:0:
235,218,25708,1,8,0:0:0:0:
235,218,25787,5,0,0:0:0:0:
261,228,25945,1,0,0:0:0:0:
273,245,26102,1,8,0:0:0:0:
262,222,26260,1,0,0:0:0:0:
262,222,26339,1,0,0:0:0:0:
262,222,26497,1,0,0:0:0:0:
282,242,26576,1,0,0:0:0:0:
267,240,26655,1,0,0:0:0:0:
263,230,26734,1,8,0:0:0:0:
255,233,26892,1,0,0:0:0:0:
271,214,26971,1,0,0:0:0:0:
268,215,27050,1,0,0:0:0:0:
246,210,27208,1,0,0:0:0:0:
254,207,27287,1,0,0:0:0:0:
252,211,27366,1,8,0:0:0:0:
235,218,27524,1,0,0:0:0:0:
235,218,27602,1,8,0:0:0:0:
216,230,27681,1,0,0:0:0:0:
235,218,27760,1,8,0:0:0:0:
235,218,27839,1,0,0:0:0:0:
235,218,27997,1,8,0:0:0:0:
235,218,28155,1,0,0:0:0:0:
235,218,28234,1,8,0:0:0:0:
235,218,28313,1,0,0:0:0:0:
261,228,28471,1,0,0:0:0:0:
273,245,28629,1,8,0:0:0:0:
262,222,28787,1,0,0:0:0:0:
238,231,28866,1,0,0:0:0:0:
262,222,28945,1,8,0:0:0:0:
282,242,29102,1,0,0:0:0:0:
267,240,29181,1,0,0:0:0:0:
255,233,29339,1,0,0:0:0:0:
258,228,29418,1,0,0:0:0:0:
184,240,29497,1,0,0:0:0:0:
229,226,29576,1,8,0:0:0:0:
246,210,29734,1,0,0:0:0:0:
254,207,29813,1,0,0:0:0:0:
252,211,29892,1,8,0:0:0:0:
235,218,30050,1,0,0:0:0:0:
235,218,30129,1,8,0:0:0:0:
235,218,30287,1,8,0:0:0:0:
235,218,30366,1,0,0:0:0:0:
235,218,30524,1,8,0:0:0:0:
254,231,30602,1,8,0:0:0:0:
254,233,30681,1,8,0:0:0:0:
235,218,30760,1,8,0:0:0:0:
235,218,30839,5,4,0:0:0:0:
261,228,30997,1,0,0:0:0:0:
273,245,31155,1,8,0:0:0:0:
262,222,31313,1,0,0:0:0:0:
262,222,31392,1,0,0:0:0:0:
262,222,31550,1,0,0:0:0:0:
282,242,31629,1,0,0:0:0:0:
267,240,31708,1,0,0:0:0:0:
263,230,31787,1,8,0:0:0:0:
255,233,31945,1,0,0:0:0:0:
271,214,32024,1,0,0:0:0:0:
268,215,32102,1,0,0:0:0:0:
246,210,32260,1,0,0:0:0:0:
254,207,32339,1,8,0:0:0:0:
252,211,32418,1,8,0:0:0:0:
235,218,32576,1,0,0:0:0:0:
235,218,32655,1,8,0:0:0:0:
235,218,32734,1,0,0:0:0:0:
235,218,32813,1,8,0:0:0:0:
235,218,32892,1,0,0:0:0:0:
235,218,33050,1,8,0:0:0:0:
235,218,33208,1,0,0:0:0:0:
235,218,33287,1,8,0:0:0:0:
235,218,33366,1,0,0:0:0:0:
261,228,33524,1,0,0:0:0:0:
273,245,33681,1,8,0:0:0:0:
262,222,33839,1,0,0:0:0:0:
254,242,33918,1,0,0:0:0:0:
262,222,34076,1,0,0:0:0:0:
282,242,34155,1,0,0:0:0:0:
267,240,34234,1,0,0:0:0:0:
263,230,34313,1,8,0:0:0:0:
255,233,34471,1,0,0:0:0:0:
271,214,34550,1,0,0:0:0:0:
229,226,34629,1,8,0:0:0:0:
246,210,34787,1,0,0:0:0:0:
254,207,34866,1,0,0:0:0:0:
252,211,34945,1,8,0:0:0:0:
235,218,35102,1,0,0:0:0:0:
235,218,35181,1,8,0:0:0:0:
204,236,35260,1,0,0:0:0:0:
235,218,35339,1,8,0:0:0:0:
235,218,35418,1,0,0:0:0:0:
212,232,35497,1,0,0:0:0:0:
235,218,35576,1,8,0:0:0:0:
254,231,35655,1,8,0:0:0:0:
254,233,35734,1,8,0:0:0:0:
235,218,35813,1,8,0:0:0:0:
235,218,35892,1,4,0:0:0:0:
248,232,39681,5,0,0:0:0:0:
268,220,39760,1,0,0:0:0:0:
261,211,39839,1,0,0:0:0:0:
261,211,39918,1,0,0:0:0:0:
261,211,39997,1,8,0:0:0:0:
248,229,40076,1,8,0:0:0:0:
220,227,40313,1,0,0:0:0:0:
268,233,40352,1,0,0:0:0:0:
220,227,40471,1,0,0:0:0:0:
268,234,40510,1,0,0:0:0:0:
261,222,40629,1,8,0:0:0:0:
221,225,40708,1,0,0:0:0:0:
243,219,40787,1,8,0:0:0:0:
250,217,40866,1,8,0:0:0:0:
252,229,40945,5,4,0:0:0:0:
242,239,41260,1,8,0:0:0:0:
250,225,41418,1,0,0:0:0:0:
252,226,41734,1,8,0:0:0:0:
256,226,42050,1,0,0:0:0:0:
256,226,42208,1,0,0:0:0:0:
256,226,42445,1,0,0:0:0:0:
256,226,42524,1,8,0:0:0:0:
210,230,42681,1,0,0:0:0:0:
211,224,42839,1,8,0:0:0:0:
259,219,42997,5,0,0:0:0:0:
231,234,43076,1,0,0:0:0:0:
259,219,43155,1,8,0:0:0:0:
259,219,43313,1,0,0:0:0:0:
259,213,43471,1,0,0:0:0:0:
250,209,43787,1,8,0:0:0:0:
250,209,43945,1,0,0:0:0:0:
250,209,44260,1,8,0:0:0:0:
250,209,44576,1,0,0:0:0:0:
250,209,44655,1,0,0:0:0:0:
250,209,44734,1,0,0:0:0:0:
230,228,44892,1,8,0:0:0:0:
250,209,44971,1,0,0:0:0:0:
250,209,45050,1,8,0:0:0:0:
250,209,45208,1,0,0:0:0:0:
250,209,45287,1,0,0:0:0:0:
250,209,45366,1,8,0:0:0:0:
250,209,45524,5,0,0:0:0:0:
250,209,45681,1,8,0:0:0:0:
250,209,45839,1,0,0:0:0:0:
250,209,45918,1,8,0:0:0:0:
250,209,45997,1,0,0:0:0:0:
252,208,46313,1,8,0:0:0:0:
252,208,46471,1,0,0:0:0:0:
252,208,46787,1,8,0:0:0:0:
252,206,47102,1,0,0:0:0:0:
252,206,47260,1,0,0:0:0:0:
252,206,47497,1,0,0:0:0:0:
252,206,47576,1,8,0:0:0:0:
241,218,47734,1,0,0:0:0:0:
182,244,47892,1,8,0:0:0:0:
252,204,48050,5,0,0:0:0:0:
210,229,48129,1,0,0:0:0:0:
252,204,48208,1,8,0:0:0:0:
252,204,48366,1,8,0:0:0:0:
219,214,48445,1,8,0:0:0:0:
252,204,48524,1,0,0:0:0:0:
222,227,48681,1,8,0:0:0:0:
255,204,48839,1,8,0:0:0:0:
255,204,48997,1,0,0:0:0:0:
254,205,49313,1,8,0:0:0:0:
220,224,49471,1,0,0:0:0:0:
254,205,49629,5,0,0:0:0:0:
259,214,49708,1,0,0:0:0:0:
268,216,49787,1,8,0:0:0:0:
259,214,49945,1,0,0:0:0:0:
268,216,50024,1,0,0:0:0:0:
259,214,50102,1,8,0:0:0:0:
268,216,50260,1,0,0:0:0:0:
268,211,50339,1,0,0:0:0:0:
268,216,50418,1,8,0:0:0:0:
265,216,50576,1,0,0:0:0:0:
265,216,50734,1,8,0:0:0:0:
265,216,50813,1,8,0:0:0:0:
265,216,50892,1,0,0:0:0:0:
265,216,50971,1,8,0:0:0:0:
247,235,51050,5,4,0:0:0:0:
243,226,51366,5,8,0:0:0:0:
248,235,51524,1,0,0:0:0:0:
263,235,51602,1,8,0:0:0:0:
263,235,51681,1,0,0:0:0:0:
252,226,51839,5,8,0:0:0:0:
238,248,51997,1,8,0:0:0:0:
236,247,52076,1,8,0:0:0:0:
256,226,52155,1,0,0:0:0:0:
256,226,52313,5,0,0:0:0:0:
239,229,52471,1,8,0:0:0:0:
256,226,52550,1,0,0:0:0:0:
256,226,52629,1,8,0:0:0:0:
256,226,52787,5,0,0:0:0:0:
249,224,52945,1,8,0:0:0:0:
248,222,53024,1,0,0:0:0:0:
259,219,53102,1,0,0:0:0:0:
269,216,53181,1,0,0:0:0:0:
259,219,53260,1,8,0:0:0:0:
258,237,53339,1,0,0:0:0:0:
259,219,53418,1,8,0:0:0:0:
258,237,53497,1,8,0:0:0:0:
259,213,53576,1,0,0:0:0:0:
250,209,53892,5,8,0:0:0:0:
259,215,54050,1,0,0:0:0:0:
231,224,54129,1,8,0:0:0:0:
231,224,54208,1,0,0:0:0:0:
250,209,54366,5,8,0:0:0:0:
229,230,54524,1,8,0:0:0:0:
229,230,54602,1,8,0:0:0:0:
250,209,54681,1,0,0:0:0:0:
250,209,54760,1,0,0:0:0:0:
250,209,54839,1,0,0:0:0:0:
245,220,54997,5,8,0:0:0:0:
250,209,55076,1,0,0:0:0:0:
250,209,55155,1,8,0:0:0:0:
250,209,55313,5,0,0:0:0:0:
250,209,55392,1,0,0:0:0:0:
250,209,55471,1,8,0:0:0:0:
250,209,55550,1,8,0:0:0:0:
250,209,55629,1,0,0:0:0:0:
250,209,55708,1,0,0:0:0:0:
250,209,55787,1,8,0:0:0:0:
250,209,55866,1,8,0:0:0:0:
250,209,55945,1,0,0:0:0:0:
250,209,56024,1,8,0:0:0:0:
250,209,56102,1,0,0:0:0:0:
252,208,56418,5,8,0:0:0:0:
252,208,56576,1,0,0:0:0:0:
241,229,56655,1,8,0:0:0:0:
241,228,56734,1,0,0:0:0:0:
252,208,56892,5,8,0:0:0:0:
239,224,57050,1,8,0:0:0:0:
241,228,57129,1,8,0:0:0:0:
241,229,57208,1,0,0:0:0:0:
252,206,57366,5,0,0:0:0:0:
233,214,57524,1,8,0:0:0:0:
252,206,57602,1,0,0:0:0:0:
252,206,57681,1,8,0:0:0:0:
252,206,57839,5,0,0:0:0:0:
239,209,57997,1,8,0:0:0:0:
239,209,58076,1,0,0:0:0:0:
252,204,58155,1,0,0:0:0:0:
239,209,58234,1,0,0:0:0:0:
252,204,58313,1,8,0:0:0:0:
237,208,58392,1,0,0:0:0:0:
252,204,58471,1,8,0:0:0:0:
237,208,58550,1,8,0:0:0:0:
252,204,58629,1,0,0:0:0:0:
236,223,58787,5,8,0:0:0:0:
253,242,58866,1,0,0:0:0:0:
255,204,58945,1,8,0:0:0:0:
226,216,59024,1,8,0:0:0:0:
255,204,59102,1,0,0:0:0:0:
254,205,59418,1,8,0:0:0:0:
265,252,59576,5,8,0:0:0:0:
272,246,59655,1,8,0:0:0:0:
254,205,59734,1,0,0:0:0:0:
259,214,59813,1,0,0:0:0:0:
268,216,59892,1,8,0:0:0:0:
259,214,60050,1,0,0:0:0:0:
268,216,60129,1,0,0:0:0:0:
259,214,60208,1,8,0:0:0:0:
268,216,60366,1,0,0:0:0:0:
268,211,60445,1,0,0:0:0:0:
268,216,60524,1,8,0:0:0:0:
232,235,60602,1,8,0:0:0:0:
232,235,60681,1,0,0:0:0:0:
219,218,60760,1,0,0:0:0:0:
232,235,60839,1,8,0:0:0:0:
265,216,60918,1,8,0:0:0:0:
265,216,60997,1,0,0:0:0:0:
265,216,61076,1,8,0:0:0:0:
274,209,61155,5,4,0:0:0:0:
261,206,63681,5,0,0:0:0:0:
261,206,63839,1,0,0:0:0:0:
261,206,63997,1,8,0:0:0:0:
261,206,64155,5,8,0:0:0:0:
248,215,64313,1,0,0:0:0:0:
261,206,64471,1,0,0:0:0:0:
261,206,64629,5,8,0:0:0:0:
261,206,64787,1,8,0:0:0:0:
261,206,64945,1,8,0:0:0:0:
261,206,65102,5,8,0:0:0:0:
261,206,65260,1,8,0:0:0:0:
252,217,65576,5,8,0:0:0:0:
252,217,65734,1,8,0:0:0:0:
252,217,65892,1,8,0:0:0:0:
252,217,66050,1,8,0:0:0:0:
252,217,66208,5,0,0:0:0:0:
252,217,66366,1,0,0:0:0:0:
252,217,66524,1,8,0:0:0:0:
252,217,66681,5,8,0:0:0:0:
252,217,66839,1,0,0:0:0:0:
252,217,66997,1,0,0:0:0:0:
252,217,67155,5,8,0:0:0:0:
252,217,67313,1,8,0:0:0:0:
252,217,67471,1,8,0:0:0:0:
252,217,67629,5,8,0:0:0:0:
252,217,67787,1,8,0:0:0:0:
254,217,68734,5,0,0:0:0:0:
254,217,68892,1,0,0:0:0:0:
254,217,69050,1,0,0:0:0:0:
254,217,69208,5,0,0:0:0:0:
254,217,69366,1,8,0:0:0:0:
254,217,69524,1,8,0:0:0:0:
254,217,69681,5,8,0:0:0:0:
254,217,69839,1,8,0:0:0:0:
254,217,69997,1,0,0:0:0:0:
246,218,70155,5,0,0:0:0:0:
259,225,70313,1,0,0:0:0:0:
270,240,70471,5,8,0:0:0:0:
270,240,70629,1,8,0:0:0:0:
270,240,70787,1,0,0:0:0:0:
281,196,70945,1,8,0:0:0:0:
281,196,71102,1,0,0:0:0:0:
266,195,71260,5,12,0:0:0:0:
235,237,71576,5,0,0:0:0:0:
235,237,71892,5,8,0:0:0:0:
261,260,72366,5,8,0:0:0:0:
260,260,72839,5,0,0:0:0:0:
259,259,73155,5,8,0:0:0:0:
237,261,73313,5,0,0:0:0:0:
259,259,73787,5,0,0:0:0:0:
259,259,74102,5,0,0:0:0:0:
259,259,74418,5,8,0:0:0:0:
243,266,74576,5,0,0:0:0:0:
246,260,75050,5,8,0:0:0:0:
246,260,75366,5,0,0:0:0:0:
244,259,75681,5,8,0:0:0:0:
244,259,76313,5,0,0:0:0:0:
244,259,76629,5,0,0:0:0:0:
244,259,76945,5,8,0:0:0:0:
214,252,77418,5,8,0:0:0:0:
214,251,77892,5,0,0:0:0:0:
214,251,78208,5,8,0:0:0:0:
183,222,78366,5,0,0:0:0:0:
221,249,78839,5,0,0:0:0:0:
221,249,79155,5,0,0:0:0:0:
221,249,79471,5,8,0:0:0:0:
202,226,79629,5,0,0:0:0:0:
220,249,80102,5,8,0:0:0:0:
220,249,80418,5,0,0:0:0:0:
220,249,80734,5,8,0:0:0:0:
261,247,81366,5,8,0:0:0:0:
226,213,81524,1,0,0:0:0:0:
226,213,81681,1,8,0:0:0:0:
226,213,81839,1,8,0:0:0:0:
226,213,82155,5,0,0:0:0:0:
226,213,82313,1,8,0:0:0:0:
226,213,82471,1,8,0:0:0:0:
226,213,82629,1,0,0:0:0:0:
225,229,82708,1,8,0:0:0:0:
226,213,82787,1,0,0:0:0:0:
224,229,82866,1,0,0:0:0:0:
225,229,82945,1,8,0:0:0:0:
226,213,83102,1,0,0:0:0:0:
201,222,83418,5,8,0:0:0:0:
201,222,83497,1,0,0:0:0:0:
201,222,83576,1,8,0:0:0:0:
201,222,83655,1,8,0:0:0:0:
226,213,83734,1,0,0:0:0:0:
161,200,83813,1,0,0:0:0:0:
165,204,83892,1,8,0:0:0:0:
188,208,84050,5,8,0:0:0:0:
165,204,84129,1,0,0:0:0:0:
165,206,84208,1,8,0:0:0:0:
188,208,84366,5,8,0:0:0:0:
191,211,84445,1,0,0:0:0:0:
191,211,84524,1,8,0:0:0:0:
205,226,84681,5,8,0:0:0:0:
205,226,84760,1,0,0:0:0:0:
205,226,84839,1,8,0:0:0:0:
205,226,84918,1,0,0:0:0:0:
205,226,84997,1,8,0:0:0:0:
205,226,85076,1,8,0:0:0:0:
205,226,85155,5,0,0:0:0:0:
205,226,85234,1,0,0:0:0:0:
205,236,85313,1,8,0:0:0:0:
203,238,85392,1,0,0:0:0:0:
203,238,85471,1,8,0:0:0:0:
203,238,85629,1,0,0:0:0:0:
203,238,85945,5,8,0:0:0:0:
203,238,86024,1,0,0:0:0:0:
203,238,86102,1,8,0:0:0:0:
203,238,86260,1,0,0:0:0:0:
203,238,86418,5,8,0:0:0:0:
203,238,86576,1,0,0:0:0:0:
203,238,86655,1,0,0:0:0:0:
203,238,86734,1,8,0:0:0:0:
203,238,86892,1,0,0:0:0:0:
200,237,87208,5,0,0:0:0:0:
200,237,87366,1,8,0:0:0:0:
200,237,87524,1,8,0:0:0:0:
200,237,87681,1,0,0:0:0:0:
200,237,87760,1,8,0:0:0:0:
200,237,87839,1,0,0:0:0:0:
200,237,87918,1,0,0:0:0:0:
200,237,87997,1,8,0:0:0:0:
200,237,88155,1,0,0:0:0:0:
199,231,88471,5,8,0:0:0:0:
199,231,88550,1,0,0:0:0:0:
199,231,88629,1,8,0:0:0:0:
203,238,88708,1,8,0:0:0:0:
203,238,88787,1,0,0:0:0:0:
194,255,88866,1,0,0:0:0:0:
194,255,88945,1,8,0:0:0:0:
194,255,89024,1,0,0:0:0:0:
194,255,89102,1,0,0:0:0:0:
194,255,89181,1,0,0:0:0:0:
194,255,89260,1,8,0:0:0:0:
255,255,89339,1,0,0:0:0:0:
255,255,89418,1,0,0:0:0:0:
255,255,89497,5,8,0:0:0:0:
206,248,89576,1,8,0:0:0:0:
206,248,89655,1,0,0:0:0:0:
272,258,89734,1,0,0:0:0:0:
219,235,89813,1,0,0:0:0:0:
217,238,89892,1,8,0:0:0:0:
219,235,89971,1,0,0:0:0:0:
219,235,90050,5,8,0:0:0:0:
217,238,90129,1,8,0:0:0:0:
219,235,90208,1,8,0:0:0:0:
215,239,90287,1,0,0:0:0:0:
217,238,90366,1,8,0:0:0:0:
215,239,90445,1,0,0:0:0:0:
215,239,90524,1,8,0:0:0:0:
215,239,90681,1,0,0:0:0:0:
235,221,90839,5,8,0:0:0:0:
235,214,90879,1,8,0:0:0:0:
235,221,90997,1,8,0:0:0:0:
239,231,91037,1,8,0:0:0:0:
152,168,91155,1,0,0:0:0:0:
243,204,91471,5,12,0:0:0:0:
243,204,91629,1,0,0:0:0:0:
243,204,91787,1,0,0:0:0:0:
243,204,91945,5,8,0:0:0:0:
243,204,92102,1,0,0:0:0:0:
243,204,92260,1,0,0:0:0:0:
235,202,92418,5,8,0:0:0:0:
235,202,92576,1,0,0:0:0:0:
235,202,92734,1,0,0:0:0:0:
235,202,92892,5,8,0:0:0:0:
235,202,93050,1,0,0:0:0:0:
235,202,93208,1,0,0:0:0:0:
235,202,93366,5,8,0:0:0:0:
235,202,93524,1,0,0:0:0:0:
235,202,93681,1,0,0:0:0:0:
230,197,93839,5,8,0:0:0:0:
230,197,93997,5,8,0:0:0:0:
230,197,94155,1,0,0:0:0:0:
230,197,94313,1,0,0:0:0:0:
224,195,94471,5,8,0:0:0:0:
224,195,94629,1,0,0:0:0:0:
224,195,94787,1,0,0:0:0:0:
224,195,94945,5,8,0:0:0:0:
224,195,95102,1,0,0:0:0:0:
224,195,95181,1,0,0:0:0:0:
224,195,95260,1,0,0:0:0:0:
224,195,95418,5,8,0:0:0:0:
224,195,95576,1,0,0:0:0:0:
224,195,95734,1,0,0:0:0:0:
224,195,95892,5,8,0:0:0:0:
221,189,96050,1,0,0:0:0:0:
224,195,96129,1,0,0:0:0:0:
223,195,96208,5,8,0:0:0:0:
223,195,96287,1,8,0:0:0:0:
224,195,96366,1,0,0:0:0:0:
223,195,96445,1,0,0:0:0:0:
224,195,96524,5,8,0:0:0:0:
223,195,96681,1,0,0:0:0:0:
178,228,96760,1,8,0:0:0:0:
156,208,96839,1,0,0:0:0:0:
211,193,96997,5,8,0:0:0:0:
211,193,97155,1,0,0:0:0:0:
179,228,97234,1,8,0:0:0:0:
211,193,97313,1,0,0:0:0:0:
219,212,97471,5,8,0:0:0:0:
182,220,97629,1,0,0:0:0:0:
182,220,97708,1,0,0:0:0:0:
212,187,97787,5,8,0:0:0:0:
212,187,97945,1,0,0:0:0:0:
171,225,98024,1,8,0:0:0:0:
227,243,98102,1,0,0:0:0:0:
227,243,98260,5,8,0:0:0:0:
223,238,98418,1,0,0:0:0:0:
171,225,98497,1,8,0:0:0:0:
227,243,98576,1,0,0:0:0:0:
227,243,98734,5,8,0:0:0:0:
223,238,98892,1,0,0:0:0:0:
172,225,98971,1,0,0:0:0:0:
219,212,99050,5,8,0:0:0:0:
212,187,99129,1,8,0:0:0:0:
212,187,99208,1,8,0:0:0:0:
212,187,99287,1,8,0:0:0:0:
212,187,99366,5,8,0:0:0:0:
212,187,99445,1,8,0:0:0:0:
212,187,99524,1,8,0:0:0:0:
212,187,99602,1,8,0:0:0:0:
212,187,99681,5,0,0:0:0:0:
212,187,99760,1,0,0:0:0:0:
212,187,99839,1,0,0:0:0:0:
212,187,99918,1,0,0:0:0:0:
212,187,99997,5,8,0:0:0:0:
212,187,100076,1,8,0:0:0:0:
212,187,100155,1,8,0:0:0:0:
208,182,100234,1,8,0:0:0:0:
208,182,100313,5,0,0:0:0:0:
216,190,100471,1,0,0:0:0:0:
216,190,100629,1,8,0:0:0:0:
216,190,100787,1,0,0:0:0:0:
232,208,100866,1,8,0:0:0:0:
218,234,100945,1,0,0:0:0:0:
216,190,101024,1,0,0:0:0:0:
232,208,101102,1,8,0:0:0:0:
216,190,101260,1,8,0:0:0:0:
216,190,101339,1,8,0:0:0:0:
216,190,101418,1,8,0:0:0:0:
216,190,101497,1,8,0:0:0:0:
216,190,101576,5,4,0:0:0:0:
235,249,101734,1,8,0:0:0:0:
235,249,101813,1,0,0:0:0:0:
233,220,101892,1,8,0:0:0:0:
252,252,101971,1,8,0:0:0:0:
234,226,102050,1,0,0:0:0:0:
235,249,102208,1,8,0:0:0:0:
235,249,102287,1,8,0:0:0:0:
234,226,102366,1,0,0:0:0:0:
235,249,102445,1,0,0:0:0:0:
234,226,102524,1,8,0:0:0:0:
229,239,102602,1,8,0:0:0:0:
234,226,102681,1,0,0:0:0:0:
251,249,102760,1,8,0:0:0:0:
251,249,102839,1,0,0:0:0:0:
232,226,102997,1,8,0:0:0:0:
251,249,103076,1,8,0:0:0:0:
232,226,103155,1,0,0:0:0:0:
251,249,103234,1,0,0:0:0:0:
251,249,103313,1,8,0:0:0:0:
229,226,103471,1,8,0:0:0:0:
251,242,103550,1,8,0:0:0:0:
251,242,103629,1,0,0:0:0:0:
195,229,103708,1,8,0:0:0:0:
229,226,103787,1,0,0:0:0:0:
228,231,103866,1,0,0:0:0:0:
229,226,103945,1,8,0:0:0:0:
231,238,104024,1,8,0:0:0:0:
229,226,104102,1,0,0:0:0:0:
221,246,104181,1,8,0:0:0:0:
221,246,104260,1,0,0:0:0:0:
221,246,104339,1,0,0:0:0:0:
229,226,104418,1,8,0:0:0:0:
228,244,104497,1,0,0:0:0:0:
229,226,104576,1,0,0:0:0:0:
228,244,104655,1,0,0:0:0:0:
228,244,104734,1,8,0:0:0:0:
228,244,104813,1,8,0:0:0:0:
228,244,104892,1,8,0:0:0:0:
229,226,104971,1,0,0:0:0:0:
229,226,105050,1,8,0:0:0:0:
228,244,105129,1,8,0:0:0:0:
229,226,105208,1,0,0:0:0:0:
228,242,105287,1,8,0:0:0:0:
228,244,105366,1,8,0:0:0:0:
229,226,105445,1,0,0:0:0:0:
229,226,105524,1,8,0:0:0:0:
245,238,105602,1,0,0:0:0:0:
229,226,105681,1,8,0:0:0:0:
245,238,105760,1,0,0:0:0:0:
229,226,105839,1,8,0:0:0:0:
245,238,105918,1,8,0:0:0:0:
229,226,105997,1,8,0:0:0:0:
209,230,106076,1,0,0:0:0:0:
213,235,106155,1,8,0:0:0:0:
225,224,106234,1,0,0:0:0:0:
225,224,106313,1,0,0:0:0:0:
213,235,106392,1,8,0:0:0:0:
225,224,106471,1,8,0:0:0:0:
215,234,106550,1,8,0:0:0:0:
225,224,106629,5,0,0:0:0:0:
233,243,106787,1,8,0:0:0:0:
233,243,106866,1,0,0:0:0:0:
224,224,106945,1,8,0:0:0:0:
233,243,107024,1,8,0:0:0:0:
224,224,107102,1,0,0:0:0:0:
225,242,107260,1,8,0:0:0:0:
225,242,107339,1,8,0:0:0:0:
224,224,107418,1,0,0:0:0:0:
225,242,107497,1,0,0:0:0:0:
224,224,107576,1,8,0:0:0:0:
225,242,107655,1,8,0:0:0:0:
224,224,107734,1,0,0:0:0:0:
225,242,107813,1,8,0:0:0:0:
225,242,107892,1,0,0:0:0:0:
223,224,108050,1,8,0:0:0:0:
225,242,108129,1,8,0:0:0:0:
223,224,108208,1,0,0:0:0:0:
226,242,108287,1,0,0:0:0:0:
225,242,108366,1,8,0:0:0:0:
221,224,108524,1,8,0:0:0:0:
225,242,108602,1,8,0:0:0:0:
221,224,108681,1,0,0:0:0:0:
226,242,108760,1,8,0:0:0:0:
221,224,108839,1,0,0:0:0:0:
226,242,108918,1,0,0:0:0:0:
221,224,108997,1,8,0:0:0:0:
226,242,109076,1,0,0:0:0:0:
221,224,109155,1,8,0:0:0:0:
205,236,109234,1,8,0:0:0:0:
221,224,109313,1,0,0:0:0:0:
219,246,109392,1,8,0:0:0:0:
221,224,109471,1,0,0:0:0:0:
230,240,109550,1,0,0:0:0:0:
221,224,109629,1,8,0:0:0:0:
212,238,109708,1,8,0:0:0:0:
221,224,109787,1,0,0:0:0:0:
221,224,109866,1,0,0:0:0:0:
221,224,109945,1,0,0:0:0:0:
234,249,110024,1,0,0:0:0:0:
221,224,110102,1,8,0:0:0:0:
229,231,110181,1,8,0:0:0:0:
221,224,110260,1,0,0:0:0:0:
229,231,110339,1,8,0:0:0:0:
221,224,110418,1,0,0:0:0:0:
228,231,110497,1,0,0:0:0:0:
221,224,110576,1,8,0:0:0:0:
265,251,110655,1,8,0:0:0:0:
221,224,110734,1,0,0:0:0:0:
265,251,110813,1,8,0:0:0:0:
229,219,110892,1,0,0:0:0:0:
228,219,110945,1,0,0:0:0:0:
229,219,110997,1,0,0:0:0:0:
229,219,111050,1,8,0:0:0:0:
263,249,111129,1,8,0:0:0:0:
295,219,111208,1,0,0:0:0:0:
262,215,111287,1,0,0:0:0:0:
262,215,111366,1,8,0:0:0:0:
262,215,111445,1,8,0:0:0:0:
254,216,111524,1,8,0:0:0:0:
254,216,111602,1,8,0:0:0:0:
254,216,111681,5,4,0:0:0:0:
257,238,111839,1,8,0:0:0:0:
257,238,111918,1,0,0:0:0:0:
253,216,111997,1,8,0:0:0:0:
257,238,112076,1,8,0:0:0:0:
253,216,112155,1,0,0:0:0:0:
257,238,112313,1,8,0:0:0:0:
256,238,112392,1,8,0:0:0:0:
253,216,112471,1,0,0:0:0:0:
257,238,112550,1,0,0:0:0:0:
253,216,112629,1,8,0:0:0:0:
255,238,112708,1,8,0:0:0:0:
257,220,112787,1,0,0:0:0:0:
255,238,112866,1,8,0:0:0:0:
255,238,112945,1,0,0:0:0:0:
257,220,113102,1,8,0:0:0:0:
255,238,113181,1,8,0:0:0:0:
257,220,113260,1,0,0:0:0:0:
255,238,113339,1,0,0:0:0:0:
255,238,113418,1,8,0:0:0:0:
257,220,113576,1,8,0:0:0:0:
255,238,113655,1,8,0:0:0:0:
255,238,113734,1,0,0:0:0:0:
255,238,113813,1,8,0:0:0:0:
258,220,113892,1,0,0:0:0:0:
255,238,113971,1,0,0:0:0:0:
258,220,114050,1,8,0:0:0:0:
255,238,114129,1,8,0:0:0:0:
258,220,114208,1,0,0:0:0:0:
255,238,114287,1,8,0:0:0:0:
255,238,114366,1,0,0:0:0:0:
255,238,114445,1,0,0:0:0:0:
255,217,114524,1,8,0:0:0:0:
255,238,114602,1,0,0:0:0:0:
255,217,114681,1,0,0:0:0:0:
255,238,114760,1,0,0:0:0:0:
255,238,114839,1,8,0:0:0:0:
255,238,114918,1,8,0:0:0:0:
255,238,114997,1,8,0:0:0:0:
254,215,115076,1,0,0:0:0:0:
254,215,115155,1,8,0:0:0:0:
239,246,115234,1,8,0:0:0:0:
254,215,115313,1,0,0:0:0:0:
232,242,115392,1,8,0:0:0:0:
230,242,115471,1,8,0:0:0:0:
254,215,115550,1,0,0:0:0:0:
254,215,115629,1,8,0:0:0:0:
230,242,115708,1,0,0:0:0:0:
254,215,115787,1,8,0:0:0:0:
230,242,115866,1,0,0:0:0:0:
254,215,115945,1,8,0:0:0:0:
230,242,116024,1,8,0:0:0:0:
254,215,116102,1,8,0:0:0:0:
228,222,116181,1,0,0:0:0:0:
228,222,116260,1,8,0:0:0:0:
254,215,116339,1,0,0:0:0:0:
254,215,116418,1,0,0:0:0:0:
254,215,116497,1,0,0:0:0:0:
254,215,116576,1,8,0:0:0:0:
254,215,116655,1,0,0:0:0:0:
254,215,116734,5,8,0:0:0:0:
235,224,116892,1,0,0:0:0:0:
254,215,116971,1,0,0:0:0:0:
254,215,117050,1,8,0:0:0:0:
235,224,117129,1,0,0:0:0:0:
247,209,117208,1,8,0:0:0:0:
232,243,117366,1,8,0:0:0:0:
244,242,117445,1,8,0:0:0:0:
247,209,117524,1,0,0:0:0:0:
244,242,117602,1,0,0:0:0:0:
247,209,117681,1,8,0:0:0:0:
244,242,117760,1,0,0:0:0:0:
247,209,117839,1,0,0:0:0:0:
244,242,117918,1,8,0:0:0:0:
244,242,117997,1,8,0:0:0:0:
247,209,118076,1,0,0:0:0:0:
247,209,118155,1,8,0:0:0:0:
245,249,118234,1,0,0:0:0:0:
247,209,118313,1,0,0:0:0:0:
245,249,118392,1,0,0:0:0:0:
247,209,118471,1,8,0:0:0:0:
247,209,118629,1,8,0:0:0:0:
244,249,118708,1,8,0:0:0:0:
247,209,118787,1,0,0:0:0:0:
244,249,118866,1,8,0:0:0:0:
247,209,118945,1,0,0:0:0:0:
244,249,119024,1,0,0:0:0:0:
247,209,119102,1,8,0:0:0:0:
244,249,119181,1,0,0:0:0:0:
247,209,119260,1,8,0:0:0:0:
229,221,119339,1,8,0:0:0:0:
247,209,119418,1,0,0:0:0:0:
247,209,119497,1,0,0:0:0:0:
247,209,119576,1,0,0:0:0:0:
228,221,119655,1,0,0:0:0:0:
247,209,119734,1,8,0:0:0:0:
228,221,119813,1,8,0:0:0:0:
247,209,119892,1,0,0:0:0:0:
247,209,119971,1,0,0:0:0:0:
247,209,120050,1,8,0:0:0:0:
228,221,120129,1,0,0:0:0:0:
247,209,120208,1,8,0:0:0:0:
228,221,120287,1,0,0:0:0:0:
247,209,120366,1,0,0:0:0:0:
247,209,120445,1,0,0:0:0:0:
247,209,120524,1,8,0:0:0:0:
210,217,120602,1,8,0:0:0:0:
210,217,120681,1,0,0:0:0:0:
210,217,120760,1,0,0:0:0:0:
210,217,120839,1,8,0:0:0:0:
210,217,120918,1,8,0:0:0:0:
210,217,120997,1,0,0:0:0:0:
210,217,121076,1,0,0:0:0:0:
210,217,121155,1,8,0:0:0:0:
210,217,121234,1,0,0:0:0:0:
210,217,121313,1,8,0:0:0:0:
248,267,121366,1,8,0:0:0:0:
225,230,121418,1,8,0:0:0:0:
194,247,121471,1,0,0:0:0:0:
219,252,121550,1,0,0:0:0:0:
219,252,121629,1,8,0:0:0:0:
219,252,121708,1,8,0:0:0:0:
219,252,121787,1,4,0:0:0:0:
