osu file format v14

[General]
AudioFilename: audio.mp3
AudioLeadIn: 0
PreviewTime: 40945
Countdown: 0
SampleSet: Normal
StackLeniency: 0.7
Mode: 1
LetterboxInBreaks: 0
WidescreenStoryboard: 1

[Editor]
Bookmarks: 524,10629,20734,35892,40945,61155,71260,81366,91471,101576,121787,131892
DistanceSpacing: 0.5
BeatDivisor: 4
GridSize: 4
TimelineZoom: 0.5999999

[Metadata]
Title:Hidden Ending
TitleUnicode:Hidden Ending
Artist:ARForest
ArtistUnicode:ARForest
Creator:Fynbi
Version:Futsuu
Source:MUSYNX
Tags:fa featured artist art for rest frost era instrumental electronic artcore musync Eyenine CoEqual
BeatmapID:2779843
BeatmapSetID:1341980

[Difficulty]
HPDrainRate:7.5
CircleSize:4
OverallDifficulty:4
ApproachRate:4
SliderMultiplier:1.4
SliderTickRate:1

[Events]
//Background and Video events
0,0,"florent-boston-starbay.jpg",0,-30
//Break Periods
2,61471,68734
//Storyboard Layer 0 (Background)
//Storyboard Layer 1 (Fail)
//Storyboard Layer 2 (Pass)
//Storyboard Layer 3 (Foreground)
//Storyboard Layer 4 (Overlay)
//Storyboard Sound Samples

[TimingPoints]
524,315.789473684211,4,1,0,30,1,0
524,-100,4,1,0,30,0,0
10589,-100,4,1,0,40,0,0
20694,-100,4,1,0,60,0,0
36010,-100,4,1,0,20,0,0
39641,-100,4,1,0,50,0,0
40905,-100,4,1,0,80,0,0
61431,-100,4,1,0,40,0,0
70431,-100,4,1,0,70,0,0
81326,-100,4,1,0,40,0,0
91431,-100,4,1,0,90,0,0
100273,-100,4,2,0,80,0,0
101220,-100,4,1,0,80,0,0
101576,-100,4,1,0,100,0,1
121787,-100,4,1,0,100,0,0
122062,-100,4,1,0,40,0,0

[HitObjects]
255,204,524,5,8,0:0:0:0:
255,204,997,5,0,0:0:0:0:
255,204,1471,5,8,0:0:0:0:
255,204,1945,5,8,0:0:0:0:
260,202,3050,5,8,0:0:0:0:
260,202,3524,5,0,0:0:0:0:
260,202,3997,5,8,0:0:0:0:
260,202,4471,5,0,0:0:0:0:
260,202,4945,5,8,0:0:0:0:
256,204,5576,5,8,0:0:0:0:
255,204,6050,5,0,0:0:0:0:
255,204,6524,5,8,0:0:0:0:
255,204,6997,5,8,0:0:0:0:
260,202,8102,5,0,0:0:0:0:
260,202,8576,5,0,0:0:0:0:
260,202,9050,5,8,0:0:0:0:
260,202,9524,5,0,0:0:0:0:
260,202,9997,5,8,0:0:0:0:
255,204,10629,5,8,0:0:0:0:
255,204,11102,5,0,0:0:0:0:
255,204,11576,5,8,0:0:0:0:
255,204,12050,5,8,0:0:0:0:
260,202,13155,5,8,0:0:0:0:
260,202,13629,5,0,0:0:0:0:
260,202,14102,5,8,0:0:0:0:
260,202,14576,5,0,0:0:0:0:
260,202,15050,5,8,0:0:0:0:
153,218,15366,5,0,0:0:0:0:
256,204,15681,5,8,0:0:0:0:
255,204,16155,5,0,0:0:0:0:
255,204,16629,5,8,0:0:0:0:
255,204,17102,5,8,0:0:0:0:
260,202,18208,5,0,0:0:0:0:
260,202,18681,5,0,0:0:0:0:
260,202,19155,5,8,0:0:0:0:
260,202,19629,5,0,0:0:0:0:
260,202,20102,5,8,0:0:0:0:
163,240,20418,5,8,0:0:0:0:
261,228,20734,5,4,0:0:0:0:
253,242,21050,5,8,0:0:0:0:
263,230,21681,5,8,0:0:0:0:
268,215,21997,5,0,0:0:0:0:
252,211,22313,5,8,0:0:0:0:
168,236,22629,5,0,0:0:0:0:
235,218,22787,5,0,0:0:0:0:
235,218,22945,5,8,0:0:0:0:
235,218,23260,5,0,0:0:0:0:
273,245,23576,5,8,0:0:0:0:
263,230,24208,5,8,0:0:0:0:
229,226,24524,5,8,0:0:0:0:
246,210,24681,5,0,0:0:0:0:
252,211,24839,5,8,0:0:0:0:
248,237,25155,5,8,0:0:0:0:
235,218,25471,5,8,0:0:0:0:
254,233,25629,5,8,0:0:0:0:
235,218,25787,5,0,0:0:0:0:
282,242,26102,5,8,0:0:0:0:
263,230,26734,5,8,0:0:0:0:
268,215,27050,5,0,0:0:0:0:
252,211,27366,5,8,0:0:0:0:
192,236,27681,5,0,0:0:0:0:
235,218,27839,5,0,0:0:0:0:
235,218,27997,5,8,0:0:0:0:
235,218,28313,5,0,0:0:0:0:
273,245,28629,5,8,0:0:0:0:
262,222,28945,5,8,0:0:0:0:
229,226,29576,5,8,0:0:0:0:
252,211,29892,5,0,0:0:0:0:
246,210,30208,5,8,0:0:0:0:
235,218,30524,5,8,0:0:0:0:
254,233,30681,5,8,0:0:0:0:
261,228,30839,5,4,0:0:0:0:
273,245,31155,5,8,0:0:0:0:
263,230,31787,5,8,0:0:0:0:
268,215,32102,5,0,0:0:0:0:
252,211,32418,5,8,0:0:0:0:
180,232,32734,5,0,0:0:0:0:
235,218,32892,5,0,0:0:0:0:
235,218,33050,5,8,0:0:0:0:
235,218,33366,5,0,0:0:0:0:
273,245,33681,5,8,0:0:0:0:
263,230,34313,5,8,0:0:0:0:
229,226,34629,5,8,0:0:0:0:
246,210,34787,5,0,0:0:0:0:
252,211,34945,5,8,0:0:0:0:
200,230,35260,5,8,0:0:0:0:
235,218,35576,5,8,0:0:0:0:
254,233,35734,5,8,0:0:0:0:
235,218,35892,5,4,0:0:0:0:
248,232,39681,5,0,0:0:0:0:
261,211,39839,5,0,0:0:0:0:
261,211,39997,5,8,0:0:0:0:
261,222,40629,5,8,0:0:0:0:
252,229,40945,5,4,0:0:0:0:
243,226,41260,5,8,0:0:0:0:
250,225,41418,5,0,0:0:0:0:
252,226,41734,5,8,0:0:0:0:
256,226,42050,5,0,0:0:0:0:
168,260,42997,5,0,0:0:0:0:
259,219,43155,5,8,0:0:0:0:
259,213,43471,5,0,0:0:0:0:
250,209,43787,5,8,0:0:0:0:
250,209,43945,5,0,0:0:0:0:
250,209,44260,5,8,0:0:0:0:
250,209,44576,5,0,0:0:0:0:
215,211,45524,5,8,0:0:0:0:
215,211,45681,5,8,0:0:0:0:
250,209,45997,5,0,0:0:0:0:
252,208,46313,5,8,0:0:0:0:
252,208,46471,5,0,0:0:0:0:
252,208,46787,5,8,0:0:0:0:
252,206,47102,5,0,0:0:0:0:
183,237,48050,5,0,0:0:0:0:
252,204,48208,5,8,0:0:0:0:
252,204,48524,5,0,0:0:0:0:
255,204,48839,5,8,0:0:0:0:
255,204,48997,5,0,0:0:0:0:
254,205,49313,5,8,0:0:0:0:
230,230,49471,5,0,0:0:0:0:
268,216,49787,5,8,0:0:0:0:
259,214,50102,5,8,0:0:0:0:
268,216,50260,5,0,0:0:0:0:
265,216,50576,5,0,0:0:0:0:
265,216,50734,5,8,0:0:0:0:
243,228,50892,5,8,0:0:0:0:
247,235,51050,5,4,0:0:0:0:
243,226,51366,5,8,0:0:0:0:
248,235,51524,5,0,0:0:0:0:
252,226,51839,5,8,0:0:0:0:
256,226,52155,5,0,0:0:0:0:
211,252,53102,5,0,0:0:0:0:
259,219,53260,5,8,0:0:0:0:
259,213,53576,5,0,0:0:0:0:
250,209,53892,5,8,0:0:0:0:
259,215,54050,5,0,0:0:0:0:
250,209,54366,5,8,0:0:0:0:
250,209,54681,5,0,0:0:0:0:
250,209,55629,5,8,0:0:0:0:
250,209,55787,5,8,0:0:0:0:
250,209,56102,5,0,0:0:0:0:
252,208,56418,5,8,0:0:0:0:
252,208,56576,5,0,0:0:0:0:
252,208,56892,5,8,0:0:0:0:
252,206,57208,5,0,0:0:0:0:
151,266,58155,5,0,0:0:0:0:
252,204,58313,5,8,0:0:0:0:
252,204,58629,5,0,0:0:0:0:
255,204,58945,5,8,0:0:0:0:
255,204,59102,5,0,0:0:0:0:
254,205,59418,5,8,0:0:0:0:
162,226,59734,5,0,0:0:0:0:
268,216,59892,5,8,0:0:0:0:
259,214,60208,5,0,0:0:0:0:
178,244,60366,5,8,0:0:0:0:
265,216,60681,5,0,0:0:0:0:
265,216,60839,5,8,0:0:0:0:
265,216,60997,5,8,0:0:0:0:
274,209,61155,5,4,0:0:0:0:
266,195,71260,5,12,0:0:0:0:
235,237,71892,5,8,0:0:0:0:
260,260,72839,5,0,0:0:0:0:
259,259,73155,5,8,0:0:0:0:
259,259,73787,5,0,0:0:0:0:
259,259,74418,5,8,0:0:0:0:
246,260,75050,5,8,0:0:0:0:
246,260,75366,5,0,0:0:0:0:
244,259,75681,5,8,0:0:0:0:
244,259,76313,5,0,0:0:0:0:
244,259,76945,5,8,0:0:0:0:
214,251,77892,5,0,0:0:0:0:
214,251,78208,5,8,0:0:0:0:
221,249,78839,5,0,0:0:0:0:
221,249,79471,5,8,0:0:0:0:
220,249,80102,5,8,0:0:0:0:
220,249,80418,5,0,0:0:0:0:
220,249,80734,5,8,0:0:0:0:
261,247,81366,5,8,0:0:0:0:
226,213,81681,5,0,0:0:0:0:
226,213,81839,5,0,0:0:0:0:
226,213,82313,5,8,0:0:0:0:
226,213,82629,5,0,0:0:0:0:
225,229,82945,5,8,0:0:0:0:
226,213,83102,5,0,0:0:0:0:
165,204,83892,5,8,0:0:0:0:
165,206,84208,5,0,0:0:0:0:
191,211,84524,5,8,0:0:0:0:
205,226,84839,5,8,0:0:0:0:
205,226,85155,5,0,0:0:0:0:
203,238,85471,5,8,0:0:0:0:
203,238,85629,5,0,0:0:0:0:
203,238,86418,5,8,0:0:0:0:
203,238,86734,5,0,0:0:0:0:
203,238,86892,5,0,0:0:0:0:
200,237,87366,5,8,0:0:0:0:
200,237,87681,5,0,0:0:0:0:
200,237,87997,5,8,0:0:0:0:
200,237,88155,5,0,0:0:0:0:
194,255,88945,5,0,0:0:0:0:
194,255,89260,5,8,0:0:0:0:
206,248,89576,5,0,0:0:0:0:
217,238,89892,5,8,0:0:0:0:
219,235,90208,5,0,0:0:0:0:
215,239,90524,5,8,0:0:0:0:
235,221,90839,5,8,0:0:0:0:
235,221,90997,5,8,0:0:0:0:
236,193,91155,5,0,0:0:0:0:
243,204,91471,5,12,0:0:0:0:
243,204,91945,5,8,0:0:0:0:
235,202,92418,5,8,0:0:0:0:
235,202,92892,5,8,0:0:0:0:
235,202,93366,5,8,0:0:0:0:
230,197,93997,5,8,0:0:0:0:
224,195,94471,5,8,0:0:0:0:
224,195,94945,5,8,0:0:0:0:
170,199,95102,5,0,0:0:0:0:
232,219,95260,5,0,0:0:0:0:
224,195,95418,5,8,0:0:0:0:
224,195,95892,5,8,0:0:0:0:
223,195,96208,5,8,0:0:0:0:
167,234,96366,5,8,0:0:0:0:
224,195,96524,5,0,0:0:0:0:
96,193,96839,5,0,0:0:0:0:
211,193,96997,5,0,0:0:0:0:
229,196,97313,5,0,0:0:0:0:
211,193,97471,5,8,0:0:0:0:
212,187,97787,5,8,0:0:0:0:
212,187,98102,5,0,0:0:0:0:
215,199,98260,5,0,0:0:0:0:
203,204,98576,5,0,0:0:0:0:
212,187,98734,5,8,0:0:0:0:
173,173,99050,6,0,L|214:165,12,35
202,217,100313,5,0,0:0:0:0:
202,217,100471,5,0,0:0:0:0:
196,186,100629,5,8,0:0:0:0:
216,190,101260,5,8,0:0:0:0:
216,190,101418,5,8,0:0:0:0:
216,190,101576,5,4,0:0:0:0:
227,214,102050,5,0,0:0:0:0:
227,214,102366,5,0,0:0:0:0:
227,214,102524,5,8,0:0:0:0:
227,214,102839,5,0,0:0:0:0:
152,226,102997,5,8,0:0:0:0:
106,211,103155,5,0,0:0:0:0:
158,232,103313,5,8,0:0:0:0:
208,235,103787,5,8,0:0:0:0:
227,214,104102,5,0,0:0:0:0:
186,221,104418,5,0,0:0:0:0:
197,222,104576,5,0,0:0:0:0:
227,222,104734,5,8,0:0:0:0:
227,222,105366,5,8,0:0:0:0:
143,230,105524,5,0,0:0:0:0:
227,222,105681,5,8,0:0:0:0:
152,251,105839,5,8,0:0:0:0:
227,222,105997,5,0,0:0:0:0:
227,222,106313,5,0,0:0:0:0:
227,222,106471,5,8,0:0:0:0:
227,222,106629,5,0,0:0:0:0:
227,222,107102,5,0,0:0:0:0:
227,222,107418,5,0,0:0:0:0:
227,222,107576,5,8,0:0:0:0:
227,222,107892,5,0,0:0:0:0:
111,228,108050,5,8,0:0:0:0:
149,226,108208,5,0,0:0:0:0:
149,226,108366,5,8,0:0:0:0:
227,222,109155,5,12,0:0:0:0:
229,227,109629,5,12,0:0:0:0:
203,237,109945,5,0,0:0:0:0:
202,236,110102,5,12,0:0:0:0:
245,251,110576,5,12,0:0:0:0:
245,258,110892,5,8,0:0:0:0:
245,258,111050,5,12,0:0:0:0:
245,258,111366,5,12,0:0:0:0:
245,258,111681,5,4,0:0:0:0:
227,214,112155,5,0,0:0:0:0:
227,214,112471,5,0,0:0:0:0:
227,214,112629,5,8,0:0:0:0:
227,214,112945,5,0,0:0:0:0:
145,250,113102,5,8,0:0:0:0:
145,250,113260,5,0,0:0:0:0:
227,214,113418,5,8,0:0:0:0:
204,227,113892,5,8,0:0:0:0:
227,214,114208,5,0,0:0:0:0:
204,215,114524,5,0,0:0:0:0:
191,200,114681,5,0,0:0:0:0:
227,222,114839,5,8,0:0:0:0:
215,244,115471,5,8,0:0:0:0:
128,252,115629,5,0,0:0:0:0:
227,222,115787,5,8,0:0:0:0:
215,244,115945,5,8,0:0:0:0:
227,222,116102,5,0,0:0:0:0:
227,222,116418,5,0,0:0:0:0:
227,222,116576,5,0,0:0:0:0:
227,222,116734,5,12,0:0:0:0:
234,256,117208,5,8,0:0:0:0:
234,256,117524,5,0,0:0:0:0:
214,256,117681,5,0,0:0:0:0:
231,254,117997,5,8,0:0:0:0:
231,254,118471,5,8,0:0:0:0:
231,254,118787,5,0,0:0:0:0:
214,256,118945,5,0,0:0:0:0:
231,254,119260,5,12,0:0:0:0:
215,257,119576,5,0,0:0:0:0:
184,236,119734,5,8,0:0:0:0:
215,257,120050,5,8,0:0:0:0:
231,254,120208,5,0,0:0:0:0:
231,254,120524,5,12,0:0:0:0:
231,254,120839,5,0,0:0:0:0:
231,254,121155,5,8,0:0:0:0:
231,254,121313,5,8,0:0:0:0:
231,254,121471,5,0,0:0:0:0:
191,258,121629,5,0,0:0:0:0:
231,254,121787,5,12,0:0:0:0:
