osu file format v14

[General]
AudioFilename: audio.mp3
AudioLeadIn: 0
PreviewTime: 42828
Countdown: 0
SampleSet: Soft
StackLeniency: 0.7
Mode: 0
LetterboxInBreaks: 0
WidescreenStoryboard: 1

[Editor]
DistanceSpacing: 1
BeatDivisor: 2
GridSize: 4
TimelineZoom: 1

[Metadata]
Title:Hemisphere
TitleUnicode:Hemisphere
Artist:ARForest
ArtistUnicode:ARForest
Creator:jerry4834
Version:Normal
Source:dynamix
Tags:ARForest
BeatmapID:1052390
BeatmapSetID:494240

[Difficulty]
HPDrainRate:3
CircleSize:3
OverallDifficulty:4
ApproachRate:5
SliderMultiplier:1.00000000596046
SliderTickRate:1

[Events]
//Background and Video events
0,0,"hemisphere.jpg",0,0
//Break Periods
2,62790,71494
2,82220,91390
//Storyboard Layer 0 (Background)
//Storyboard Layer 1 (Fail)
//Storyboard Layer 2 (Pass)
//Storyboard Layer 3 (Foreground)
//Storyboard Sound Samples

[TimingPoints]
569.755102040816,310.880829015544,4,2,2,50,1,0
42849,-100,4,2,2,70,0,1
62745,-100,4,2,2,50,0,0
92590,-100,4,2,2,70,0,1
102538,-100,4,3,1,70,0,1
112486,-100,4,3,1,100,0,0

[Colours]
Combo1 : 128,128,64
Combo2 : 117,117,117
Combo3 : 191,4,4
Combo4 : 202,202,0
Combo5 : 0,196,0
Combo6 : 0,98,196

[HitObjects]
160,212,22953,6,0,P|162:125|246:128,3,150.000000894069,2|0|0|0,0:0|0:0|0:0|0:0,0:0:0:0:
360,96,24818,1,0,0:0:0:0:
412,184,25129,1,0,0:0:0:0:
384,280,25440,2,0,P|316:308|251:276,2,150.000000894069
88,332,27305,6,0,P|67:261|101:196,1,150.00000089407,0|2,0:0|0:0,0:0:0:0:
140,168,27927,6,0,P|199:134|246:215,3,150.000000894069,2|0|0|0,0:0|0:0|0:0|0:0,0:0:0:0:
176,316,29792,1,0,0:0:0:0:
272,340,30103,1,0,0:0:0:0:
373,304,30414,2,0,P|388:227|302:205,2,150.000000894069
72,304,32279,6,0,L|272:228,1,200.000001192092,0|2,0:0|0:0,0:0:0:0:
360,344,33367,6,0,P|440:300|449:225,2,150.000000894069
376,196,34766,1,0,0:0:0:0:
304,128,35077,1,0,0:0:0:0:
236,52,35388,2,0,B|148:24|116:116,2,150.000000894069
128,304,37253,6,0,P|108:208|136:140,1,150.000000894069,0|2,0:0|0:0,0:0:0:0:
148,116,37875,6,0,P|206:56|302:83,3,150.000000894069,2|0|0|0,0:0|0:0|0:0|0:0,0:0:0:0:
340,192,39740,1,0,0:0:0:0:
288,276,40051,1,0,0:0:0:0:
196,316,40362,2,0,P|164:252|209:198,2,150.000000894069
136,56,42849,6,0,P|100:84|80:148,1,100.000000596046,2|4,0:0|0:0,0:0:0:0:
84,284,43626,2,0,P|116:302|158:300,1,50.000000298023,2|4,0:0|0:0,0:0:0:0:
180,216,44093,6,0,P|220:221|250:253,3,50.000000298023,2|2|4|2,0:0|0:0|0:0|0:0,0:0:0:0:
264,320,44870,2,0,P|300:309|334:273,1,50.000000298023,2|4,0:0|0:0,0:0:0:0:
408,328,45336,6,0,P|409:260|354:211,1,100.000000596046,2|4,0:0|0:0,0:0:0:0:
452,96,46113,2,0,L|396:40,1,50.000000298023,2|4,0:0|0:0,0:0:0:0:
316,64,46580,6,0,L|264:124,3,50.000000298023,2|2|4|2,0:0|0:0|0:0|0:0,0:0:0:0:
232,188,47357,2,0,L|284:248,1,50.000000298023,2|4,0:0|0:0,0:0:0:0:
356,184,47823,6,0,P|384:231|368:304,1,100.000000596046,2|4,0:0|0:0,0:0:0:0:
256,356,48600,2,0,P|234:367|210:362,1,50.000000298023,2|4,0:0|0:0,0:0:0:0:
220,264,49067,6,0,P|193:235|164:240,3,50.000000298023,2|2|4|2,0:0|0:0|0:0|0:0,0:0:0:0:
104,292,49844,2,0,P|89:272|91:247,1,50.000000298023,2|4,0:0|0:0,0:0:0:0:
72,148,50310,6,0,P|92:83|152:56,1,100.000000596046,2|4,0:0|0:0,0:0:0:0:
268,72,51087,2,0,P|280:93|282:118,1,50.000000298023,2|4,0:0|0:0,0:0:0:0:
215,192,51554,6,0,P|191:194|173:178,3,50.000000298023,2|2|4|2,0:0|0:0|0:0|0:0,0:0:0:0:
156,132,52175,2,0,P|154:108|170:90,3,50.000000298023,4|2|4|2,0:0|0:0|0:0|0:0,0:0:0:0:
216,68,52797,5,2,0:0:0:0:
288,136,53108,1,4,0:0:0:0:
428,192,53574,2,0,P|436:209|425:241,1,50.000000298023,2|4,0:0|0:0,0:0:0:0:
388,336,54041,1,2,0:0:0:0:
388,336,54196,1,2,0:0:0:0:
388,336,54352,2,0,P|345:334|312:304,1,50.000000298023,4|2,0:0|0:0,0:0:0:0:
244,300,54818,2,0,P|211:296|184:336,1,50.000000298023,2|4,0:0|0:0,0:0:0:0:
104,340,55284,6,0,P|76:282|84:212,1,100.000000596046,2|4,0:0|0:0,0:0:0:0:
96,100,56061,2,0,P|135:87|172:106,1,50.000000298023,2|4,0:0|0:0,0:0:0:0:
164,188,56528,2,0,P|184:200|228:160,3,50.000000298023,2|2|4|2,0:0|0:0|0:0|0:0,0:0:0:0:
236,100,57305,2,2,L|304:136,1,50.000000298023,2|4,0:0|0:0,0:0:0:0:
377,98,57771,5,2,0:0:0:0:
420,188,58082,1,4,0:0:0:0:
392,336,58549,2,0,P|358:345|324:300,1,50.000000298023,2|4,0:0|0:0,0:0:0:0:
342,249,59015,1,2,0:0:0:0:
342,249,59170,1,2,0:0:0:0:
342,249,59326,2,0,P|305:237|272:263,1,50.000000298023,4|2,0:0|0:0,0:0:0:0:
216,300,59792,6,0,L|173:219,1,50.000000298023,2|4,0:0|0:0,0:0:0:0:
96,236,60258,5,2,0:0:0:0:
64,140,60569,1,4,0:0:0:0:
184,52,61036,2,0,P|212:44|230:70,1,50.000000298023,2|4,0:0|0:0,0:0:0:0:
260,148,61502,6,0,P|259:179|240:194,3,50.000000298023,2|2|4|2,0:0|0:0|0:0|0:0,0:0:0:0:
208,224,62124,2,0,P|184:220|164:200,3,50.000000298023,4|2|4|2,0:0|0:0|0:0|0:0,0:0:0:0:
72,72,72694,5,2,0:0:0:0:
132,264,73315,1,4,0:0:0:0:
364,72,74248,5,2,0:0:0:0:
316,160,74559,1,4,0:0:0:0:
440,316,75181,5,2,0:0:0:0:
380,124,75802,1,4,0:0:0:0:
148,316,76735,5,2,0:0:0:0:
196,228,77046,1,4,0:0:0:0:
388,280,77668,5,2,0:0:0:0:
388,80,78289,1,4,0:0:0:0:
88,72,79222,5,0,0:0:0:0:
44,160,79533,1,4,0:0:0:0:
168,316,80155,5,2,0:0:0:0:
368,344,80777,1,4,0:0:0:0:
452,56,81709,5,2,0:0:0:0:
388,136,82020,1,4,0:0:0:0:
40,112,92590,6,0,P|82:75|134:83,1,100.000000596046,2|4,0:0|0:0,0:0:0:0:
272,92,93367,1,2,0:0:0:0:
320,108,93523,1,4,0:0:0:0:
408,60,93834,6,0,P|427:79|420:116,1,50.000000298023,2|2,0:0|0:0,0:0:0:0:
424,152,94144,2,0,P|412:175|375:181,1,50.000000298023,4|2,0:0|0:0,0:0:0:0:
412,284,94611,2,0,L|380:328,1,50.000000298023,2|4,0:0|0:0,0:0:0:0:
312,252,95077,6,0,P|256:217|191:221,1,100.000000596046,2|4,0:0|0:0,0:0:0:0:
152,348,95854,1,2,0:0:0:0:
104,332,96010,1,4,0:0:0:0:
52,248,96321,2,0,P|44:216|72:196,3,50.000000298023,2|2|4|2,0:0|0:0|0:0|0:0,0:0:0:0:
152,184,97098,2,0,P|164:160|144:134,1,50.000000298023,2|4,0:0|0:0,0:0:0:0:
100,56,97564,6,0,P|156:28|204:60,1,100.000000596046,2|4,0:0|0:0,0:0:0:0:
320,112,98341,2,0,P|300:128|272:124,1,50.000000298023,2|4,0:0|0:0,0:0:0:0:
188,76,98808,6,0,P|164:87|157:130,1,50.000000298023,2|2,0:0|0:0,0:0:0:0:
156,156,99118,2,0,P|158:181|196:203,1,50.000000298023,4|2,0:0|0:0,0:0:0:0:
252,260,99585,2,0,P|288:264|324:240,1,50.000000298023,2|4,0:0|0:0,0:0:0:0:
388,208,100051,6,0,P|340:163|305:162,1,100.000000596046,2|4,0:0|0:0,0:0:0:0:
212,276,100828,2,0,L|192:228,1,50.000000298023,2|4,0:0|0:0,0:0:0:0:
156,136,101295,6,0,P|152:105|169:87,3,50.000000298023,2|2|4|2,0:0|0:0|0:0|0:0,0:0:0:0:
204,64,101916,2,0,P|236:62|260:88,3,50.000000298023,4|2|4|2,0:0|0:0|0:0|0:0,0:0:0:0:
272,116,102538,6,0,L|236:152,7,50.000000298023
208,192,103782,6,0,L|244:228,7,50.000000298023
248,276,105025,6,0,P|270:261|280:236,3,50.000000298023
292,192,105647,2,0,P|294:162|281:141,3,50.000000298023
256,104,106269,2,0,P|236:83|208:76,1,50.000000298023
168,76,106580,2,0,P|140:82|119:103,1,50.000000298023
100,140,106890,2,0,P|92:167|99:195,1,50.000000298023
116,236,107201,2,0,P|135:256|163:263,1,50.000000298023
228,332,107668,6,0,L|216:388,2,50.000000298023
276,320,108134,2,0,P|300:320|321:306,1,50.000000298023
348,264,108445,2,0,P|360:242|359:218,1,50.000000298023
356,120,108911,6,0,L|410:102,2,50.000000298023
321,84,109377,2,0,P|309:62|287:51,1,50.000000298023
237,50,109688,2,0,P|212:49|191:63,1,50.000000298023
108,116,110155,6,0,L|65:77,2,50.000000298023
94,164,110621,2,0,P|81:185|82:209,1,50.000000298023
106,254,110932,2,0,P|117:275|139:286,1,50.000000298023
228,332,111398,1,0,0:0:0:0:
276,316,111554,1,0,0:0:0:0:
304,276,111709,1,0,0:0:0:0:
288,228,111865,2,0,L|252:192,1,50.000000298023
252,144,112175,2,0,L|284:104,1,50.000000298023
