osu file format v14

[General]
AudioFilename: audio.mp3
AudioLeadIn: 0
PreviewTime: 42828
Countdown: 0
SampleSet: None
StackLeniency: 0.7
Mode: 0
LetterboxInBreaks: 0
WidescreenStoryboard: 1

[Editor]
DistanceSpacing: 1.5
BeatDivisor: 4
GridSize: 4
TimelineZoom: 1.6

[Metadata]
Title:Hemisphere
TitleUnicode:Hemisphere
Artist:ARForest
ArtistUnicode:ARForest
Creator:jerry4834
Version:Insane
Source:dynamix
Tags:ARForest
BeatmapID:1052389
BeatmapSetID:494240

[Difficulty]
HPDrainRate:6
CircleSize:4
OverallDifficulty:7
ApproachRate:8
SliderMultiplier:0.8
SliderTickRate:1

[Events]
//Background and Video events
0,0,"hemisphere.jpg",0,0
//Break Periods
//Storyboard Layer 0 (Background)
//Storyboard Layer 1 (Fail)
//Storyboard Layer 2 (Pass)
//Storyboard Layer 3 (Foreground)
//Storyboard Sound Samples

[TimingPoints]
569.755102040816,310.880829015544,4,3,1,50,1,0
22953,-133.333333333333,4,2,3,70,0,0
23419,-133.333333333333,4,3,1,30,0,0
27771,-133.333333333333,4,2,2,50,0,0
28393,-133.333333333333,4,3,1,30,0,0
32901,-100,4,2,2,70,0,0
33367,-100,4,3,1,40,0,0
37720,-100,4,2,2,70,0,0
38341,-100,4,3,1,50,0,0
40362,-66.6666666666667,4,3,1,60,0,0
42849,-66.6666666666667,4,2,3,70,0,1
43004,-66.6666666666667,4,3,1,70,0,1
52797,-66.6666666666667,4,2,3,70,0,1
53108,-66.6666666666667,4,3,1,70,0,1
62745,-100,4,3,1,30,0,0
91346,-133.333333333333,4,3,1,70,0,0
91968,-100,4,3,1,70,0,0
92279,-66.6666666666667,4,3,1,70,0,0
92590,-100,4,2,3,70,0,1
92745,-100,4,3,1,70,0,1
95388,-100,4,3,1,70,0,1
95466,-100,4,3,1,40,0,1
95699,-100,4,3,1,70,0,1
95777,-100,4,3,1,40,0,1
96010,-100,4,3,1,70,0,1
96087,-100,4,3,1,40,0,1
96321,-100,4,3,1,70,0,1
96398,-100,4,3,1,40,0,1
96476,-100,4,3,1,70,0,1
97564,-66.6666666666667,4,3,1,70,0,1
102538,-66.6666666666667,4,2,3,70,0,1
102616,-66.6666666666667,4,3,1,70,0,1
103782,-66.6666666666667,4,3,1,70,0,1
105025,-66.6666666666667,4,3,1,70,0,1
106890,-50,4,3,1,70,0,1
107512,-133.333333333333,4,3,1,70,0,1
108911,-100,4,3,1,70,0,1
110155,-66.6666666666667,4,3,1,70,0,1
111398,-50,4,3,1,70,0,1
112486,-100,4,3,1,70,0,0

[Colours]
Combo1 : 128,128,64
Combo2 : 127,127,127
Combo3 : 185,4,4
Combo4 : 189,189,0
Combo5 : 0,189,0
Combo6 : 0,106,213

[HitObjects]
316,84,569,5,0,0:0:0:0:
164,180,1036,1,0,0:0:0:0:
116,292,1346,1,0,0:0:0:0:
76,180,1657,1,0,0:0:0:0:
116,292,1968,1,0,0:0:0:0:
228,332,2279,1,0,0:0:0:0:
204,216,2590,1,0,0:0:0:0:
316,252,2901,1,0,0:0:0:0:
496,276,3367,5,0,0:0:0:0:
420,112,3834,1,0,0:0:0:0:
328,36,4144,1,0,0:0:0:0:
420,112,4455,1,0,0:0:0:0:
304,144,4766,1,0,0:0:0:0:
192,108,5077,1,0,0:0:0:0:
200,168,5232,1,0,0:0:0:0:
144,144,5388,1,0,0:0:0:0:
152,204,5543,5,0,0:0:0:0:
332,228,6010,1,0,0:0:0:0:
280,120,6321,1,0,0:0:0:0:
384,180,6631,1,0,0:0:0:0:
264,196,6942,1,0,0:0:0:0:
352,112,7253,1,0,0:0:0:0:
332,228,7564,1,0,0:0:0:0:
236,300,7875,1,0,0:0:0:0:
96,184,8341,5,0,0:0:0:0:
188,28,8808,1,0,0:0:0:0:
304,52,9118,1,0,0:0:0:0:
272,168,9429,1,0,0:0:0:0:
156,140,9740,1,0,0:0:0:0:
108,248,10051,1,0,0:0:0:0:
140,300,10207,1,0,0:0:0:0:
200,312,10362,1,0,0:0:0:0:
256,288,10517,5,0,0:0:0:0:
380,160,10984,1,0,0:0:0:0:
268,208,11295,1,0,0:0:0:0:
356,124,11606,1,0,0:0:0:0:
300,232,11916,1,0,0:0:0:0:
312,112,12227,1,0,0:0:0:0:
344,228,12538,1,0,0:0:0:0:
268,132,12849,1,0,0:0:0:0:
104,56,13315,5,0,0:0:0:0:
96,236,13782,1,0,0:0:0:0:
160,340,14093,1,0,0:0:0:0:
228,244,14403,1,0,0:0:0:0:
316,328,14714,1,0,0:0:0:0:
396,240,15025,1,0,0:0:0:0:
364,156,15181,1,0,0:0:0:0:
308,228,15336,1,0,0:0:0:0:
272,144,15492,5,0,0:0:0:0:
116,56,15958,1,0,0:0:0:0:
92,172,16269,1,0,0:0:0:0:
140,284,16580,1,0,0:0:0:0:
92,176,16890,1,0,0:0:0:0:
200,228,17201,1,0,0:0:0:0:
92,176,17512,1,0,0:0:0:0:
208,148,17823,1,0,0:0:0:0:
364,60,18289,5,0,0:0:0:0:
460,212,18756,1,0,0:0:0:0:
384,308,19067,1,0,0:0:0:0:
272,348,19378,1,0,0:0:0:0:
164,296,19688,1,0,0:0:0:0:
152,176,19999,1,0,0:0:0:0:
224,80,20155,1,0,0:0:0:0:
272,188,20310,1,0,0:0:0:0:
256,192,20466,12,0,22642,0:0:0:0:
304,296,22953,5,4,0:0:0:0:
168,296,23419,1,0,0:0:0:0:
108,176,23885,1,0,0:0:0:0:
240,208,24352,1,0,0:0:0:0:
148,108,24818,1,0,0:0:0:0:
224,64,25129,1,0,0:0:0:0:
308,96,25440,5,0,0:0:0:0:
432,144,25906,1,0,0:0:0:0:
340,244,26372,1,0,0:0:0:0:
80,312,27305,6,0,L|96:224,1,90.0000034332277,0|2,0:0|0:0,0:0:0:0:
100,180,27927,5,2,0:0:0:0:
204,264,28393,1,0,0:0:0:0:
308,176,28859,1,0,0:0:0:0:
204,264,29326,1,0,0:0:0:0:
316,340,29792,1,0,0:0:0:0:
392,292,30103,1,0,0:0:0:0:
384,204,30414,5,0,0:0:0:0:
268,136,30880,1,0,0:0:0:0:
380,64,31346,1,0,0:0:0:0:
364,332,32279,6,0,P|296:356|248:332,1,120.000004577637,0|2,0:0|0:0,0:0:0:0:
76,332,33367,5,0,0:0:0:0:
248,280,33834,1,0,0:0:0:0:
408,196,34300,1,0,0:0:0:0:
304,48,34766,1,0,0:0:0:0:
228,140,35077,1,0,0:0:0:0:
112,172,35388,5,0,0:0:0:0:
236,304,35854,1,0,0:0:0:0:
60,336,36321,1,0,0:0:0:0:
324,92,37253,6,0,P|368:144|352:204,1,120,0|2,0:0|0:0,0:0:0:0:
376,248,37875,5,2,0:0:0:0:
220,336,38341,1,0,0:0:0:0:
308,180,38808,1,0,0:0:0:0:
220,24,39274,1,0,0:0:0:0:
132,180,39740,1,0,0:0:0:0:
228,256,40051,1,0,0:0:0:0:
376,356,40362,5,0,0:0:0:0:
276,108,40828,1,0,0:0:0:0:
164,356,41295,1,0,0:0:0:0:
256,192,41606,12,0,42538,0:0:0:0:
116,48,42849,6,0,P|104:80|131:96,1,60.0000022888184,4|0,0:0|0:0,0:0:0:0:
172,168,43160,2,0,P|184:200|156:216,1,60.0000022888184
88,256,43471,1,0,0:0:0:0:
156,316,43626,1,0,0:0:0:0:
256,164,43937,5,0,0:0:0:0:
396,48,44248,2,0,P|408:80|380:96,1,60.0000022888184
340,168,44559,2,0,P|328:200|355:216,1,60.0000022888184
424,256,44870,1,0,0:0:0:0:
256,320,45181,5,0,0:0:0:0:
256,140,45492,1,0,0:0:0:0:
108,240,45802,1,0,0:0:0:0:
288,236,46113,1,0,0:0:0:0:
108,244,46424,1,0,0:0:0:0:
116,64,46735,1,0,0:0:0:0:
164,140,46890,1,0,0:0:0:0:
116,64,47046,1,0,0:0:0:0:
296,56,47357,5,0,0:0:0:0:
368,112,47512,1,0,0:0:0:0:
384,200,47668,1,0,0:0:0:0:
356,284,47823,5,0,0:0:0:0:
88,328,48289,1,0,0:0:0:0:
172,168,48600,1,0,0:0:0:0:
88,328,48911,1,0,0:0:0:0:
380,64,49844,5,0,0:0:0:0:
404,152,49999,1,0,0:0:0:0:
316,132,50155,1,0,0:0:0:0:
152,60,50466,1,0,0:0:0:0:
48,208,50777,1,0,0:0:0:0:
188,320,51087,1,0,0:0:0:0:
20,384,51398,1,0,0:0:0:0:
332,60,52175,1,0,0:0:0:0:
424,216,52486,5,0,0:0:0:0:
384,200,52564,1,0,0:0:0:0:
340,204,52642,1,0,0:0:0:0:
300,220,52720,1,0,0:0:0:0:
264,244,52797,6,0,P|208:276|148:264,1,120.000004577637,4|0,0:0|0:0,0:0:0:0:
72,228,53264,1,0,0:0:0:0:
252,248,53574,1,0,0:0:0:0:
140,108,53885,1,0,0:0:0:0:
176,284,54196,5,0,0:0:0:0:
264,312,54352,1,0,0:0:0:0:
352,288,54507,1,0,0:0:0:0:
408,212,54663,1,0,0:0:0:0:
408,124,54818,1,0,0:0:0:0:
352,52,54973,1,0,0:0:0:0:
292,120,55129,1,0,0:0:0:0:
240,192,55284,1,0,0:0:0:0:
28,24,55751,5,0,0:0:0:0:
104,184,56061,1,0,0:0:0:0:
224,52,56372,1,0,0:0:0:0:
36,360,56994,5,0,0:0:0:0:
164,232,57305,1,0,0:0:0:0:
244,272,57460,1,0,0:0:0:0:
324,228,57616,1,0,0:0:0:0:
368,304,57771,6,0,L|424:188,1,120.000004577637
492,140,58238,1,0,0:0:0:0:
352,24,58549,1,0,0:0:0:0:
188,100,58859,1,0,0:0:0:0:
144,276,59170,1,0,0:0:0:0:
80,212,59326,1,0,0:0:0:0:
84,124,59481,1,0,0:0:0:0:
144,56,59637,1,0,0:0:0:0:
256,192,59947,1,0,0:0:0:0:
384,324,60258,5,0,0:0:0:0:
420,56,60725,5,0,0:0:0:0:
128,324,61191,5,0,0:0:0:0:
92,56,61658,5,0,0:0:0:0:
256,336,62124,5,0,0:0:0:0:
256,32,62590,5,0,0:0:0:0:
256,32,62745,5,0,0:0:0:0:
316,48,62901,1,0,0:0:0:0:
360,92,63056,1,0,0:0:0:0:
376,152,63212,1,0,0:0:0:0:
432,260,63523,1,0,0:0:0:0:
340,336,63834,1,0,0:0:0:0:
224,312,64144,5,0,0:0:0:0:
172,344,64300,1,0,0:0:0:0:
120,312,64455,1,0,0:0:0:0:
172,280,64611,1,0,0:0:0:0:
120,252,64766,1,0,0:0:0:0:
172,224,64922,1,0,0:0:0:0:
120,192,65077,1,0,0:0:0:0:
172,160,65232,5,0,0:0:0:0:
184,100,65388,1,0,0:0:0:0:
232,68,65543,1,0,0:0:0:0:
292,76,65699,1,0,0:0:0:0:
400,56,66010,1,0,0:0:0:0:
340,160,66321,1,0,0:0:0:0:
280,264,66631,5,0,0:0:0:0:
332,292,66787,1,0,0:0:0:0:
384,264,66942,1,0,0:0:0:0:
332,236,67098,1,0,0:0:0:0:
384,204,67253,1,0,0:0:0:0:
332,176,67409,1,0,0:0:0:0:
384,144,67564,1,0,0:0:0:0:
328,120,67720,5,0,0:0:0:0:
304,176,67875,1,0,0:0:0:0:
248,200,68030,1,0,0:0:0:0:
192,180,68186,1,0,0:0:0:0:
112,92,68497,1,0,0:0:0:0:
208,20,68808,1,0,0:0:0:0:
324,52,69118,5,0,0:0:0:0:
364,96,69274,1,0,0:0:0:0:
416,124,69429,1,0,0:0:0:0:
364,152,69585,1,0,0:0:0:0:
416,180,69740,1,0,0:0:0:0:
364,208,69896,1,0,0:0:0:0:
416,236,70051,1,0,0:0:0:0:
364,264,70207,5,0,0:0:0:0:
336,316,70362,1,0,0:0:0:0:
284,344,70517,1,0,0:0:0:0:
224,332,70673,1,0,0:0:0:0:
280,228,70984,1,0,0:0:0:0:
308,112,71295,1,0,0:0:0:0:
208,44,71606,5,0,0:0:0:0:
160,80,71761,1,0,0:0:0:0:
108,112,71916,1,0,0:0:0:0:
160,144,72072,1,0,0:0:0:0:
108,172,72227,1,0,0:0:0:0:
160,204,72383,1,0,0:0:0:0:
108,236,72538,1,0,0:0:0:0:
128,292,72694,5,0,0:0:0:0:
176,256,72849,1,0,0:0:0:0:
232,272,73004,1,0,0:0:0:0:
260,324,73160,1,0,0:0:0:0:
140,340,73471,1,0,0:0:0:0:
256,316,73782,1,0,0:0:0:0:
372,344,74093,5,0,0:0:0:0:
428,328,74248,1,0,0:0:0:0:
468,284,74403,1,0,0:0:0:0:
484,224,74559,1,0,0:0:0:0:
464,168,74714,1,0,0:0:0:0:
420,124,74870,1,0,0:0:0:0:
360,112,75025,1,0,0:0:0:0:
352,52,75181,5,0,0:0:0:0:
312,96,75336,1,0,0:0:0:0:
252,92,75492,1,0,0:0:0:0:
212,44,75647,1,0,0:0:0:0:
332,32,75958,1,0,0:0:0:0:
216,64,76269,1,0,0:0:0:0:
104,104,76580,5,0,0:0:0:0:
62,144,76735,1,0,0:0:0:0:
47,202,76890,1,0,0:0:0:0:
61,262,77046,1,0,0:0:0:0:
105,302,77201,1,0,0:0:0:0:
164,320,77357,1,0,0:0:0:0:
223,303,77512,1,0,0:0:0:0:
188,256,77668,5,0,0:0:0:0:
128,260,77823,1,0,0:0:0:0:
96,208,77979,1,0,0:0:0:0:
128,156,78134,1,0,0:0:0:0:
244,132,78445,1,0,0:0:0:0:
152,208,78756,1,0,0:0:0:0:
232,116,79067,5,0,0:0:0:0:
263,68,79222,1,0,0:0:0:0:
317,43,79377,1,0,0:0:0:0:
380,45,79533,1,0,0:0:0:0:
426,82,79688,1,0,0:0:0:0:
454,137,79844,1,0,0:0:0:0:
448,198,79999,1,0,0:0:0:0:
395,170,80155,5,0,0:0:0:0:
388,111,80310,1,0,0:0:0:0:
332,90,80466,1,0,0:0:0:0:
286,130,80621,1,0,0:0:0:0:
283,248,80932,1,0,0:0:0:0:
342,145,81243,1,0,0:0:0:0:
283,248,81554,5,0,0:0:0:0:
252,296,81709,1,0,0:0:0:0:
198,321,81864,1,0,0:0:0:0:
135,319,82020,1,0,0:0:0:0:
89,282,82175,1,0,0:0:0:0:
61,227,82331,1,0,0:0:0:0:
67,166,82486,1,0,0:0:0:0:
172,208,82642,5,0,0:0:0:0:
256,192,83885,5,0,0:0:0:0:
256,192,84818,5,0,0:0:0:0:
256,192,85129,1,0,0:0:0:0:
352,296,86061,5,0,0:0:0:0:
352,296,86372,1,0,0:0:0:0:
352,296,86683,1,0,0:0:0:0:
352,296,86994,1,0,0:0:0:0:
352,296,87305,1,0,0:0:0:0:
120,92,88859,5,0,0:0:0:0:
72,236,91036,5,0,0:0:0:0:
124,308,91346,5,0,0:0:0:0:
208,336,91657,5,0,0:0:0:0:
312,276,91968,5,0,0:0:0:0:
388,112,92279,5,0,0:0:0:0:
352,84,92357,1,0,0:0:0:0:
308,76,92435,1,0,0:0:0:0:
264,84,92512,1,0,0:0:0:0:
240,100,92590,5,4,0:0:0:0:
192,64,92745,1,0,0:0:0:0:
132,60,92901,2,0,L|120:32,3,20
116,72,93212,1,0,0:0:0:0:
92,124,93367,1,0,0:0:0:0:
132,236,93678,5,0,0:0:0:0:
188,216,93834,1,0,0:0:0:0:
232,256,93989,1,0,0:0:0:0:
280,292,94144,2,0,L|268:312,3,20
300,312,94455,1,0,0:0:0:0:
340,268,94611,1,0,0:0:0:0:
432,188,94922,5,0,0:0:0:0:
400,72,95232,1,0,0:0:0:0:
344,52,95388,1,0,0:0:0:0:
300,92,95543,1,0,0:0:0:0:
312,120,95621,1,0,0:0:0:0:
320,148,95699,1,0,0:0:0:0:
328,176,95777,1,0,0:0:0:0:
332,204,95854,1,0,0:0:0:0:
336,232,95932,1,0,0:0:0:0:
340,260,96010,2,0,L|344:296,3,20
256,296,96321,5,0,0:0:0:0:
200,280,96476,1,0,0:0:0:0:
172,228,96631,1,0,0:0:0:0:
104,208,96787,1,0,0:0:0:0:
88,276,96942,2,0,L|76:300,3,20
152,288,97253,2,0,L|168:312,3,20
188,312,97564,5,4,0:0:0:0:
280,312,97720,1,0,0:0:0:0:
324,304,97797,1,0,0:0:0:0:
360,276,97875,1,0,0:0:0:0:
384,236,97953,1,0,0:0:0:0:
388,192,98030,1,0,0:0:0:0:
380,148,98108,1,0,0:0:0:0:
356,112,98186,2,0,P|321:85|285:103,1,60.0000022888184
264,88,98497,2,0,P|221:95|209:133,1,60.0000022888184
132,140,98808,5,4,0:0:0:0:
84,216,98963,1,0,0:0:0:0:
116,248,99041,1,0,0:0:0:0:
160,240,99118,1,0,0:0:0:0:
204,236,99196,1,0,0:0:0:0:
248,252,99274,1,0,0:0:0:0:
284,276,99352,1,0,0:0:0:0:
320,300,99429,2,0,P|360:296|380:272,1,60.0000022888184
436,220,99740,2,0,P|420:182|391:170,1,60.0000022888184
336,116,100051,5,4,0:0:0:0:
260,64,100207,1,0,0:0:0:0:
216,64,100284,1,0,0:0:0:0:
176,88,100362,1,0,0:0:0:0:
152,128,100440,1,0,0:0:0:0:
144,172,100517,1,0,0:0:0:0:
168,216,100595,1,0,0:0:0:0:
192,252,100673,2,0,P|208:280|248:280,1,60.0000022888184
320,260,100984,2,0,P|342:236|330:198,1,60.0000022888184
264,164,101295,6,0,L|232:136,3,30.0000011444092
264,184,101606,6,0,L|240:208,3,30.0000011444092
284,184,101916,6,0,L|308:208,3,30.0000011444092
284,164,102227,6,0,L|312:136,3,30.0000011444092
344,76,102538,5,4,0:0:0:0:
373,108,102616,1,0,0:0:0:0:
380,153,102694,1,0,0:0:0:0:
362,197,102771,1,0,0:0:0:0:
329,226,102849,2,0,B|326:228|318:237|304:241,3,30.0000011444092
372,280,103159,5,4,0:0:0:0:
340,309,103237,1,0,0:0:0:0:
295,316,103316,1,0,0:0:0:0:
251,298,103393,1,0,0:0:0:0:
222,265,103471,2,0,P|219:262|206:240,3,30.0000011444092
168,308,103782,5,4,0:0:0:0:
139,276,103860,1,0,0:0:0:0:
132,231,103937,1,0,0:0:0:0:
150,187,104016,1,0,0:0:0:0:
183,158,104094,2,0,P|185:155|207:142,3,30.0000011444092
140,104,104403,5,4,0:0:0:0:
172,75,104481,1,0,0:0:0:0:
217,68,104560,1,0,0:0:0:0:
261,86,104637,1,0,0:0:0:0:
290,119,104715,2,0,P|292:121|305:143,3,30.0000011444092
192,52,105025,5,4,0:0:0:0:
236,36,105103,1,0,0:0:0:0:
280,40,105181,1,0,0:0:0:0:
320,60,105258,1,0,0:0:0:0:
344,100,105336,2,0,L|364:144,3,30.0000011444092
360,172,105647,1,4,0:0:0:0:
316,172,105725,1,0,0:0:0:0:
272,172,105802,1,0,0:0:0:0:
228,172,105880,1,0,0:0:0:0:
184,172,105958,2,0,L|132:172,3,30.0000011444092
144,216,106269,6,0,L|116:244,1,30.0000011444092,4|0,0:0|0:0,0:0:0:0:
164,216,106424,2,0,L|136:188,1,30.0000011444092
184,212,106580,2,0,L|156:240,1,30.0000011444092
204,216,106735,2,0,L|176:188,1,30.0000011444092
240,216,106890,1,4,0:0:0:0:
320,308,107046,1,0,0:0:0:0:
412,232,107201,1,0,0:0:0:0:
332,140,107357,1,0,0:0:0:0:
264,80,107668,5,0,0:0:0:0:
264,80,107745,1,0,0:0:0:0:
264,80,107823,2,0,L|284:100,3,15.0000005722046
288,108,108134,1,0,0:0:0:0:
324,136,108289,1,0,0:0:0:0:
336,180,108445,1,0,0:0:0:0:
308,216,108600,1,0,0:0:0:0:
256,328,108911,5,0,0:0:0:0:
256,328,108989,1,0,0:0:0:0:
256,328,109067,2,0,L|232:304,3,20
220,296,109378,1,0,0:0:0:0:
180,252,109533,1,0,0:0:0:0:
180,192,109688,1,0,0:0:0:0:
212,140,109844,1,0,0:0:0:0:
376,68,110155,5,0,0:0:0:0:
376,68,110232,1,0,0:0:0:0:
376,68,110310,2,0,L|396:100,3,30.0000011444092
404,136,110621,1,0,0:0:0:0:
396,224,110777,1,0,0:0:0:0:
328,280,110932,1,0,0:0:0:0:
240,268,111087,1,0,0:0:0:0:
0,288,111398,5,0,0:0:0:0:
0,288,111476,1,0,0:0:0:0:
0,288,111554,2,0,L|20:248,3,40
40,196,111865,1,0,0:0:0:0:
100,92,112020,1,0,0:0:0:0:
220,72,112175,1,0,0:0:0:0:
308,156,112331,1,0,0:0:0:0:
