osu file format v14

[General]
AudioFilename: audio.mp3
AudioLeadIn: 0
PreviewTime: 42828
Countdown: 0
SampleSet: None
StackLeniency: 0.7
Mode: 0
LetterboxInBreaks: 0
WidescreenStoryboard: 1

[Editor]
DistanceSpacing: 0.4
BeatDivisor: 1
GridSize: 4
TimelineZoom: 1

[Metadata]
Title:Hemisphere
TitleUnicode:Hemisphere
Artist:ARForest
ArtistUnicode:ARForest
Creator:jerry4834
Version:Easy
Source:dynamix
Tags:ARForest
BeatmapID:1052386
BeatmapSetID:494240

[Difficulty]
HPDrainRate:2
CircleSize:3
OverallDifficulty:3
ApproachRate:4
SliderMultiplier:0.900000005960464
SliderTickRate:1

[Events]
//Background and Video events
0,0,"hemisphere.jpg",0,0
//Break Periods
2,62945,71374
2,82842,91270
//Storyboard Layer 0 (Background)
//Storyboard Layer 1 (Fail)
//Storyboard Layer 2 (Pass)
//Storyboard Layer 3 (Foreground)
//Storyboard Sound Samples

[TimingPoints]
569.755102040816,310.880829015544,4,3,1,50,1,0
42849,-100,4,2,3,70,0,1
43471,-100,4,3,1,70,0,1
52797,-100,4,2,3,70,0,1
53419,-100,4,3,1,70,0,1
62745,-100,4,3,1,30,0,0
92590,-100,4,2,3,70,0,1
93212,-100,4,3,1,70,0,1
102538,-100,4,2,3,70,0,1
102849,-100,4,3,1,70,0,1
112486,-100,4,3,1,100,0,0

[Colours]
Combo1 : 128,128,64
Combo2 : 121,121,121
Combo3 : 200,4,4
Combo4 : 187,187,0
Combo5 : 0,183,0
Combo6 : 0,88,176

[HitObjects]
116,60,22953,5,0,0:0:0:0:
100,168,23885,1,0,0:0:0:0:
84,348,25440,6,0,L|336:224,1,270.000001788139
392,60,27927,5,0,0:0:0:0:
408,168,28859,1,0,0:0:0:0:
428,348,30414,6,0,L|176:224,1,270.000001788139
84,80,32901,5,0,0:0:0:0:
188,56,33834,1,0,0:0:0:0:
368,56,35388,6,0,P|412:140|340:296,1,270.000001788139
172,324,37875,5,0,0:0:0:0:
128,224,38808,1,0,0:0:0:0:
132,76,40362,6,0,L|280:312,1,270.000001788139
256,124,42849,5,4,0:0:0:0:
316,160,43471,1,0,0:0:0:0:
256,196,44093,1,0,0:0:0:0:
316,232,44714,1,0,0:0:0:0:
256,268,45336,5,0,0:0:0:0:
192,236,45958,1,0,0:0:0:0:
132,196,46580,1,0,0:0:0:0:
84,144,47201,1,0,0:0:0:0:
116,80,47823,6,0,P|314:62|428:204,1,360.000002384186
396,312,50310,6,0,P|197:329|84:188,1,360.000002384186
88,80,52797,5,4,0:0:0:0:
152,116,53419,1,0,0:0:0:0:
88,152,54041,1,0,0:0:0:0:
152,188,54663,1,0,0:0:0:0:
88,224,55284,5,0,0:0:0:0:
144,268,55906,1,0,0:0:0:0:
212,296,56528,1,0,0:0:0:0:
284,304,57150,1,0,0:0:0:0:
356,304,57771,6,0,P|436:140|316:32,1,360.000002384186
256,192,60258,12,0,62745,0:0:0:0:
128,100,72694,5,0,0:0:0:0:
200,224,73937,1,0,0:0:0:0:
272,100,75181,1,0,0:0:0:0:
344,224,76424,1,0,0:0:0:0:
416,100,77668,5,0,0:0:0:0:
272,100,78911,1,0,0:0:0:0:
200,224,80155,1,0,0:0:0:0:
344,224,81398,1,0,0:0:0:0:
268,104,82642,5,0,0:0:0:0:
184,60,92590,6,0,P|283:90|314:184,1,180.000001192093,4|0,0:0|0:0,0:0:0:0:
384,128,93834,2,0,P|353:227|259:258,1,180.000001192093
320,324,95077,2,0,P|220:293|189:199,1,180.000001192093
120,256,96321,2,0,P|150:156|244:125,1,180.000001192093
156,84,97564,6,0,L|136:268,1,180.000001192093
208,264,98808,2,0,L|227:85,1,180.000001192093
300,84,100051,2,0,L|280:268,1,180.000001192093
352,264,101295,2,0,L|371:85,1,180.000001192093
300,88,102538,6,0,P|389:126|396:236,2,180.000001192093,4|0|0,0:0|0:0|0:0,0:0:0:0:
256,144,104403,1,0,0:0:0:0:
212,88,105025,6,0,P|122:126|116:236,2,180.000001192093
256,144,106890,1,0,0:0:0:0:
220,84,107512,5,0,0:0:0:0:
156,112,108134,1,0,0:0:0:0:
124,176,108756,2,0,P|152:264|232:304,1,180.000001192093
296,300,109999,5,0,0:0:0:0:
360,272,110621,1,0,0:0:0:0:
392,208,111243,2,0,P|364:120|284:80,1,180.000001192093
256,192,112486,12,0,117460,0:0:0:0:
