osu file format v14

[General]
AudioFilename: audio.mp3
AudioLeadIn: 0
PreviewTime: 92639
Countdown: 0
SampleSet: Soft
StackLeniency: 0.2
Mode: 0
LetterboxInBreaks: 0
WidescreenStoryboard: 1

[Editor]
Bookmarks: 10644,20592,23079,33027,42975,62872,72820,82768,92716,112613
DistanceSpacing: 1
BeatDivisor: 4
GridSize: 4
TimelineZoom: 2.599999

[Metadata]
Title:Hemisphere
TitleUnicode:Hemisphere
Artist:ARForest
ArtistUnicode:ARForest
Creator:- ascended -
Version:Normal
Source:osu!
Tags:-ascended- artcore art core featured artist fa mappers' guild mpg mg electronic instrumental frost era drum 'n' bass dnb and d&b d'n'b house piano glitch dynamix overrapid over rapid
BeatmapID:2605095
BeatmapSetID:1253551

[Difficulty]
HPDrainRate:4
CircleSize:3.5
OverallDifficulty:4
ApproachRate:5.5
SliderMultiplier:1.1
SliderTickRate:1

[Events]
//Background and Video events
0,0,"omg thank you nasa for releasing images in the public domain omg.jpg",0,0
//Break Periods
2,20792,21954
2,82968,91591
//Storyboard Layer 0 (Background)
//Storyboard Layer 1 (Fail)
//Storyboard Layer 2 (Pass)
//Storyboard Layer 3 (Foreground)
//Storyboard Layer 4 (Overlay)
//Storyboard Sound Samples

[TimingPoints]
696,310.880829015544,4,2,1,55,1,0
696,-111.111111111111,4,2,1,55,0,0
10644,-105.263157894737,4,2,1,60,0,0
20592,-105.263157894737,4,2,1,57,0,0
23079,-111.111111111111,4,2,1,50,0,0
33027,-100,4,2,1,50,0,0
41732,-100,4,2,1,60,0,0
42975,-90.9090909090909,4,2,1,75,0,1
62872,-100,4,2,1,55,0,0
72820,-100,4,2,2,60,0,0
72975,-100,4,2,1,60,0,0
74374,-100,4,2,2,60,0,0
74530,-100,4,2,1,60,0,0
75307,-100,4,2,2,60,0,0
75462,-100,4,2,1,60,0,0
76861,-100,4,2,2,60,0,0
77017,-100,4,2,1,60,0,0
77794,-100,4,2,2,60,0,0
77949,-100,4,2,1,60,0,0
79348,-100,4,2,2,60,0,0
79504,-100,4,2,1,60,0,0
80281,-100,4,2,2,60,0,0
80436,-100,4,2,1,60,0,0
81835,-100,4,2,2,60,0,0
81913,-100,4,2,1,60,0,0
81991,-100,4,2,1,60,0,0
82768,-100,4,2,2,57,0,0
92405,-100,4,2,1,60,0,0
92716,-90.9090909090908,4,2,1,75,0,1
107639,-90.9090909090908,4,2,1,77,0,1
110126,-90.9090909090908,4,2,1,80,0,1
111369,-90.9090909090908,4,2,1,85,0,0
112690,-90.9090909090908,4,2,1,10,0,0
122561,-90.9090909090908,4,2,1,5,0,0

[Colours]
Combo1 : 255,181,120
Combo2 : 117,186,209
Combo3 : 255,238,238
Combo4 : 136,163,255
Combo5 : 255,86,86
Combo6 : 255,136,136

[HitObjects]
74,335,696,21,6,0:2:0:0:
140,202,1162,2,0,P|203:181|246:198,2,98.9999969787599,2|2|2,0:2|0:2|0:2,0:0:0:0:
199,281,2094,2,0,P|247:288|291:268,1,98.9999969787599,2|2,0:2|0:2,0:0:0:0:
320,173,2716,1,2,0:2:0:0:
259,94,3027,1,2,0:2:0:0:
113,63,3493,53,2,0:2:0:0:
46,196,3960,2,0,L|55:297,1,98.9999969787599,2|2,0:2|0:2,0:0:0:0:
132,356,4582,2,0,P|171:330|235:343,1,98.9999969787599,2|2,0:2|0:2,0:0:0:0:
318,354,5203,2,0,L|377:359,2,49.4999984893799,2|2|2,0:2|0:2|0:2,0:0:0:0:
328,305,5670,1,2,0:2:0:0:
300,159,6136,22,0,L|302:58,2,98.9999969787599,2|2|2,0:2|0:2|0:2,0:0:0:0:
231,231,7069,2,0,B|181:249|181:249|121:233,1,98.9999969787599,2|2,0:2|0:2,0:0:0:0:
63,170,7690,1,2,0:2:0:0:
77,72,8001,1,2,0:2:0:0:
213,13,8468,53,2,0:2:0:0:
339,90,8934,2,0,P|392:96|438:69,2,98.9999969787599,2|2|2,0:2|0:2|0:2,0:0:0:0:
254,141,9866,1,2,0:2:0:0:
290,232,10177,2,0,L|350:237,2,49.4999984893799,2|2|2,0:2|0:2|0:2,0:0:0:0:
243,256,10644,21,6,0:2:0:0:
104,182,11110,1,2,0:2:0:0:
52,271,11421,1,2,0:2:0:0:
88,369,11732,1,2,0:2:0:0:
192,371,12043,2,0,P|246:344|296:350,1,104.499997209549,2|2,0:2|0:2,0:0:0:0:
390,372,12664,1,2,0:2:0:0:
413,270,12975,1,2,0:2:0:0:
268,193,13442,53,2,0:2:0:0:
115,230,13908,2,0,L|104:125,1,104.499997209549,2|2,0:2|0:2,0:0:0:0:
148,31,14530,2,0,P|202:13|251:26,1,104.499997209549,2|2,0:2|0:2,0:0:0:0:
307,108,15151,2,0,L|297:169,2,52.2499986047745,2|2|2,0:2|0:2|0:2,0:0:0:0:
351,79,15618,1,2,0:2:0:0:
449,200,16084,21,2,0:2:0:0:
376,274,16395,1,2,0:2:0:0:
289,216,16706,1,2,0:2:0:0:
203,275,17017,2,0,B|152:290|152:290|106:261,1,104.499997209549,2|2,0:2|0:2,0:0:0:0:
71,164,17639,1,2,0:2:0:0:
110,67,17949,1,2,0:2:0:0:
248,140,18416,53,2,0:2:0:0:
212,292,18882,1,2,0:2:0:0:
310,328,19193,1,2,0:2:0:0:
407,290,19504,1,2,0:2:0:0:
443,192,19815,2,0,L|452:124,1,52.2499986047745,2|2,0:2|0:2,0:0:0:0:
418,98,20126,2,0,L|409:30,2,52.2499986047745,2|2|2,0:2|0:2|0:2,0:0:0:0:
374,126,20592,21,6,0:3:0:0:
35,140,23079,54,0,B|28:202|28:202|46:238|46:238|39:297,2,148.49999546814,6|2|2,0:2|0:2|0:2,0:0:0:0:
157,54,24478,1,2,0:2:0:0:
281,136,24944,2,0,P|321:157|378:144,1,98.9999969787599,2|2,0:2|0:2,0:0:0:0:
461,102,25566,2,0,B|429:195|483:168|457:255,2,148.49999546814,2|2|2,0:2|0:2|0:2,0:0:0:0:
270,329,27431,2,0,P|200:348|132:299,1,148.49999546814,2|0,0:2|3:0,0:0:0:0:
112,269,28053,22,0,B|122:228|96:192|96:192|122:169|115:119,2,148.49999546814,2|2|2,3:2|0:2|0:2,0:0:0:0:
238,188,29452,1,2,0:2:0:0:
370,257,29918,2,0,L|376:142,1,98.9999969787599,2|2,0:2|0:2,0:0:0:0:
415,66,30540,2,0,B|337:36|348:95|261:64,1,148.49999546814,2|2,0:2|0:2,0:0:0:0:
131,17,31473,1,2,0:2:0:0:
92,311,32405,2,0,B|142:324|142:324|192:301,1,98.9999969787599,2|0,0:2|0:0,0:0:0:0:
270,252,33027,54,0,P|282:301|387:291,2,165,6|2|2,3:2|0:2|0:2,0:0:0:0:
311,91,34426,1,2,0:2:0:0:
469,140,34892,2,0,P|483:196|467:248,1,110,2|2,0:2|0:2,0:0:0:0:
381,301,35514,2,0,B|311:297|311:297|301:287|301:287|210:283,2,165,2|2|2,0:2|0:2|0:2,0:0:0:0:
120,99,37379,2,0,B|206:118|182:42|273:55,1,165,2|0,0:2|3:0,0:0:0:0:
318,83,38001,22,0,L|491:59,2,165,2|2|2,3:2|0:2|0:2,0:0:0:0:
193,191,39400,1,2,0:2:0:0:
33,154,39866,1,2,0:2:0:0:
55,261,40177,1,2,0:2:0:0:
77,368,40488,2,0,B|125:366|148:328|148:328|166:362|213:369,1,165,2|2,0:2|0:2,0:0:0:0:
357,301,41421,1,2,0:2:0:0:
331,194,41732,54,0,P|289:186|212:204,1,110,0|0,3:0|3:0,0:0:0:0:
152,113,42354,1,0,3:0:0:0:
230,36,42664,2,0,P|270:49|298:49,1,55,8|8,0:2|0:2,0:0:0:0:
344,45,42975,6,0,P|382:44|424:132,1,121.000003692627,6|10,3:2|0:2,0:0:0:0:
392,220,43597,1,2,0:2:0:0:
392,220,43752,2,0,P|348:211|324:209,1,60.5000018463135,2|8,3:2|0:2,0:0:0:0:
274,225,44063,1,2,0:2:0:0:
164,173,44374,2,0,P|157:129|165:95,2,60.5000018463135,2|10|2,3:2|0:2|3:2,0:0:0:0:
145,231,44841,2,0,P|130:286|189:323,1,121.000003692627,2|8,0:2|0:2,0:0:0:0:
233,309,45307,1,2,0:2:0:0:
339,367,45618,22,0,L|350:291,1,60.5000018463135,2|8,0:2|0:2,0:0:0:0:
327,249,45929,2,0,P|368:204|439:217,1,121.000003692627,2|2,0:2|3:2,0:0:0:0:
475,249,46395,1,8,0:2:0:0:
475,249,46550,1,2,0:2:0:0:
488,128,46861,2,0,L|496:51,2,60.5000018463135,2|10|2,3:2|0:2|3:2,0:0:0:0:
372,89,47483,2,0,L|371:22,2,60.5000018463135,2|10|2,3:2|0:2|0:2,0:0:0:0:
342,142,47949,54,0,B|274:148|285:94|215:102,1,121.000003692627,2|8,3:2|0:2,0:0:0:0:
180,133,48416,2,0,P|159:191|174:254,1,121.000003692627,2|2,0:2|3:2,0:0:0:0:
211,292,48882,1,8,0:2:0:0:
326,327,49193,2,0,B|384:344|384:344|434:306,1,121.000003692627,0|8,3:0|0:2,0:0:0:0:
453,250,49659,1,0,3:0:0:0:
367,163,49970,2,0,L|306:173,1,60.5000018463135,2|10,3:2|0:2,0:0:0:0:
251,149,50281,1,2,0:2:0:0:
132,172,50592,22,0,P|108:216|139:291,1,121.000003692627,2|2,0:2|0:2,0:0:0:0:
218,352,51214,2,0,L|289:337,1,60.5000018463135,2|8,3:2|0:2,0:0:0:0:
336,350,51525,1,2,0:2:0:0:
336,350,51680,2,0,B|357:288|357:288|332:226,1,121.000003692627,0|8,3:0|0:2,0:0:0:0:
294,200,52146,1,0,3:0:0:0:
294,200,52302,2,0,B|273:138|273:138|298:76,1,121.000003692627,10|8,0:2|0:2,0:0:0:0:
412,61,52923,54,0,B|445:87|445:87|440:172,1,121.000003692627,6|8,3:2|0:2,0:0:0:0:
465,221,53390,2,0,P|450:275|392:291,1,121.000003692627,2|2,0:2|3:2,0:0:0:0:
341,257,53856,1,8,0:2:0:0:
225,294,54167,2,0,B|163:272|166:318|97:303,1,121.000003692627,0|8,3:0|0:2,0:0:0:0:
61,274,54633,1,2,3:2:0:0:
61,274,54789,2,0,P|52:229|57:198,2,60.5000018463135,2|2|10,0:2|3:2|0:2,0:0:0:0:
155,197,55411,22,0,B|217:178|217:178|274:207,1,121.000003692627,2|8,3:2|0:2,0:0:0:0:
327,203,55877,2,0,P|373:182|372:99,1,121.000003692627,2|2,0:2|3:2,0:0:0:0:
298,30,56499,2,0,B|234:57|249:-6|169:15,1,121.000003692627,2|0,0:2|3:0,0:0:0:0:
133,41,56965,1,8,0:2:0:0:
133,41,57120,1,2,3:2:0:0:
72,145,57431,2,0,P|30:122|1:124,2,60.5000018463135,2|10|2,3:2|0:2|0:2,0:0:0:0:
105,195,57898,54,0,B|105:245|105:245|92:264|92:264|93:316,1,121.000003692627,2|8,3:2|0:2,0:0:0:0:
121,365,58364,2,0,B|181:344|181:344|243:355,1,121.000003692627,2|2,0:2|3:2,0:0:0:0:
296,370,58830,1,8,0:2:0:0:
409,329,59141,2,0,L|417:269,1,60.5000018463135,0|0,3:0|3:0,0:0:0:0:
397,211,59452,1,10,0:2:0:0:
386,90,59763,1,2,0:2:0:0:
277,36,60074,1,10,0:2:0:0:
161,71,60385,22,0,P|167:117|151:198,1,121.000003692627,2|8,3:2|0:2,0:0:0:0:
123,242,60851,2,0,P|169:236|250:252,1,121.000003692627,2|0,0:2|3:0,0:0:0:0:
270,302,61317,2,0,P|329:290|389:295,1,121.000003692627,10|0,0:2|3:0,0:0:0:0:
444,321,61784,2,0,P|438:275|454:194,1,121.000003692627,2|0,3:2|3:0,0:0:0:0:
477,147,62250,1,10,0:2:0:0:
420,40,62561,1,10,0:2:0:0:
311,80,62872,70,0,L|318:21,2,55,6|2|2,1:2|1:2|1:2,0:0:0:0:
303,134,63338,2,0,P|260:95|203:93,2,110,2|2|2,1:2|1:2|1:2,0:0:0:0:
294,244,64271,2,0,L|301:303,2,55,2|2|2,1:2|1:2|1:2,0:0:0:0:
249,211,64737,2,0,P|211:204|183:213,1,55,2|2,1:2|1:2,0:0:0:0:
155,245,65048,1,2,1:2:0:0:
48,216,65359,54,0,L|52:286,2,55,2|2|2,1:2|1:2|1:2,0:0:0:0:
22,167,65825,2,0,L|29:42,2,110,2|2|2,1:2|1:2|1:2,0:0:0:0:
120,117,66758,2,0,L|124:47,2,55,2|2|2,1:2|1:2|1:2,0:0:0:0:
149,163,67224,2,0,P|178:173|202:168,1,55,2|2,1:2|1:2,0:0:0:0:
243,133,67535,1,2,1:2:0:0:
346,170,67846,22,0,P|352:130|350:104,2,55,2|2|2,1:2|1:2|1:2,0:0:0:0:
319,218,68312,2,0,P|319:272|329:326,1,110,2|2,1:2|1:2,0:0:0:0:
428,375,68934,1,2,1:2:0:0:
454,268,69245,2,0,P|494:262|520:264,2,55,2|2|2,1:2|1:2|1:2,0:0:0:0:
436,215,69711,2,0,L|444:137,1,55,2|2,1:2|1:2,0:0:0:0:
448,105,70022,1,2,1:2:0:0:
366,31,70333,54,0,P|389:11|419:1,2,55,2|2|2,1:2|1:2|1:2,0:0:0:0:
329,72,70799,2,0,P|281:25|225:37,2,110,2|2|2,1:2|1:2|1:2,0:0:0:0:
363,176,71732,2,0,L|357:231,2,55,2|2|2,1:2|1:2|1:2,0:0:0:0:
311,157,72198,2,0,B|254:146|254:146|203:189,1,110,2|2,1:2|1:2,0:0:0:0:
134,256,72820,22,0,L|142:325,2,55,2|2|2,3:2|1:2|1:2,0:0:0:0:
50,183,73442,2,0,L|63:74,1,110,8|0,0:2|1:0,0:0:0:0:
71,19,73908,1,2,1:2:0:0:
173,60,74219,2,0,L|165:-2,2,55,2|2|2,1:2|3:2|1:2,0:0:0:0:
217,92,74685,2,0,P|244:100|284:90,1,55,10|2,1:2|1:2,0:0:0:0:
323,83,74996,1,2,1:2:0:0:
403,158,75307,54,0,L|472:168,2,55,2|2|2,3:2|1:2|1:2,0:0:0:0:
425,266,75929,2,0,P|376:256|322:286,1,110,8|0,1:2|1:0,0:0:0:0:
306,334,76395,1,2,1:2:0:0:
196,329,76706,2,0,L|204:398,2,55,2|2|2,1:2|3:2|1:2,0:0:0:0:
165,282,77172,2,0,L|171:227,1,55,10|2,1:2|1:2,0:0:0:0:
179,172,77483,1,2,1:2:0:0:
240,80,77794,22,0,P|267:79|292:91,2,55,2|2|2,3:2|1:2|1:2,0:0:0:0:
160,3,78416,2,0,P|113:35|41:28,1,110,8|0,1:2|1:0,0:0:0:0:
11,12,78882,1,2,1:2:0:0:
23,121,79193,2,0,L|8:184,2,55,2|2|2,1:2|3:2|1:2,0:0:0:0:
66,155,79659,2,0,P|108:156|133:144,1,55,10|2,1:2|1:2,0:0:0:0:
167,124,79970,1,2,1:2:0:0:
274,147,80281,54,0,B|275:115|275:115|268:89,2,55,2|2|2,3:2|1:2|1:2,0:0:0:0:
348,228,80903,2,0,P|400:212|457:250,1,110,8|0,1:2|1:0,0:0:0:0:
472,284,81369,1,2,1:2:0:0:
408,373,81680,2,0,L|465:379,2,55,2|2|2,1:2|3:2|1:2,0:0:0:0:
352,374,82146,2,0,B|281:366|316:326|244:321,1,110,10|2,1:2|1:2,0:0:0:0:
207,334,82613,1,0,1:2:0:0:
207,334,82768,21,4,3:3:0:0:
427,356,92716,70,0,L|433:284,1,60.5000018463135,6|0,3:2|0:0,0:0:0:0:
412,238,93027,2,0,L|406:166,1,60.5000018463135,10|2,0:2|0:2,0:0:0:0:
418,118,93338,1,2,0:2:0:0:
418,118,93493,2,0,P|418:80|402:48,1,60.5000018463135,2|8,3:2|0:2,0:0:0:0:
351,41,93804,1,2,0:2:0:0:
242,95,94115,2,0,L|230:23,2,60.5000018463135,2|10|2,3:2|0:2|3:2,0:0:0:0:
252,155,94582,2,0,L|112:135,1,121.000003692627,2|10,0:2|0:2,0:0:0:0:
71,132,95048,1,2,0:2:0:0:
20,241,95359,22,0,P|19:284|35:321,2,60.5000018463135,2|10|2,0:2|0:2|0:2,0:0:0:0:
80,250,95825,2,0,L|150:260,1,60.5000018463135,2|2,0:2|3:2,0:0:0:0:
183,301,96136,2,0,L|253:291,1,60.5000018463135,10|2,0:2|0:2,0:0:0:0:
298,267,96447,2,0,P|317:314|396:326,1,121.000003692627,2|10,3:2|0:2,0:0:0:0:
481,263,97069,2,0,L|486:200,1,60.5000018463135,2|2,0:2|3:2,0:0:0:0:
469,144,97379,1,10,0:2:0:0:
503,27,97690,54,0,B|427:17|444:65|378:57,1,121.000003692627,2|10,3:2|0:2,0:0:0:0:
334,47,98157,1,2,0:2:0:0:
334,47,98312,2,0,P|342:99|340:135,1,60.5000018463135,2|2,0:2|3:2,0:0:0:0:
324,164,98623,2,0,P|316:216|318:252,1,60.5000018463135,10|2,0:2|0:2,0:0:0:0:
339,279,98934,1,2,3:2:0:0:
233,337,99245,1,10,0:2:0:0:
114,313,99556,2,0,P|106:261|108:225,1,60.5000018463135,2|2,0:2|3:2,0:0:0:0:
124,196,99867,2,0,P|132:144|130:108,1,60.5000018463135,10|2,0:2|0:2,0:0:0:0:
117,77,100177,22,0,P|169:37|229:56,1,121.000003692627,2|10,3:2|0:2,0:0:0:0:
295,142,100799,2,0,L|363:127,2,60.5000018463135,2|2|10,0:2|3:2|0:2,0:0:0:0:
248,179,101265,1,2,0:2:0:0:
248,179,101421,2,0,P|238:219|242:253,1,60.5000018463135,2|2,3:2|3:2,0:0:0:0:
270,289,101732,1,10,0:2:0:0:
385,277,102043,1,10,0:2:0:0:
445,171,102354,1,10,0:2:0:0:
376,64,102664,54,0,B|315:47|315:47|255:75,1,121.000003692627,6|10,3:2|0:2,0:0:0:0:
205,93,103131,1,2,0:2:0:0:
205,93,103286,2,0,P|166:77|139:77,1,60.5000018463135,2|2,0:2|3:2,0:0:0:0:
92,100,103597,1,10,0:2:0:0:
101,220,103908,2,0,P|106:286|106:356,1,121.000003692627,2|10,3:2|0:2,0:0:0:0:
218,285,104530,22,0,P|259:280|293:290,1,60.5000018463135,2|2,0:2|3:2,0:0:0:0:
333,306,104841,1,10,0:2:0:0:
440,267,105151,2,0,L|446:146,1,121.000003692627,2|10,3:2|0:2,0:0:0:0:
420,90,105618,1,2,0:2:0:0:
420,90,105773,2,0,P|346:62|301:80,1,121.000003692627,2|10,0:2|0:2,0:0:0:0:
234,169,106395,54,0,L|241:232,1,60.5000018463135,2|2,3:2|3:2,0:0:0:0:
273,280,106706,2,0,L|266:343,1,60.5000018463135,10|2,0:2|3:2,0:0:0:0:
217,376,107017,1,2,0:2:0:0:
97,356,107328,1,10,0:2:0:0:
31,253,107639,22,0,L|20:180,1,60.5000018463135,6|0,3:2|3:0,0:0:0:0:
16,133,107949,2,0,L|89:122,1,60.5000018463135,8|2,0:2|3:2,0:0:0:0:
135,115,108260,1,0,3:0:0:0:
227,201,108571,1,8,0:2:0:0:
343,167,108882,2,0,P|380:158|412:164,1,60.5000018463135,4|0,3:2|3:0,0:0:0:0:
446,202,109193,2,0,P|455:239|449:271,1,60.5000018463135,10|0,0:2|3:0,0:0:0:0:
411,305,109504,1,2,3:2:0:0:
296,267,109815,1,10,0:2:0:0:
190,325,110126,54,0,L|177:193,1,121.000003692627,6|8,3:2|0:2,0:0:0:0:
197,149,110592,1,2,3:2:0:0:
197,149,110747,2,0,P|167:96|103:100,1,121.000003692627,4|10,3:2|0:2,0:0:0:0:
61,118,111214,1,0,3:0:0:0:
61,118,111369,1,4,3:2:0:0:
12,229,111680,1,8,0:2:0:0:
64,338,111991,1,14,3:2:0:0:
172,281,112302,1,10,0:2:0:0:
172,281,112457,2,0,P|217:275|245:284,1,60.5000018463135,2|4,0:2|3:3,0:0:0:0:
256,192,112690,12,0,122561,0:0:0:0:
