osu file format v14

[General]
AudioFilename: audio.mp3
AudioLeadIn: 0
PreviewTime: 92639
Countdown: 0
SampleSet: Soft
StackLeniency: 0.2
Mode: 0
LetterboxInBreaks: 0
WidescreenStoryboard: 1

[Editor]
Bookmarks: 10644,20592,23079,33027,42975,62872,72820,82768,92716,106084,112613
DistanceSpacing: 0.5
BeatDivisor: 4
GridSize: 8
TimelineZoom: 3.099998

[Metadata]
Title:Hemisphere
TitleUnicode:Hemisphere
Artist:ARForest
ArtistUnicode:ARForest
Creator:- ascended -
Version:Insane
Source:osu!
Tags:-ascended- artcore art core featured artist fa mappers' guild mpg mg electronic instrumental frost era drum 'n' bass dnb and d&b d'n'b house piano glitch dynamix overrapid over rapid
BeatmapID:2618743
BeatmapSetID:1253551

[Difficulty]
HPDrainRate:5
CircleSize:3.8
OverallDifficulty:8
ApproachRate:9
SliderMultiplier:1.6
SliderTickRate:1

[Events]
//Background and Video events
0,0,"omg thank you nasa for releasing images in the public domain omg.jpg",0,0
//Break Periods
2,82968,91805
//Storyboard Layer 0 (Background)
//Storyboard Layer 1 (Fail)
//Storyboard Layer 2 (Pass)
//Storyboard Layer 3 (Foreground)
//Storyboard Layer 4 (Overlay)
//Storyboard Sound Samples

[TimingPoints]
696,310.880829015544,4,2,1,55,1,0
10644,-100,4,2,1,60,0,0
10993,-100,4,2,1,60,0,0
11110,-100,4,2,1,60,0,0
20592,-100,4,2,1,57,0,0
23001,-100,4,2,1,5,0,0
23079,-133.333333333333,4,2,1,50,0,0
27353,-100,4,2,1,5,0,0
27431,-200,4,2,1,50,0,0
27819,-200,4,2,1,5,0,0
27898,-200,4,2,1,50,0,0
28053,-133.333333333333,4,2,1,50,0,0
32327,-133.333333333333,4,2,1,5,0,0
32375,-133.333333333333,4,2,1,50,0,0
32405,-200,4,2,1,50,0,0
32949,-200,4,2,1,5,0,0
33027,-133.333333333333,4,2,1,50,0,0
37301,-133.333333333333,4,2,1,5,0,0
37349,-133.333333333333,4,2,1,50,0,0
37379,-200,4,2,1,50,0,0
37767,-200,4,2,1,5,0,0
37846,-200,4,2,1,50,0,0
38001,-133.333333333333,4,2,1,50,0,0
41732,-100,4,2,1,60,0,0
42975,-83.3333333333333,4,2,1,75,0,1
43208,-83.3333333333333,4,2,1,5,0,1
43286,-83.3333333333333,4,2,1,75,0,1
62872,-111.111111111111,4,2,1,55,0,0
67379,-111.111111111111,4,2,1,55,0,0
72820,-111.111111111111,4,2,2,60,0,0
72975,-111.111111111111,4,2,1,60,0,0
74374,-111.111111111111,4,2,2,60,0,0
74530,-111.111111111111,4,2,1,60,0,0
75306,-111.111111111111,4,2,2,60,0,0
75462,-111.111111111111,4,2,1,60,0,0
76861,-111.111111111111,4,2,2,60,0,0
77017,-111.111111111111,4,2,1,60,0,0
77793,-111.111111111111,4,2,2,60,0,0
77949,-111.111111111111,4,2,1,60,0,0
79348,-111.111111111111,4,2,2,60,0,0
79504,-111.111111111111,4,2,1,60,0,0
80281,-111.111111111111,4,2,2,60,0,0
80436,-111.111111111111,4,2,1,60,0,0
81835,-111.111111111111,4,2,2,60,0,0
81913,-111.111111111111,4,2,1,60,0,0
81991,-111.111111111111,4,2,1,60,0,0
82768,-111.111111111111,4,2,2,57,0,0
92405,-111.111111111111,4,2,1,60,0,0
92716,-83.3333333333333,4,2,1,75,0,1
92949,-83.3333333333333,4,2,1,5,0,1
93027,-83.3333333333333,4,2,1,75,0,1
97923,-83.3333333333333,4,2,1,5,0,1
98001,-83.3333333333333,4,2,1,75,0,1
100410,-83.3333333333333,4,2,1,5,0,1
100488,-83.3333333333333,4,2,1,75,0,1
102897,-83.3333333333333,4,2,1,5,0,1
102975,-83.3333333333333,4,2,1,75,0,1
107639,-83.3333333333333,4,2,1,77,0,1
110126,-83.3333333333333,4,2,1,80,0,1
111369,-83.3333333333333,4,2,1,85,0,1
111680,-83.3333333333333,4,2,1,85,0,1
112302,-83.3333333333333,4,2,1,85,0,1
112613,-83.3333333333333,4,2,1,85,0,0
112690,-83.3333333333333,4,2,1,10,0,0
122561,-83.3333333333333,4,2,1,5,0,0

[Colours]
Combo1 : 255,181,120
Combo2 : 117,186,209
Combo3 : 255,238,238
Combo4 : 136,163,255
Combo5 : 255,86,86
Combo6 : 255,136,136

[HitObjects]
53,325,696,21,6,0:2:0:0:
99,148,1162,1,2,0:2:0:0:
179,125,1473,1,2,0:2:0:0:
254,160,1784,1,2,0:2:0:0:
336,164,2094,1,2,0:2:0:0:
413,134,2405,1,2,0:2:0:0:
382,340,2716,1,2,0:2:0:0:
211,239,3027,1,2,0:2:0:0:
211,239,3493,53,2,0:2:0:0:
276,49,3960,1,2,0:2:0:0:
195,27,4271,1,2,0:2:0:0:
119,62,4582,1,2,0:2:0:0:
129,144,4892,1,2,0:2:0:0:
123,287,5203,21,2,0:2:0:0:
233,238,5359,1,2,0:2:0:0:
93,295,5514,1,2,0:2:0:0:
276,344,5670,1,2,0:2:0:0:
276,344,6136,53,2,0:2:0:0:
357,359,6447,1,2,0:2:0:0:
435,331,6758,1,2,0:2:0:0:
468,254,7069,1,2,0:2:0:0:
441,175,7379,1,2,0:2:0:0:
266,233,7690,1,2,0:2:0:0:
435,331,8001,1,2,0:2:0:0:
435,331,8468,21,2,0:2:0:0:
240,368,8934,1,2,0:2:0:0:
165,339,9245,1,2,0:2:0:0:
87,357,9556,1,2,0:2:0:0:
32,298,9866,1,2,0:2:0:0:
99,142,10177,53,2,0:2:0:0:
250,181,10333,1,2,0:2:0:0:
174,76,10488,1,2,0:2:0:0:
216,250,10644,22,0,B|259:269|291:247|291:247|329:221|372:243,1,160,6|0,0:2|0:0,0:0:0:0:
250,181,11110,1,2,0:2:0:0:
276,105,11421,1,2,0:2:0:0:
240,33,11732,1,2,0:2:0:0:
316,8,12043,1,2,0:2:0:0:
383,51,12354,1,2,0:2:0:0:
345,211,12664,1,2,0:2:0:0:
212,129,12975,54,0,B|155:119|155:119|143:127|143:127|54:116,1,160,2|0,0:2|0:0,0:0:0:0:
172,211,13442,1,2,0:2:0:0:
108,363,13908,1,2,0:2:0:0:
189,350,14219,1,2,0:2:0:0:
264,322,14530,1,2,0:2:0:0:
332,363,14841,1,2,0:2:0:0:
400,196,15151,21,2,0:2:0:0:
237,287,15307,1,2,0:2:0:0:
432,346,15462,1,2,0:2:0:0:
408,172,15618,53,2,0:2:0:0:
408,172,16084,1,2,0:2:0:0:
332,145,16395,1,2,0:2:0:0:
288,212,16706,1,2,0:2:0:0:
215,245,17017,1,2,0:2:0:0:
142,210,17328,1,2,0:2:0:0:
215,29,17639,1,2,0:2:0:0:
47,123,17949,22,0,B|104:113|104:113|116:121|116:121|205:110,1,160,2|0,0:2|0:0,0:0:0:0:
81,41,18416,1,2,0:2:0:0:
15,308,18882,1,2,0:2:0:0:
89,337,19193,1,2,0:2:0:0:
167,322,19504,1,2,0:2:0:0:
243,346,19815,53,2,0:2:0:0:
318,194,19970,1,2,0:2:0:0:
318,194,20048,1,2,0:2:0:0:
318,194,20126,1,2,0:2:0:0:
424,328,20281,1,2,0:2:0:0:
235,248,20436,2,0,L|186:230,1,40,2|0,0:2|0:0,0:0:0:0:
392,141,20592,21,6,0:3:0:0:
256,192,20670,12,0,23001,2:0:0:0:
99,345,23079,54,0,B|95:264|95:264|101:260|101:260|95:158,2,180.000006866455,6|2|2,0:2|0:2|0:2,0:0:0:0:
234,224,24478,1,2,0:2:0:0:
402,303,24944,2,0,P|397:243|396:181,1,120.000004577637,2|2,0:2|0:2,0:0:0:0:
420,65,25566,2,0,B|372:42|334:76|334:76|306:22|239:36,1,180.000006866455,2|2,0:2|0:2,0:0:0:0:
151,187,26499,2,0,P|169:263|172:165,1,330.000012588501,2|0,0:2|2:0,0:0:0:0:
151,187,27431,2,0,P|98:198|54:175,1,100,2|0,0:2|2:0,0:0:0:0:
48,162,27898,1,0,3:0:0:0:
141,35,28053,22,0,B|245:17|225:78|330:57,2,180.000006866455,2|2|2,3:2|0:2|0:2,0:0:0:0:
269,177,29452,1,2,0:2:0:0:
146,317,29918,2,0,B|204:336|204:336|265:318,1,120.000004577637,2|2,0:2|0:2,0:0:0:0:
388,363,30540,2,0,B|381:272|381:272|388:261|388:261|382:182,1,180.000006866455,2|2,0:2|0:2,0:0:0:0:
194,78,31473,2,0,B|128:104|121:207|196:252|196:252|229:247|268:190|216:145,1,330.000012588501,2|0,0:2|2:0,0:0:0:0:
221,163,32405,2,0,P|210:226|230:309,1,140,2|0,0:2|2:0,0:0:0:0:
240,354,33027,54,0,P|160:329|56:331,2,180.000006866455,6|2|2,3:2|0:2|0:2,0:0:0:0:
425,333,34426,1,2,0:2:0:0:
323,166,34892,2,0,B|256:144|262:197|192:178,1,120.000004577637,2|2,0:2|0:2,0:0:0:0:
89,174,35514,2,0,B|78:131|116:95|116:95|69:71|72:1,1,180.000006866455,2|2,0:2|0:2,0:0:0:0:
270,63,36447,2,0,B|333:85|372:30|372:30|393:122|507:132|505:30|430:43,1,330.000012588501,2|0,0:2|2:0,0:0:0:0:
425,53,37379,2,0,L|421:158,1,100,2|0,0:2|2:0,0:0:0:0:
422,174,37846,1,0,3:0:0:0:
261,150,38001,22,0,B|154:137|182:188|76:182,2,180.000006866455,2|2|2,3:2|0:2|0:2,0:0:0:0:
381,293,39400,1,2,0:2:0:0:
207,364,39866,2,0,B|202:302|202:302|210:295|210:295|203:240,1,120.000004577637,2|2,0:2|0:2,0:0:0:0:
199,102,40488,2,0,P|155:122|134:51,1,120.000004577637,2|0,0:2|0:0,0:0:0:0:
279,30,40955,2,0,B|301:90|301:90|284:146,1,120.000004577637,2|0,0:2|0:0,0:0:0:0:
165,205,41421,2,0,P|193:202|237:213,1,60.0000022888184,2|0,0:2|0:0,0:0:0:0:
291,352,41732,54,0,L|287:255,1,80,0|0,3:0|3:0,0:0:0:0:
307,237,41965,1,0,3:0:0:0:
307,237,42043,2,0,P|350:223|385:235,1,80,0|0,3:0|3:0,0:0:0:0:
473,353,42354,2,0,L|477:256,1,80,0|0,3:0|3:0,0:0:0:0:
505,162,42664,21,8,0:2:0:0:
503,132,42741,1,8,0:2:0:0:
502,102,42819,1,8,0:2:0:0:
501,72,42897,1,8,0:2:0:0:
500,42,42975,70,0,B|431:14|431:14|364:31,1,143.999995605469,6|0,3:2|2:0,0:0:0:0:
297,82,43286,2,0,L|301:180,1,95.9999970703126,10|2,0:2|0:2,0:0:0:0:
307,312,43597,1,2,0:2:0:0:
154,244,43752,2,0,P|201:230|252:245,1,95.9999970703126,2|8,3:2|0:2,0:0:0:0:
76,311,44063,22,0,B|48:261|48:261|71:119,1,191.999994140625,2|2,0:2|3:2,0:0:0:0:
245,241,44530,2,0,P|198:255|147:240,1,95.9999970703126,10|2,0:2|3:2,0:0:0:0:
76,112,44841,1,2,0:2:0:0:
259,65,44996,2,0,B|270:114|270:114|258:165,1,95.9999970703126,2|8,3:2|0:2,0:0:0:0:
88,184,45307,54,0,L|84:77,1,95.9999970703126,2|0,0:2|3:0,0:0:0:0:
259,65,45618,2,0,L|255:160,1,95.9999970703126,2|8,0:2|0:2,0:0:0:0:
92,280,45929,2,0,L|88:173,1,95.9999970703126,2|0,0:2|0:0,0:0:0:0:
255,160,46240,2,0,L|251:255,1,95.9999970703126,2|8,3:2|0:2,0:0:0:0:
156,353,46550,22,0,B|265:318|233:387|346:358,1,191.999994140625,2|2,0:2|3:2,0:0:0:0:
441,223,47017,1,10,0:2:0:0:
285,137,47172,2,0,B|297:282|297:282|316:236,1,191.999994140625,2|2,3:2|3:2,0:0:0:0:
357,83,47639,1,10,0:2:0:0:
196,184,47794,1,2,0:2:0:0:
398,251,47949,54,0,P|469:206|398:175,1,191.999994140625,2|8,3:2|0:2,0:0:0:0:
240,255,48416,2,0,P|194:269|147:255,1,95.9999970703126,2|0,0:2|0:0,0:0:0:0:
262,95,48727,2,0,B|292:119|292:119|286:182,1,95.9999970703126,2|8,3:2|0:2,0:0:0:0:
82,211,49037,2,0,B|77:126|77:126|84:111|84:111|77:15,1,191.999994140625,2|0,0:2|3:0,0:0:0:0:
0,167,49504,1,8,0:2:0:0:
166,249,49659,2,0,L|158:147,1,95.9999970703126,0|0,3:0|0:0,0:0:0:0:
87,296,49970,1,2,3:2:0:0:
156,124,50126,1,10,0:2:0:0:
261,248,50281,22,0,P|307:260|350:234,1,95.9999970703126,2|0,0:2|3:0,0:0:0:0:
321,60,50592,2,0,B|288:90|288:90|297:154,1,95.9999970703126,2|8,0:2|0:2,0:0:0:0:
471,222,50903,2,0,L|479:120,1,95.9999970703126,2|0,0:2|3:2,0:0:0:0:
286,159,51214,2,0,P|278:203|303:254,1,95.9999970703126,2|8,3:2|0:2,0:0:0:0:
389,353,51525,54,0,B|293:346|293:346|284:352|284:352|190:344,1,191.999994140625,2|0,0:2|3:0,0:0:0:0:
76,363,51991,2,0,B|61:318|61:318|74:264,1,95.9999970703126,8|0,0:2|3:0,0:0:0:0:
128,206,52224,1,0,3:0:0:0:
128,206,52302,2,0,L|226:200,1,95.9999970703126,10|0,0:2|3:0,0:0:0:0:
310,218,52535,1,0,3:0:0:0:
310,218,52613,2,0,P|332:159|304:119,1,95.9999970703126,8|0,0:2|3:0,0:0:0:0:
207,29,52923,21,6,3:2:0:0:
319,132,53079,2,0,B|365:145|365:145|414:124,1,95.9999970703126,2|8,0:2|0:2,0:0:0:0:
195,40,53390,2,0,P|170:88|197:134,1,95.9999970703126,2|0,0:2|0:0,0:0:0:0:
280,220,53701,2,0,P|226:207|172:214,1,95.9999970703126,2|8,3:2|0:2,0:0:0:0:
103,347,54012,54,0,B|136:248|63:274|102:159,1,191.999994140625,2|0,0:2|3:0,0:0:0:0:
33,309,54478,1,8,0:2:0:0:
207,220,54633,1,2,3:2:0:0:
207,220,54711,1,2,0:2:0:0:
207,220,54789,2,0,L|202:315,1,95.9999970703126,2|2,0:2|3:2,0:0:0:0:
19,318,55100,2,0,L|14:215,1,95.9999970703126,10|2,0:2|0:2,0:0:0:0:
120,56,55411,22,0,B|154:125|115:200|115:200|109:167|91:147,1,191.999994140625,2|8,3:2|0:2,0:0:0:0:
213,69,55877,2,0,P|221:116|212:173,1,95.9999970703126,2|0,0:2|0:0,0:0:0:0:
152,270,56188,2,0,P|207:248|249:273,1,95.9999970703126,2|8,3:2|0:2,0:0:0:0:
323,350,56499,54,0,B|320:268|320:268|329:242|329:242|324:150,1,191.999994140625,2|0,0:2|3:0,0:0:0:0:
319,54,56965,1,8,0:2:0:0:
236,202,57120,2,0,L|229:106,1,95.9999970703126,2|0,3:2|0:0,0:0:0:0:
322,36,57431,1,2,3:2:0:0:
236,202,57587,2,0,B|188:216|188:216|140:190,1,95.9999970703126,10|2,0:2|0:2,0:0:0:0:
355,132,57898,22,0,B|348:276|348:276|323:219,1,191.999994140625,2|8,3:2|0:2,0:0:0:0:
435,147,58364,2,0,L|431:257,1,95.9999970703126,2|0,0:2|0:0,0:0:0:0:
265,287,58675,2,0,P|249:242|257:191,1,95.9999970703126,2|8,3:2|0:2,0:0:0:0:
400,363,58986,54,0,B|295:318|317:408|205:356,1,191.999994140625,2|0,0:2|3:0,0:0:0:0:
255,195,59452,2,0,P|271:240|263:291,1,95.9999970703126,10|0,0:2|3:0,0:0:0:0:
92,317,59763,2,0,L|96:215,1,95.9999970703126,2|0,0:2|3:0,0:0:0:0:
268,180,60074,2,0,L|271:275,1,95.9999970703126,10|0,0:2|0:0,0:0:0:0:
95,221,60385,22,0,L|103:17,1,191.999994140625,2|8,3:2|0:2,0:0:0:0:
228,101,60851,2,0,B|336:79|301:151|416:129,1,191.999994140625,2|0,0:2|3:0,0:0:0:0:
305,240,61317,2,0,B|283:225|267:202|267:202|281:343,1,191.999994140625,10|0,0:2|3:0,0:0:0:0:
450,372,61784,2,0,P|524:346|467:275,1,191.999994140625,2|0,3:2|3:0,0:0:0:0:
452,296,62172,1,0,3:0:0:0:
452,296,62250,54,0,P|401:304|347:294,1,95.9999970703126,10|0,0:2|3:0,0:0:0:0:
229,225,62561,2,0,P|181:218|134:226,1,95.9999970703126,10|2,0:2|0:2,0:0:0:0:
7,350,62872,6,0,P|3:308|-3:260,2,71.9999978027344,6|2|2,1:2|1:2|1:2,0:0:0:0:
128,371,63338,2,0,P|179:338|258:348,2,143.999995605469,2|2|2,1:2|1:2|1:2,0:0:0:0:
348,231,64271,53,2,1:2:0:0:
346,251,64349,1,0,1:0:0:0:
343,270,64426,1,2,1:2:0:0:
363,114,64582,1,2,1:2:0:0:
261,184,64737,2,0,P|216:194|169:184,2,71.9999978027344,2|2|2,1:2|1:2|1:2,0:0:0:0:
363,114,65203,21,2,1:2:0:0:
366,95,65280,1,0,1:0:0:0:
368,75,65358,1,2,1:2:0:0:
243,33,65514,2,0,L|249:84,2,35.9999989013672,2|0|2,1:2|1:0|1:2,0:0:0:0:
261,184,65825,1,2,1:2:0:0:
363,114,65980,2,0,P|398:111|433:121,2,71.9999978027344,0|2|0,1:0|1:2|1:0,0:0:0:0:
278,168,66447,1,2,1:2:0:0:
415,279,66758,53,2,1:2:0:0:
434,282,66835,1,0,1:0:0:0:
454,284,66913,1,2,1:2:0:0:
332,339,67069,1,2,1:2:0:0:
247,211,67224,1,2,1:2:0:0:
415,279,67379,54,0,L|420:250,4,17.9999994506836,2|0|0|0|2,1:2|1:0|1:0|1:0|1:2,0:0:0:0:
250,343,67690,53,2,1:2:0:0:
247,324,67767,1,0,1:0:0:0:
245,304,67845,1,2,1:2:0:0:
346,208,68001,2,0,L|340:259,2,35.9999989013672,2|0|2,1:2|1:0|1:2,0:0:0:0:
223,118,68312,1,2,1:2:0:0:
163,260,68468,2,0,P|127:269|80:249,2,71.9999978027344,0|2|0,1:0|1:2|1:0,0:0:0:0:
266,191,68934,1,2,1:2:0:0:
46,143,69245,53,2,1:2:0:0:
48,163,69323,1,0,1:0:0:0:
51,182,69400,1,2,1:2:0:0:
31,26,69556,1,2,1:2:0:0:
166,109,69711,2,0,P|201:118|248:98,2,71.9999978027344,2|2|2,1:2|1:2|1:2,0:0:0:0:
64,44,70177,21,2,1:2:0:0:
66,64,70255,1,0,1:0:0:0:
69,83,70332,1,2,1:2:0:0:
230,144,70488,2,0,L|234:108,2,35.9999989013672,2|0|2,1:2|1:0|1:2,0:0:0:0:
79,188,70799,1,2,1:2:0:0:
209,296,70955,2,0,L|217:224,2,71.9999978027344,0|2|0,1:0|1:2|1:0,0:0:0:0:
102,208,71421,1,2,1:2:0:0:
57,352,71732,53,2,1:2:0:0:
37,354,71810,1,0,1:0:0:0:
18,357,71887,1,2,1:2:0:0:
204,328,72043,1,2,1:2:0:0:
104,188,72198,54,0,L|106:159,6,17.9999994506836,2|0|0|0|2|0|0,1:2|1:0|1:0|1:0|1:2|1:0|1:0,0:0:0:0:
102,208,72509,53,2,1:2:0:0:
222,181,72664,1,2,1:2:0:0:
242,183,72742,1,0,1:0:0:0:
261,186,72819,53,2,3:2:0:0:
391,236,72975,1,2,1:2:0:0:
411,238,73053,1,0,1:2:0:0:
430,241,73130,1,2,1:2:0:0:
376,142,73286,1,2,1:2:0:0:
306,276,73442,2,0,L|313:362,1,71.9999978027344,8|2,0:2|1:2,0:0:0:0:
440,380,73752,1,0,1:0:0:0:
440,380,73908,1,2,1:2:0:0:
381,56,74219,21,2,1:2:0:0:
362,59,74296,1,0,1:0:0:0:
342,61,74374,1,2,3:2:0:0:
492,88,74530,1,2,1:2:0:0:
336,150,74685,2,0,L|248:138,1,71.9999978027344,10|2,1:2|1:2,0:0:0:0:
446,167,74996,1,2,1:2:0:0:
306,276,75151,53,2,1:2:0:0:
303,257,75228,1,0,1:0:0:0:
301,237,75306,1,2,3:2:0:0:
434,278,75462,2,0,L|428:319,2,35.9999989013672,2|0|2,1:2|1:0|1:2,0:0:0:0:
322,378,75773,1,2,1:2:0:0:
210,314,75929,2,0,P|175:306|140:315,1,71.9999978027344,8|2,1:2|1:2,0:0:0:0:
301,237,76240,1,0,1:0:0:0:
301,237,76395,1,2,1:2:0:0:
141,169,76706,21,2,1:2:0:0:
143,189,76784,1,0,1:0:0:0:
146,208,76861,1,2,3:2:0:0:
126,52,77017,1,2,1:2:0:0:
232,121,77172,2,0,P|275:130|321:115,1,71.9999978027344,10|2,1:2|1:2,0:0:0:0:
332,105,77405,22,0,L|336:81,2,17.9999994506836,0|0|2,1:0|1:0|1:2,0:0:0:0:
341,224,77639,53,2,1:2:0:0:
339,244,77717,1,0,1:0:0:0:
336,263,77794,1,2,3:2:0:0:
210,314,77949,2,0,L|204:278,2,35.9999989013672,2|0|2,1:2|1:0|1:2,0:0:0:0:
324,381,78260,1,2,1:2:0:0:
202,257,78416,2,0,L|191:185,1,71.9999978027344,8|2,1:2|1:2,0:0:0:0:
306,81,78727,1,0,1:0:0:0:
306,81,78882,1,2,1:2:0:0:
202,257,79193,53,2,1:2:0:0:
182,255,79271,1,0,1:0:0:0:
163,252,79348,1,2,3:2:0:0:
304,200,79504,1,2,1:2:0:0:
207,326,79659,2,0,P|197:279|207:247,1,71.9999978027344,10|2,1:2|1:2,0:0:0:0:
302,376,79970,1,2,1:2:0:0:
424,323,80126,1,2,1:2:0:0:
444,321,80204,1,0,1:0:0:0:
463,318,80281,21,2,3:2:0:0:
350,236,80436,2,0,L|314:230,2,35.9999989013672,2|0|2,1:2|1:0|1:2,0:0:0:0:
475,174,80747,1,2,1:2:0:0:
357,58,80903,2,0,B|339:74|339:74|342:128,1,71.9999978027344,8|2,1:2|1:2,0:0:0:0:
348,155,81136,1,0,1:2:0:0:
348,155,81214,1,0,1:0:0:0:
484,74,81369,1,2,1:2:0:0:
350,236,81680,53,2,1:2:0:0:
330,234,81758,1,0,1:0:0:0:
310,231,81835,2,0,L|266:227,2,35.9999989013672,2|0|2,3:2|1:0|1:2,0:0:0:0:
206,328,82146,54,0,L|202:302,6,17.9999994506836,10|0|0|0|2|0|0,1:2|1:0|1:0|1:0|1:2|1:0|1:0,0:0:0:0:
246,313,82457,54,0,P|268:316|296:312,1,35.9999989013672,2|0,1:2|1:2,0:0:0:0:
92,350,82613,2,0,P|70:353|42:349,1,35.9999989013672,0|0,1:2|1:2,0:0:0:0:
144,178,82768,53,4,3:3:0:0:
115,87,92405,21,8,0:2:0:0:
134,68,92482,1,8,0:2:0:0:
158,58,92560,1,8,0:2:0:0:
185,58,92638,1,8,0:2:0:0:
212,67,92716,70,0,B|216:122|216:122|201:147|201:147|206:215,1,143.999995605469,6|0,3:2|2:0,0:0:0:0:
261,274,93027,2,0,P|310:284|350:264,1,95.9999970703126,10|2,0:2|0:2,0:0:0:0:
449,171,93338,1,2,0:2:0:0:
358,359,93493,2,0,L|349:261,1,95.9999970703126,2|8,3:2|0:2,0:0:0:0:
406,98,93804,1,2,0:2:0:0:
241,191,93960,21,0,3:0:0:0:
415,82,94115,1,2,3:2:0:0:
349,263,94271,2,0,L|340:165,1,95.9999970703126,10|2,0:2|3:2,0:0:0:0:
336,94,94504,1,0,0:0:0:0:
336,94,94582,1,2,0:2:0:0:
485,132,94737,2,0,P|495:181|476:226,1,95.9999970703126,2|10,3:2|0:2,0:0:0:0:
349,263,95048,54,0,B|245:242|260:315|152:284,1,191.999994140625,2|2,0:2|0:2,0:0:0:0:
212,110,95514,2,0,L|203:205,1,95.9999970703126,10|2,0:2|0:2,0:0:0:0:
70,297,95825,1,2,0:2:0:0:
66,261,95902,1,2,0:2:0:0:
63,225,95980,1,2,3:2:0:0:
60,189,96058,1,2,0:2:0:0:
57,154,96136,2,0,L|52:106,3,47.9999985351563,10|2|2|2,0:2|0:2|0:2|0:2,0:0:0:0:
142,103,96447,21,2,3:2:0:0:
177,100,96524,1,0,0:0:0:0:
212,110,96602,1,2,3:2:0:0:
245,124,96680,1,2,0:2:0:0:
280,124,96758,2,0,L|284:76,3,47.9999985351563,10|0|2|0,0:2|0:0|3:2|0:0,0:0:0:0:
373,143,97069,2,0,L|377:190,3,47.9999985351563,2|2|2|2,0:2|0:2|3:2|0:2,0:0:0:0:
402,116,97379,1,10,0:2:0:0:
405,151,97456,1,2,0:2:0:0:
408,187,97534,1,2,0:2:0:0:
411,223,97612,1,2,0:2:0:0:
415,259,97690,54,0,B|356:305|356:305|291:260,1,143.999995605469,2|0,3:2|2:0,0:0:0:0:
233,210,98001,2,0,B|207:236|207:236|214:309,1,95.9999970703126,10|2,0:2|0:2,0:0:0:0:
89,359,98312,2,0,L|84:307,3,47.9999985351563,2|2|2|2,0:2|0:2|3:2|0:2,0:0:0:0:
116,225,98623,2,0,L|120:177,3,47.9999985351563,10|2|2|2,0:2|0:2|0:2|0:2,0:0:0:0:
212,294,98934,22,0,L|197:133,1,143.999995605469,2|2,3:2|0:2,0:0:0:0:
146,84,99245,2,0,P|192:66|235:77,1,95.9999970703126,10|2,0:2|3:2,0:0:0:0:
319,171,99556,1,2,0:2:0:0:
350,188,99633,1,2,0:2:0:0:
385,195,99711,1,2,3:2:0:0:
420,191,99789,1,2,0:2:0:0:
453,176,99866,2,0,P|458:123|419:98,1,95.9999970703126,10|2,0:2|0:2,0:0:0:0:
319,171,100177,54,0,B|325:226|325:226|303:256|303:256|308:314,1,143.999995605469,2|0,3:2|2:0,0:0:0:0:
366,366,100488,2,0,P|429:375|461:355,1,95.9999970703126,10|2,0:2|0:2,0:0:0:0:
499,253,100799,1,2,0:2:0:0:
502,218,100876,1,2,0:2:0:0:
505,182,100954,1,2,3:2:0:0:
508,146,101032,1,2,0:2:0:0:
512,109,101110,2,0,P|467:85|424:102,1,95.9999970703126,10|2,0:2|0:2,0:0:0:0:
331,229,101421,21,2,3:2:0:0:
284,222,101498,1,2,0:2:0:0:
251,206,101576,1,2,3:2:0:0:
219,228,101654,1,2,0:2:0:0:
174,241,101732,54,0,P|130:206|145:152,1,95.9999970703126,10|2,0:2|3:2,0:0:0:0:
178,97,101965,1,2,3:2:0:0:
178,97,102043,2,0,B|220:76|220:76|274:91,1,95.9999970703126,10|2,0:2|3:2,0:0:0:0:
353,121,102276,1,2,3:2:0:0:
353,121,102354,2,0,B|395:142|395:142|449:127,1,95.9999970703126,10|2,0:2|3:2,0:0:0:0:
486,213,102664,22,0,B|483:327|483:327|474:302|463:291,1,143.999995605469,6|0,3:2|2:0,0:0:0:0:
401,351,102975,2,0,P|354:321|316:330,1,95.9999970703126,10|2,0:2|0:2,0:0:0:0:
237,362,103286,1,2,0:2:0:0:
237,326,103363,1,2,0:2:0:0:
233,290,103441,1,2,3:2:0:0:
224,255,103519,1,2,0:2:0:0:
211,221,103597,2,0,P|180:207|144:206,3,47.9999985351563,10|2|2|2,0:2|0:2|0:2|0:2,0:0:0:0:
314,212,103908,54,0,P|335:158|321:121,1,95.9999970703126,2|2,3:2|3:2,0:0:0:0:
157,78,104219,2,0,L|164:175,1,95.9999970703126,10|2,0:2|3:2,0:0:0:0:
233,290,104530,1,2,0:2:0:0:
198,287,104607,1,2,0:2:0:0:
165,301,104685,1,2,3:2:0:0:
132,315,104763,1,2,0:2:0:0:
96,310,104841,2,0,L|77:255,3,47.9999985351563,10|2|2|2,0:2|0:2|0:2|0:2,0:0:0:0:
163,173,105151,21,2,3:2:0:0:
202,164,105228,1,2,0:2:0:0:
241,162,105306,1,2,0:2:0:0:
280,170,105384,1,2,0:2:0:0:
315,187,105461,1,10,0:2:0:0:
352,203,105539,1,2,0:2:0:0:
391,210,105617,1,2,0:2:0:0:
430,207,105695,1,2,0:2:0:0:
469,199,105773,2,0,L|481:140,3,47.9999985351563,2|2|2|2,0:2|0:2|3:2|0:2,0:0:0:0:
443,57,106084,2,0,L|431:-3,3,47.9999985351563,10|2|2|2,0:2|0:2|0:2|0:2,0:0:0:0:
301,40,106395,53,2,3:2:0:0:
304,75,106472,1,2,0:2:0:0:
307,111,106550,1,2,3:2:0:0:
310,147,106628,1,2,0:2:0:0:
300,181,106705,1,10,0:2:0:0:
301,216,106783,1,2,0:2:0:0:
304,252,106861,1,2,3:2:0:0:
307,287,106939,1,2,0:2:0:0:
310,323,107017,2,0,P|343:316|370:319,3,47.9999985351563,2|2|2|2,0:2|0:2|3:2|0:2,0:0:0:0:
223,363,107328,2,0,P|199:362|175:356,3,47.9999985351563,10|2|2|2,0:2|0:2|0:2|0:2,0:0:0:0:
137,291,107639,21,6,3:2:0:0:
284,244,107794,1,0,3:0:0:0:
284,244,107872,1,0,3:0:0:0:
284,244,107949,1,8,0:2:0:0:
156,148,108105,1,2,3:2:0:0:
101,308,108260,2,0,L|93:209,1,95.9999970703126,0|2,3:0|3:2,0:0:0:0:
232,80,108571,2,0,B|253:105|253:105|248:176,1,95.9999970703126,8|2,0:2|3:2,0:0:0:0:
79,60,108882,53,4,3:2:0:0:
176,199,109037,1,0,3:0:0:0:
176,199,109115,1,0,0:0:0:0:
176,199,109193,1,10,0:2:0:0:
22,165,109348,1,0,3:0:0:0:
22,165,109426,1,0,3:0:0:0:
22,165,109504,1,2,3:2:0:0:
180,83,109659,38,0,L|220:89,4,23.9999992675781,0|0|0|0|10,3:0|3:0|3:0|3:0|0:2,0:0:0:0:
271,274,109970,2,0,L|247:277,2,23.9999992675781,0|0|0,3:0|3:0|3:0,0:0:0:0:
308,277,110126,38,0,L|316:181,1,95.9999970703126,6|0,3:2|3:0,0:0:0:0:
135,148,110436,1,8,0:2:0:0:
168,339,110591,1,2,3:2:0:0:
319,285,110747,22,0,L|329:176,1,95.9999970703126,4|0,3:2|3:0,0:0:0:0:
121,138,111057,1,10,0:2:0:0:
159,356,111214,1,0,3:0:0:0:
343,274,111369,54,0,P|356:220|322:173,1,95.9999970703126,4|2,3:2|3:2,0:0:0:0:
148,230,111680,2,0,B|193:256|193:256|241:240,1,95.9999970703126,8|0,0:2|3:0,0:0:0:0:
225,86,111991,1,14,3:2:0:0:
203,55,112069,1,0,3:0:0:0:
166,67,112147,1,0,3:0:0:0:
166,106,112224,1,0,3:0:0:0:
203,118,112302,22,0,P|259:105|300:105,1,95.9999970703126,10|2,0:2|0:2,0:0:0:0:
115,213,112613,53,4,3:3:0:0:
256,192,112690,12,0,122561,0:0:0:0:
