osu file format v14

[General]
AudioFilename: audio.mp3
AudioLeadIn: 0
PreviewTime: 92639
Countdown: 0
SampleSet: Soft
StackLeniency: 0.2
Mode: 0
LetterboxInBreaks: 0
WidescreenStoryboard: 1

[Editor]
Bookmarks: 10644,20592,23079,33027,42975,62872,72820,82768,92716,112613
DistanceSpacing: 0.9
BeatDivisor: 4
GridSize: 4
TimelineZoom: 3.099998

[Metadata]
Title:Hemisphere
TitleUnicode:Hemisphere
Artist:ARForest
ArtistUnicode:ARForest
Creator:- ascended -
Version:Extra
Source:osu!
Tags:-ascended- artcore art core featured artist fa mappers' guild mpg mg electronic instrumental frost era drum 'n' bass dnb and d&b d'n'b house piano glitch dynamix overrapid over rapid
BeatmapID:2605091
BeatmapSetID:1253551

[Difficulty]
HPDrainRate:5.5
CircleSize:4
OverallDifficulty:9
ApproachRate:9.2
SliderMultiplier:1.8
SliderTickRate:1

[Events]
//Background and Video events
0,0,"omg thank you nasa for releasing images in the public domain omg.jpg",0,0
//Break Periods
2,82968,91835
//Storyboard Layer 0 (Background)
//Storyboard Layer 1 (Fail)
//Storyboard Layer 2 (Pass)
//Storyboard Layer 3 (Foreground)
//Storyboard Layer 4 (Overlay)
//Storyboard Sound Samples

[TimingPoints]
696,310.880829015544,4,2,1,55,1,0
10644,-133.333333333333,4,2,1,60,0,0
20592,-133.333333333333,4,2,1,57,0,0
23001,-133.333333333333,4,2,1,5,0,0
23079,-133.333333333333,4,2,1,50,0,0
27353,-133.333333333333,4,2,1,5,0,0
27431,-200,4,2,1,50,0,0
27819,-200,4,2,1,5,0,0
27898,-200,4,2,1,50,0,0
28053,-133.333333333333,4,2,1,50,0,0
32327,-133.333333333333,4,2,1,5,0,0
32375,-133.333333333333,4,2,1,50,0,0
32405,-200,4,2,1,50,0,0
32949,-200,4,2,1,5,0,0
32979,-200,4,2,1,50,0,0
33027,-133.333333333333,4,2,1,50,0,0
37301,-133.333333333333,4,2,1,5,0,0
37349,-133.333333333333,4,2,1,50,0,0
37379,-200,4,2,1,50,0,0
37767,-200,4,2,1,5,0,0
37846,-200,4,2,1,50,0,0
38001,-133.333333333333,4,2,1,50,0,0
41732,-100,4,2,1,60,0,0
42975,-83.3333333333333,4,2,1,75,0,1
43208,-83.3333333333333,4,2,1,5,0,1
43286,-83.3333333333333,4,2,1,75,0,1
62872,-133.333333333333,4,2,1,55,0,0
67379,-133.333333333333,4,2,1,55,0,0
72820,-133.333333333333,4,2,2,60,0,0
72975,-133.333333333333,4,2,1,60,0,0
73519,-133.333333333333,4,2,1,5,0,0
73597,-133.333333333333,4,2,1,60,0,0
74374,-133.333333333333,4,2,2,60,0,0
74530,-133.333333333333,4,2,1,60,0,0
74763,-133.333333333333,4,2,1,5,0,0
74841,-133.333333333333,4,2,1,60,0,0
75306,-133.333333333333,4,2,2,60,0,0
75462,-133.333333333333,4,2,1,60,0,0
76006,-133.333333333333,4,2,1,5,0,0
76084,-133.333333333333,4,2,1,60,0,0
76861,-133.333333333333,4,2,2,60,0,0
77017,-133.333333333333,4,2,1,60,0,0
77250,-133.333333333333,4,2,1,5,0,0
77328,-133.333333333333,4,2,1,60,0,0
77793,-133.333333333333,4,2,2,60,0,0
77949,-133.333333333333,4,2,1,60,0,0
78493,-133.333333333333,4,2,1,5,0,0
78571,-133.333333333333,4,2,1,60,0,0
79348,-133.333333333333,4,2,2,60,0,0
79504,-133.333333333333,4,2,1,60,0,0
79737,-133.333333333333,4,2,1,5,0,0
79815,-133.333333333333,4,2,1,60,0,0
80281,-133.333333333333,4,2,2,60,0,0
80436,-133.333333333333,4,2,1,60,0,0
80980,-133.333333333333,4,2,1,5,0,0
81058,-133.333333333333,4,2,1,60,0,0
81835,-133.333333333333,4,2,2,60,0,0
81913,-133.333333333333,4,2,1,60,0,0
81991,-133.333333333333,4,2,1,60,0,0
82768,-133.333333333333,4,2,2,57,0,0
92405,-133.333333333333,4,2,1,60,0,0
92716,-71.4285714285714,4,2,1,75,0,1
92949,-71.4285714285714,4,2,1,5,0,1
93027,-71.4285714285714,4,2,1,75,0,1
97923,-71.4285714285714,4,2,1,5,0,1
98001,-71.4285714285714,4,2,1,75,0,1
100410,-71.4285714285714,4,2,1,5,0,1
100488,-71.4285714285714,4,2,1,75,0,1
102897,-71.4285714285714,4,2,1,5,0,1
102975,-71.4285714285714,4,2,1,75,0,1
107639,-71.4285714285714,4,2,1,77,0,1
110126,-71.4285714285714,4,2,1,80,0,1
111369,-71.4285714285714,4,2,1,85,0,1
111680,-55.5555555555556,4,2,1,85,0,1
112302,-45.4545454545455,4,2,1,85,0,1
112613,-45.4545454545455,4,2,1,85,0,0
112690,-45.4545454545455,4,2,1,10,0,0
122561,-45.4545454545455,4,2,1,5,0,0

[Colours]
Combo1 : 255,181,120
Combo2 : 117,186,209
Combo3 : 255,238,238
Combo4 : 136,163,255
Combo5 : 255,86,86
Combo6 : 255,136,136

[HitObjects]
70,59,696,21,6,0:2:0:0:
207,222,1162,1,2,0:2:0:0:
244,160,1473,1,2,0:2:0:0:
309,130,1784,1,2,0:2:0:0:
380,137,2094,1,2,0:2:0:0:
444,168,2405,1,2,0:2:0:0:
324,29,2716,1,2,0:2:0:0:
360,261,3027,1,2,0:2:0:0:
360,261,3493,53,2,0:2:0:0:
237,92,3960,1,2,0:2:0:0:
173,58,4270,1,2,0:2:0:0:
101,62,4581,1,2,0:2:0:0:
44,106,4892,1,2,0:2:0:0:
184,225,5203,21,2,0:2:0:0:
5,205,5359,1,2,0:2:0:0:
198,234,5514,1,2,0:2:0:0:
33,336,5670,1,2,0:2:0:0:
33,336,6136,53,2,0:2:0:0:
98,366,6447,1,2,0:2:0:0:
164,337,6758,1,2,0:2:0:0:
232,359,7068,1,2,0:2:0:0:
300,335,7379,1,2,0:2:0:0:
400,190,7690,1,2,0:2:0:0:
329,29,8001,1,2,0:2:0:0:
329,29,8468,21,2,0:2:0:0:
429,193,8934,1,2,0:2:0:0:
357,190,9245,1,2,0:2:0:0:
285,186,9556,1,2,0:2:0:0:
213,182,9866,1,2,0:2:0:0:
47,120,10177,53,2,0:2:0:0:
154,234,10333,1,2,0:2:0:0:
43,328,10488,1,2,0:2:0:0:
179,230,10644,22,0,B|249:211|236:273|315:250,1,135.000005149842,6|0,0:2|0:0,0:0:0:0:
199,304,11110,1,2,0:2:0:0:
121,280,11421,1,2,0:2:0:0:
64,222,11732,1,2,0:2:0:0:
38,145,12043,1,2,0:2:0:0:
38,63,12354,1,2,0:2:0:0:
241,22,12664,1,2,0:2:0:0:
257,228,12975,54,0,B|272:306|219:293|235:363,1,135.000005149842,2|0,0:2|0:0,0:0:0:0:
181,247,13442,1,2,0:2:0:0:
377,351,13908,1,2,0:2:0:0:
454,329,14219,1,2,0:2:0:0:
486,254,14530,1,2,0:2:0:0:
476,173,14841,1,2,0:2:0:0:
302,106,15151,21,2,0:2:0:0:
341,286,15307,1,2,0:2:0:0:
296,89,15462,1,2,0:2:0:0:
177,209,15618,53,2,0:2:0:0:
177,209,16084,1,2,0:2:0:0:
96,205,16395,1,2,0:2:0:0:
33,152,16706,1,2,0:2:0:0:
26,71,17017,1,2,0:2:0:0:
74,6,17328,1,2,0:2:0:0:
224,74,17639,1,2,0:2:0:0:
378,38,17949,22,0,B|363:116|416:103|400:173,1,135.000005149842,2|0,0:2|0:0,0:0:0:0:
457,59,18416,1,2,0:2:0:0:
475,212,18882,1,2,0:2:0:0:
401,246,19193,1,2,0:2:0:0:
327,212,19504,1,2,0:2:0:0:
246,248,19815,53,2,0:2:0:0:
183,61,19970,1,2,0:2:0:0:
183,61,20048,1,2,0:2:0:0:
183,61,20126,1,2,0:2:0:0:
352,136,20281,1,2,0:2:0:0:
128,193,20436,2,0,L|83:179,1,33.7500012874604,2|0,0:2|0:0,0:0:0:0:
273,11,20592,21,6,0:3:0:0:
256,192,20670,12,0,23001,2:0:0:0:
58,307,23079,54,0,B|105:311|105:311|125:293|125:293|196:298,1,135.000005149842,6|0,0:2|0:0,0:0:0:0:
278,349,23545,2,0,B|330:350|356:293|356:293|383:348|458:345,2,202.500007724762,2|2|2,0:2|0:2|0:2,0:0:0:0:
439,184,24944,2,0,B|385:143|385:143|314:176,1,135.000005149842,2|2,0:2|0:2,0:0:0:0:
220,254,25566,2,0,P|175:183|232:83,1,202.500007724762,2|2,0:2|0:2,0:0:0:0:
442,41,26499,2,0,B|476:163|402:134|428:256|428:256|445:343|386:389|346:386,1,371.250014162064,2|0,0:2|2:0,0:0:0:0:
297,272,27431,22,0,P|336:270|294:284,1,112.5,2|0,0:2|2:0,0:0:0:0:
363,170,27898,1,0,3:0:0:0:
175,292,28053,54,0,L|184:149,1,135.000005149842,2|0,3:2|0:0,0:0:0:0:
164,29,28519,2,0,P|251:73|367:47,2,202.500007724762,2|2|2,0:2|0:2|0:2,0:0:0:0:
250,233,29918,2,0,B|326:215|313:271|394:257,1,135.000005149842,2|2,0:2|0:2,0:0:0:0:
421,39,30540,2,0,P|417:106|496:57,1,202.500007724762,2|2,0:2|0:2,0:0:0:0:
236,19,31473,22,0,B|169:82|68:34|68:34|139:110|81:220,1,371.250014162064,2|0,0:2|2:0,0:0:0:0:
235,169,32405,54,0,P|185:162|238:160,1,157.5,2|0,0:2|2:0,0:0:0:0:
124,334,33027,22,0,B|157:337|184:309|184:309|202:342|249:355,1,135.000005149842,6|0,3:2|0:0,0:0:0:0:
325,380,33493,2,0,P|347:244|384:171,2,202.500007724762,2|2|2,0:2|0:2|0:2,0:0:0:0:
145,120,34892,2,0,P|191:143|272:82,1,135.000005149842,2|2,0:2|0:2,0:0:0:0:
83,14,35514,2,0,B|39:46|39:46|59:219,1,202.500007724762,2|2,0:2|0:2,0:0:0:0:
63,356,36447,2,0,B|107:301|186:291|186:291|196:373|286:388|336:338|331:269|251:255|254:289,1,371.250014162064,2|0,0:2|2:0,0:0:0:0:
447,328,37379,54,0,P|444:370|431:329,1,112.5,2|0,0:2|2:0,0:0:0:0:
265,188,37846,1,0,3:0:0:0:
448,35,38001,22,0,P|392:80|321:74,1,135.000005149842,2|0,3:2|0:0,0:0:0:0:
241,7,38468,2,0,B|197:114|274:111|220:226,2,202.500007724762,2|2|2,0:2|0:2|0:2,0:0:0:0:
43,173,39866,2,0,B|81:176|97:205|97:205|108:173|148:159,1,135.000005149842,2|2,0:2|0:2,0:0:0:0:
83,340,40488,2,0,B|144:336|144:336|154:351|154:351|232:344,1,135.000005149842,2|0,0:2|0:0,0:0:0:0:
255,177,40955,2,0,P|237:222|297:198,1,135.000005149842,2|0,0:2|0:0,0:0:0:0:
405,227,41421,2,0,P|414:259|402:303,1,67.5000025749208,2|0,0:2|0:0,0:0:0:0:
276,353,41732,54,0,L|271:251,1,90,0|0,3:0|3:0,0:0:0:0:
235,194,41965,1,0,3:0:0:0:
235,194,42043,2,0,P|188:181|142:202,1,90,0|0,3:0|3:0,0:0:0:0:
52,251,42354,2,0,B|39:210|39:210|47:157,1,90,0|0,3:0|3:0,0:0:0:0:
175,68,42664,21,8,0:2:0:0:
205,36,42741,1,8,0:2:0:0:
248,25,42819,1,8,0:2:0:0:
291,38,42897,1,8,0:2:0:0:
321,80,42975,70,0,B|314:201|314:201|292:163,1,161.999995056153,6|0,3:2|2:0,0:0:0:0:
405,47,43286,2,0,L|397:176,1,107.999996704102,10|2,0:2|0:2,0:0:0:0:
307,278,43597,1,2,0:2:0:0:
408,181,43752,2,0,L|400:310,1,107.999996704102,2|8,3:2|0:2,0:0:0:0:
234,335,44063,22,0,P|214:288|226:233,1,107.999996704102,2|0,0:2|3:0,0:0:0:0:
327,125,44374,1,2,3:2:0:0:
144,61,44530,1,10,0:2:0:0:
348,110,44685,1,2,3:2:0:0:
225,233,44841,2,0,B|172:253|172:253|121:236,1,107.999996704102,2|2,0:2|3:2,0:0:0:0:
54,109,45151,1,8,0:2:0:0:
235,36,45307,54,0,P|255:83|243:138,1,107.999996704102,2|0,0:2|3:0,0:0:0:0:
61,184,45618,2,0,L|54:69,1,107.999996704102,2|8,0:2|0:2,0:0:0:0:
255,120,45929,2,0,L|248:227,1,107.999996704102,2|0,0:2|0:0,0:0:0:0:
69,285,46240,2,0,P|49:238|61:183,1,107.999996704102,2|8,3:2|0:2,0:0:0:0:
198,290,46550,2,0,B|248:309|248:309|298:287,1,107.999996704102,2|0,0:2|3:0,0:0:0:0:
348,136,46861,21,2,3:2:0:0:
140,231,47017,1,10,0:2:0:0:
371,126,47172,2,0,L|366:243,1,107.999996704102,2|2,3:2|0:2,0:0:0:0:
174,108,47483,1,2,3:2:0:0:
354,224,47639,1,10,0:2:0:0:
294,0,47794,1,2,0:2:0:0:
229,160,47949,54,0,P|176:184|113:154,1,107.999996704102,2|0,3:2|0:0,0:0:0:0:
9,66,48260,1,8,0:2:0:0:
172,5,48416,2,0,B|190:55|190:55|174:107,1,107.999996704102,2|0,0:2|0:0,0:0:0:0:
12,199,48727,2,0,L|9:77,1,107.999996704102,2|8,3:2|0:2,0:0:0:0:
144,258,49037,22,0,B|236:266|236:266|254:254|254:254|361:260,1,215.999993408203,2|0,0:2|3:0,0:0:0:0:
475,125,49504,1,8,0:2:0:0:
271,46,49659,2,0,P|256:101|271:149,1,107.999996704102,0|0,3:0|0:0,0:0:0:0:
459,243,49970,1,2,3:2:0:0:
333,99,50126,1,10,0:2:0:0:
475,263,50281,54,0,L|468:371,1,107.999996704102,2|0,0:2|3:0,0:0:0:0:
277,381,50592,2,0,P|261:329|276:278,1,107.999996704102,2|8,0:2|0:2,0:0:0:0:
459,243,50903,2,0,L|452:351,1,107.999996704102,2|0,0:2|3:2,0:0:0:0:
307,190,51214,2,0,B|353:159|353:159|407:182,1,107.999996704102,2|8,3:2|0:2,0:0:0:0:
260,294,51525,1,2,0:2:0:0:
211,126,51680,21,0,3:0:0:0:
364,268,51835,1,0,3:0:0:0:
192,114,51991,2,0,P|139:92|83:114,1,107.999996704102,8|0,0:2|3:0,0:0:0:0:
22,209,52224,1,0,3:0:0:0:
22,209,52302,2,0,L|27:325,1,107.999996704102,10|0,0:2|3:0,0:0:0:0:
180,337,52535,1,0,3:0:0:0:
180,337,52613,2,0,L|185:221,1,107.999996704102,8|0,0:2|3:0,0:0:0:0:
192,114,52846,1,0,3:0:0:0:
192,114,52923,54,0,P|246:96|300:123,1,107.999996704102,6|2,3:2|0:2,0:0:0:0:
359,226,53234,1,8,0:2:0:0:
297,6,53390,2,0,L|290:119,1,107.999996704102,2|0,0:2|0:0,0:0:0:0:
452,171,53701,2,0,L|445:63,1,107.999996704102,2|8,3:2|0:2,0:0:0:0:
292,221,54012,22,0,B|403:189|379:283|502:251,1,215.999993408203,2|0,0:2|3:0,0:0:0:0:
334,300,54478,1,8,0:2:0:0:
424,98,54633,1,2,3:2:0:0:
424,98,54711,1,2,0:2:0:0:
424,98,54789,1,2,0:2:0:0:
219,184,54944,1,2,3:2:0:0:
409,312,55100,2,0,B|436:292|436:292|439:218,1,107.999996704102,10|2,0:2|0:2,0:0:0:0:
324,106,55411,54,0,B|271:98|244:45|244:45|221:103|160:112,1,215.999993408203,2|8,3:2|0:2,0:0:0:0:
354,291,55877,2,0,B|367:237|367:237|353:179,1,107.999996704102,2|0,0:2|0:0,0:0:0:0:
123,181,56188,2,0,B|110:233|110:233|124:293,1,107.999996704102,2|8,3:2|0:2,0:0:0:0:
284,337,56499,22,0,B|173:305|197:399|74:367,1,215.999993408203,2|0,0:2|3:0,0:0:0:0:
231,193,56965,1,8,0:2:0:0:
53,346,57120,2,0,P|35:302|54:233,1,107.999996704102,2|0,3:2|0:0,0:0:0:0:
185,82,57431,1,2,3:2:0:0:
122,285,57587,1,10,0:2:0:0:
74,46,57742,1,2,0:2:0:0:
205,212,57898,54,0,B|285:201|285:201|319:216|319:216|420:203,1,215.999993408203,2|8,3:2|0:2,0:0:0:0:
274,384,58364,2,0,P|256:338|273:284,1,107.999996704102,2|0,0:2|0:0,0:0:0:0:
452,328,58675,2,0,B|404:354|404:354|349:335,1,107.999996704102,2|8,3:2|0:2,0:0:0:0:
396,117,58986,22,0,B|428:185|400:268|400:268|397:241|370:197,1,215.999993408203,2|0,0:2|3:0,0:0:0:0:
479,95,59452,2,0,P|494:150|492:215,1,107.999996704102,10|0,0:2|3:0,0:0:0:0:
452,328,59763,2,0,P|396:347|332:313,1,107.999996704102,2|0,0:2|3:0,0:0:0:0:
267,220,60074,2,0,L|278:102,1,107.999996704102,10|0,0:2|0:0,0:0:0:0:
179,311,60385,54,0,P|104:247|173:234,1,215.999993408203,2|8,3:2|0:2,0:0:0:0:
6,318,60851,2,0,B|-11:272|9:223|9:223|31:170|8:106,1,215.999993408203,2|0,0:2|3:0,0:0:0:0:
199,22,61317,2,0,B|150:41|140:106|140:106|150:40|110:2,1,215.999993408203,10|0,0:2|3:0,0:0:0:0:
206,152,61784,2,0,P|155:185|103:173,1,107.999996704102,2|8,3:2|0:2,0:0:0:0:
303,41,62094,1,0,3:0:0:0:
303,41,62172,1,0,3:0:0:0:
303,41,62250,21,10,0:2:0:0:
330,281,62405,1,0,3:0:0:0:
396,29,62561,1,10,0:2:0:0:
425,292,62716,1,2,0:2:0:0:
206,171,62872,69,6,1:2:0:0:
284,162,63027,1,2,1:2:0:0:
362,153,63183,1,2,1:2:0:0:
219,259,63338,1,2,1:2:0:0:
269,57,63649,1,2,1:2:0:0:
419,202,63960,1,2,1:2:0:0:
167,176,64271,53,2,1:2:0:0:
186,173,64348,1,0,1:0:0:0:
206,171,64426,1,2,1:2:0:0:
318,239,64582,1,2,1:2:0:0:
185,331,64737,1,2,1:2:0:0:
176,253,64892,1,2,1:2:0:0:
167,175,65048,1,2,1:2:0:0:
300,69,65203,21,2,1:2:0:0:
297,88,65280,1,0,1:0:0:0:
295,108,65358,1,2,1:2:0:0:
167,175,65514,1,2,1:2:0:0:
165,155,65592,1,0,1:0:0:0:
162,136,65669,1,2,1:2:0:0:
303,178,65825,1,2,1:2:0:0:
294,256,65981,1,0,1:0:0:0:
285,334,66136,1,2,1:2:0:0:
162,136,66447,1,2,1:2:0:0:
294,256,66758,53,2,1:2:0:0:
313,259,66835,1,0,1:0:0:0:
333,261,66913,1,2,1:2:0:0:
458,188,67069,1,2,1:2:0:0:
323,126,67224,1,2,1:2:0:0:
415,316,67379,54,0,L|446:318,1,16.8750006437302,2|0,1:2|1:0,0:0:0:0:
418,297,67457,2,0,L|449:299,1,16.8750006437302,0|0,1:0|1:0,0:0:0:0:
420,277,67535,1,2,1:2:0:0:
270,359,67690,53,2,1:2:0:0:
251,362,67767,1,0,1:0:0:0:
231,364,67845,53,2,1:2:0:0:
176,246,68001,1,2,1:2:0:0:
195,249,68078,1,0,1:0:0:0:
215,251,68156,1,2,1:2:0:0:
82,322,68312,1,2,1:2:0:0:
73,244,68467,1,0,1:0:0:0:
64,166,68623,1,2,1:2:0:0:
169,327,68934,1,2,1:2:0:0:
217,126,69245,21,2,1:2:0:0:
236,129,69322,1,0,1:0:0:0:
256,131,69400,1,2,1:2:0:0:
399,142,69556,1,2,1:2:0:0:
265,209,69711,1,2,1:2:0:0:
256,131,69866,1,2,1:2:0:0:
247,53,70022,1,2,1:2:0:0:
399,142,70177,53,2,1:2:0:0:
397,162,70255,1,0,1:0:0:0:
394,181,70332,1,2,1:2:0:0:
260,248,70488,1,2,1:2:0:0:
262,228,70566,1,0,1:0:0:0:
265,209,70643,1,2,1:2:0:0:
386,304,70799,1,2,1:2:0:0:
308,313,70954,1,0,1:0:0:0:
230,322,71110,1,2,1:2:0:0:
399,142,71421,1,2,1:2:0:0:
260,248,71732,21,2,1:2:0:0:
240,246,71810,1,0,1:0:0:0:
221,243,71887,1,2,1:2:0:0:
148,137,72043,1,2,1:2:0:0:
52,338,72198,22,0,L|77:336,1,16.8750006437302,2|0,1:2|1:0,0:0:0:0:
51,317,72276,2,0,L|75:320,1,16.8750006437302,0|0,1:0|1:0,0:0:0:0:
53,297,72354,2,0,L|77:304,1,16.8750006437302,2|0,1:2|1:0,0:0:0:0:
58,278,72431,2,0,L|80:289,1,16.8750006437302,0|0,1:0|1:0,0:0:0:0:
63,259,72509,54,0,P|56:209|58:176,1,67.5000025749208,2|2,1:2|1:2,0:0:0:0:
69,164,72742,1,0,1:0:0:0:
69,164,72820,53,2,3:2:0:0:
160,151,72975,1,2,1:2:0:0:
180,149,73053,1,0,1:2:0:0:
199,146,73130,1,2,1:2:0:0:
142,234,73286,1,2,1:2:0:0:
220,66,73442,2,0,L|199:20,1,33.7500012874604,8|0,0:2|0:0,0:0:0:0:
298,57,73597,1,2,1:2:0:0:
376,48,73753,1,0,1:0:0:0:
267,191,73908,1,2,1:2:0:0:
435,141,74219,21,2,1:2:0:0:
433,161,74297,1,0,1:0:0:0:
430,180,74374,1,2,3:2:0:0:
411,306,74530,1,2,1:2:0:0:
309,207,74685,2,0,L|314:254,1,33.7500012874604,10|0,1:2|0:0,0:0:0:0:
231,216,74840,1,2,1:2:0:0:
153,225,74996,1,2,1:2:0:0:
244,99,75151,1,2,1:2:0:0:
242,119,75229,1,0,1:0:0:0:
239,138,75306,53,2,3:2:0:0:
120,119,75462,1,2,1:2:0:0:
117,100,75539,1,0,1:0:0:0:
115,80,75617,1,2,1:2:0:0:
153,225,75773,1,2,1:2:0:0:
162,303,75929,2,0,L|124:310,1,33.7500012874604,8|0,1:2|0:0,0:0:0:0:
171,381,76084,1,2,1:2:0:0:
312,240,76395,1,2,1:2:0:0:
153,225,76706,21,2,1:2:0:0:
134,222,76783,1,0,1:0:0:0:
114,220,76861,1,2,3:2:0:0:
263,147,77017,1,2,1:2:0:0:
98,62,77172,2,0,L|105:100,1,33.7500012874604,10|0,1:2|0:0,0:0:0:0:
235,26,77328,22,0,L|234:55,1,16.8750006437302,2|0,1:2|1:0,0:0:0:0:
257,29,77405,2,0,L|256:58,1,16.8750006437302,0|0,1:0|1:0,0:0:0:0:
281,31,77483,1,2,1:2:0:0:
397,119,77639,53,2,1:2:0:0:
394,100,77716,1,0,1:0:0:0:
392,80,77794,53,2,3:2:0:0:
263,147,77949,1,2,1:2:0:0:
266,166,78026,1,0,1:0:0:0:
268,186,78104,1,2,1:2:0:0:
422,259,78260,1,2,1:2:0:0:
343,267,78416,2,0,L|350:301,1,33.7500012874604,8|0,1:2|0:0,0:0:0:0:
266,277,78571,1,2,1:2:0:0:
374,126,78882,1,2,1:2:0:0:
189,184,79193,1,2,1:2:0:0:
170,181,79270,1,0,1:0:0:0:
150,179,79348,21,2,3:2:0:0:
20,161,79504,1,2,1:2:0:0:
171,28,79659,2,0,L|204:21,1,33.7500012874604,10|0,1:2|0:0,0:0:0:0:
179,106,79815,1,2,1:2:0:0:
189,184,79970,1,2,1:2:0:0:
270,90,80126,1,2,1:2:0:0:
289,87,80203,1,0,1:0:0:0:
309,85,80281,53,2,3:2:0:0:
399,187,80436,1,2,1:2:0:0:
380,190,80513,1,0,1:0:0:0:
360,192,80591,1,2,1:2:0:0:
211,155,80747,1,2,1:2:0:0:
219,233,80903,2,0,L|252:226,1,33.7500012874604,8|0,1:2|0:0,0:0:0:0:
234,316,81058,1,2,1:2:0:0:
234,316,81136,1,0,1:2:0:0:
234,316,81214,1,0,1:0:0:0:
360,192,81369,1,2,1:2:0:0:
199,76,81680,21,2,1:2:0:0:
206,94,81758,1,0,1:0:0:0:
212,112,81836,1,2,3:2:0:0:
214,134,81913,1,0,1:0:0:0:
211,155,81991,1,2,1:2:0:0:
32,175,82146,22,0,L|57:173,1,16.8750006437302,10|0,1:2|1:0,0:0:0:0:
31,154,82224,2,0,L|55:157,1,16.8750006437302,0|0,1:0|1:0,0:0:0:0:
33,134,82302,2,0,L|57:141,1,16.8750006437302,2|0,1:2|1:0,0:0:0:0:
38,115,82379,2,0,L|60:126,1,16.8750006437302,0|0,1:0|1:0,0:0:0:0:
46,98,82457,54,0,L|88:114,1,33.7500012874604,2|0,1:2|1:2,0:0:0:0:
211,155,82613,2,0,L|167:194,1,33.7500012874604,0|0,1:2|1:2,0:0:0:0:
26,300,82768,53,4,3:3:0:0:
211,146,92405,21,8,0:2:0:0:
231,111,92482,1,8,0:2:0:0:
264,88,92560,1,8,0:2:0:0:
303,81,92638,1,8,0:2:0:0:
342,91,92716,70,0,B|372:157|348:228|348:228|340:199|314:169,1,188.999994232178,6|0,3:2|2:0,0:0:0:0:
428,96,93027,2,0,P|438:157|431:225,1,125.999996154785,10|2,0:2|0:2,0:0:0:0:
319,378,93338,1,2,0:2:0:0:
158,255,93493,2,0,B|216:225|216:225|276:240,1,125.999996154785,2|8,3:2|0:2,0:0:0:0:
81,318,93804,22,0,P|59:252|79:199,1,125.999996154785,2|0,0:2|3:0,0:0:0:0:
283,101,94115,1,2,3:2:0:0:
250,363,94271,1,10,0:2:0:0:
89,189,94426,1,2,3:2:0:0:
348,239,94582,1,2,0:2:0:0:
348,239,94659,1,2,0:2:0:0:
348,239,94737,1,2,3:2:0:0:
165,63,94892,1,10,0:2:0:0:
251,268,95048,54,0,L|256:135,1,125.999996154785,2|0,0:2|3:0,0:0:0:0:
158,255,95359,1,2,0:2:0:0:
267,132,95514,2,0,L|272:-1,1,125.999996154785,10|2,0:2|0:2,0:0:0:0:
96,49,95825,1,2,0:2:0:0:
81,76,95902,1,2,0:2:0:0:
76,107,95980,1,2,3:2:0:0:
83,138,96058,1,2,0:2:0:0:
100,164,96135,1,10,0:2:0:0:
305,220,96291,1,2,0:2:0:0:
151,363,96447,22,0,L|146:229,1,125.999996154785,2|2,3:2|3:2,0:0:0:0:
184,156,96680,1,2,0:2:0:0:
184,156,96758,2,0,L|189:22,1,125.999996154785,10|2,0:2|3:2,0:0:0:0:
367,7,97069,1,2,0:2:0:0:
385,32,97146,1,2,0:2:0:0:
396,61,97224,1,2,3:2:0:0:
400,93,97302,1,2,0:2:0:0:
397,124,97379,1,10,0:2:0:0:
386,153,97457,1,2,0:2:0:0:
368,179,97535,2,0,P|351:140|344:109,1,62.9999980773926,2|2,0:2|0:2,0:0:0:0:
512,292,97690,54,0,B|460:287|436:240|436:240|420:289|368:298,1,188.999994232178,2|0,3:2|2:0,0:0:0:0:
253,349,98001,2,0,B|274:290|274:290|251:229,1,125.999996154785,10|2,0:2|0:2,0:0:0:0:
87,154,98312,1,2,0:2:0:0:
79,184,98389,1,2,0:2:0:0:
74,215,98467,1,2,3:2:0:0:
71,247,98545,1,2,0:2:0:0:
71,278,98622,1,10,0:2:0:0:
72,309,98700,1,2,0:2:0:0:
76,341,98778,2,0,P|110:355|136:351,1,62.9999980773926,2|2,0:2|0:2,0:0:0:0:
283,197,98934,22,0,B|270:347|270:347|251:305,1,188.999994232178,2|2,3:2|0:2,0:0:0:0:
370,179,99245,2,0,L|359:313,1,125.999996154785,10|2,0:2|3:2,0:0:0:0:
425,128,99556,53,2,0:2:0:0:
401,107,99633,1,2,0:2:0:0:
371,98,99711,1,2,3:2:0:0:
340,102,99789,1,2,0:2:0:0:
313,119,99866,2,0,P|242:119|262:62,1,125.999996154785,10|2,0:2|0:2,0:0:0:0:
431,25,100177,22,0,B|468:66|468:66|452:206,1,188.999994232178,2|0,3:2|2:0,0:0:0:0:
463,318,100488,2,0,P|403:285|334:313,1,125.999996154785,10|2,0:2|0:2,0:0:0:0:
252,337,100799,1,2,0:2:0:0:
214,354,100876,1,2,0:2:0:0:
172,350,100954,1,2,3:2:0:0:
139,326,101032,1,2,0:2:0:0:
121,288,101109,1,10,0:2:0:0:
125,246,101187,1,2,0:2:0:0:
150,213,101265,2,0,P|184:204|222:213,1,62.9999980773926,2|0,0:2|0:0,0:0:0:0:
241,55,101421,53,2,3:2:0:0:
212,88,101498,1,2,0:2:0:0:
170,107,101576,1,2,3:2:0:0:
124,105,101654,1,2,0:2:0:0:
85,84,101732,22,0,P|64:144|59:211,1,125.999996154785,10|2,0:2|3:2,0:0:0:0:
91,312,101965,1,2,3:2:0:0:
91,312,102043,2,0,B|151:285|151:285|221:300,1,125.999996154785,10|2,0:2|3:2,0:0:0:0:
316,316,102276,1,2,3:2:0:0:
316,316,102354,2,0,P|344:250|331:199,1,125.999996154785,10|2,0:2|3:2,0:0:0:0:
274,136,102587,1,2,3:2:0:0:
274,136,102664,54,0,B|206:91|128:135|128:135|152:134|180:149,1,188.999994232178,6|0,3:2|2:0,0:0:0:0:
273,47,102975,2,0,P|200:33|132:46,1,125.999996154785,10|2,0:2|0:2,0:0:0:0:
48,120,103286,1,2,0:2:0:0:
49,151,103363,1,2,0:2:0:0:
51,182,103441,1,2,3:2:0:0:
53,214,103519,1,2,0:2:0:0:
55,245,103597,2,0,L|43:324,1,62.9999980773926,10|2,0:2|0:2,0:0:0:0:
200,198,103752,2,0,L|212:277,1,62.9999980773926,2|2,0:2|0:2,0:0:0:0:
296,346,103908,21,2,3:2:0:0:
341,356,103985,1,0,0:0:0:0:
387,348,104063,1,2,3:2:0:0:
426,321,104141,1,2,0:2:0:0:
451,282,104219,2,0,L|455:216,3,62.9999980773926,10|0|2|0,0:2|0:0|3:2|0:0,0:0:0:0:
331,223,104530,1,2,0:2:0:0:
285,233,104607,1,2,0:2:0:0:
239,225,104685,1,2,3:2:0:0:
200,198,104763,1,2,0:2:0:0:
175,159,104841,2,0,L|171:92,3,62.9999980773926,10|2|2|2,0:2|0:2|0:2|0:2,0:0:0:0:
309,28,105151,53,2,3:2:0:0:
357,17,105229,1,2,0:2:0:0:
397,43,105307,1,2,0:2:0:0:
407,90,105384,1,2,0:2:0:0:
381,131,105462,1,10,0:2:0:0:
335,141,105540,1,2,0:2:0:0:
293,116,105618,1,2,0:2:0:0:
246,127,105695,1,2,0:2:0:0:
220,167,105773,22,0,L|227:239,1,62.9999980773926,2|2,0:2|0:2,0:0:0:0:
351,233,105929,2,0,L|344:305,1,62.9999980773926,2|2,3:2|0:2,0:0:0:0:
200,198,106084,2,0,L|208:284,1,62.9999980773926,10|2,0:2|0:2,0:0:0:0:
363,272,106240,2,0,L|354:358,1,62.9999980773926,2|2,0:2|0:2,0:0:0:0:
133,363,106395,53,2,3:2:0:0:
129,321,106472,1,2,0:2:0:0:
125,279,106550,1,2,3:2:0:0:
121,237,106628,1,2,0:2:0:0:
100,198,106706,1,10,0:2:0:0:
104,156,106783,1,2,0:2:0:0:
108,114,106861,1,2,3:2:0:0:
112,72,106939,1,2,0:2:0:0:
138,26,107017,22,0,L|208:20,1,62.9999980773926,2|2,0:2|0:2,0:0:0:0:
276,99,107172,2,0,L|346:105,1,62.9999980773926,2|2,3:2|0:2,0:0:0:0:
128,47,107328,2,0,L|204:40,1,62.9999980773926,10|2,0:2|0:2,0:0:0:0:
279,126,107483,2,0,L|355:132,1,62.9999980773926,2|2,0:2|0:2,0:0:0:0:
112,72,107639,53,6,3:2:0:0:
191,289,107794,1,0,3:0:0:0:
191,289,107872,1,0,3:0:0:0:
191,289,107950,1,8,0:2:0:0:
342,132,108105,1,2,3:2:0:0:
133,145,108260,21,0,3:0:0:0:
239,119,108416,1,2,3:2:0:0:
120,224,108571,1,8,0:2:0:0:
226,198,108727,1,2,3:2:0:0:
105,229,108882,53,4,3:2:0:0:
323,281,109037,1,0,3:0:0:0:
323,281,109115,1,0,0:0:0:0:
323,281,109193,1,10,0:2:0:0:
260,64,109348,1,0,3:0:0:0:
260,64,109426,1,0,3:0:0:0:
260,64,109504,1,2,3:2:0:0:
206,266,109659,38,0,L|198:222,1,31.4999990386963,0|0,3:0|3:0,0:0:0:0:
206,266,109737,2,0,L|172:295,1,31.4999990386963,0|0,3:0|3:0,0:0:0:0:
206,266,109815,2,0,L|249:280,1,31.4999990386963,10|0,0:2|3:0,0:0:0:0:
342,104,109970,6,0,L|335:151,1,31.4999990386963,0|0,3:0|3:0,0:0:0:0:
362,116,110048,2,0,L|325:143,1,31.4999990386963,0|0,3:0|3:0,0:0:0:0:
368,143,110126,21,6,3:2:0:0:
354,357,110281,1,0,3:0:0:0:
269,128,110436,1,8,0:2:0:0:
256,343,110591,1,2,3:2:0:0:
436,196,110747,21,4,3:2:0:0:
191,217,110903,1,0,3:0:0:0:
412,120,111058,1,10,0:2:0:0:
165,141,111214,1,0,3:0:0:0:
402,93,111369,53,4,3:2:0:0:
164,218,111525,1,2,3:2:0:0:
430,290,111680,1,8,0:2:0:0:
269,74,111835,1,0,3:0:0:0:
127,289,111991,21,14,3:2:0:0:
157,308,112069,53,0,3:0:0:0:
195,309,112146,38,0,L|195:260,1,40.4999987640381,0|0,3:0|3:0,0:0:0:0:
225,294,112224,6,0,L|220:249,1,40.4999987640381,0|0,3:0|3:0,0:0:0:0:
240,278,112302,22,0,B|262:236|252:200|252:200|241:214|243:236,1,99.0000030212403,10|0,0:2|0:0,0:0:0:0:
343,349,112457,1,2,0:2:0:0:
275,92,112613,21,4,3:3:0:0:
256,192,112690,12,0,122561,0:0:0:0:
