osu file format v14

[General]
AudioFilename: audio.mp3
AudioLeadIn: 0
PreviewTime: 92639
Countdown: 0
SampleSet: Soft
StackLeniency: 0.4
Mode: 0
LetterboxInBreaks: 0
WidescreenStoryboard: 1

[Editor]
Bookmarks: 10644,20592,23079,33027,42354,42975,62872,72820,82768,92716,112613
DistanceSpacing: 1
BeatDivisor: 4
GridSize: 4
TimelineZoom: 2.599999

[Metadata]
Title:Hemisphere
TitleUnicode:Hemisphere
Artist:ARForest
ArtistUnicode:ARForest
Creator:- ascended -
Version:Easy
Source:osu!
Tags:-ascended- artcore art core featured artist fa mappers' guild mpg mg electronic instrumental frost era drum 'n' bass dnb and d&b d'n'b house piano glitch dynamix overrapid over rapid
BeatmapID:2606290
BeatmapSetID:1253551

[Difficulty]
HPDrainRate:3
CircleSize:3
OverallDifficulty:2.5
ApproachRate:3
SliderMultiplier:0.9
SliderTickRate:1

[Events]
//Background and Video events
0,0,"omg thank you nasa for releasing images in the public domain omg.jpg",0,0
//Break Periods
2,20792,21639
2,82967,91276
//Storyboard Layer 0 (Background)
//Storyboard Layer 1 (Fail)
//Storyboard Layer 2 (Pass)
//Storyboard Layer 3 (Foreground)
//Storyboard Layer 4 (Overlay)
//Storyboard Sound Samples

[TimingPoints]
696,310.880829015544,4,2,1,55,1,0
696,-100,4,2,1,55,0,0
10644,-100,4,2,1,60,0,0
20592,-100,4,2,1,57,0,0
23079,-100,4,2,1,50,0,0
33027,-100,4,2,1,50,0,0
41732,-100,4,2,1,60,0,0
42975,-100,4,2,1,75,0,1
62872,-100,4,2,1,55,0,0
72820,-100,4,2,2,60,0,0
72975,-100,4,2,1,60,0,0
74374,-100,4,2,2,60,0,0
74530,-100,4,2,1,60,0,0
75307,-100,4,2,2,60,0,0
75462,-100,4,2,1,60,0,0
76861,-100,4,2,2,60,0,0
77017,-100,4,2,1,60,0,0
77794,-100,4,2,2,60,0,0
77949,-100,4,2,1,60,0,0
79348,-100,4,2,2,60,0,0
79504,-100,4,2,1,60,0,0
80281,-100,4,2,2,60,0,0
80436,-100,4,2,1,60,0,0
81835,-100,4,2,2,60,0,0
81913,-100,4,2,1,60,0,0
81991,-100,4,2,1,60,0,0
82768,-100,4,2,2,57,0,0
92405,-100,4,2,1,60,0,0
92716,-100,4,2,1,75,0,1
107639,-100,4,2,1,77,0,1
110126,-100,4,2,1,80,0,1
111369,-100,4,2,1,85,0,0
112690,-100,4,2,1,10,0,0
122561,-100,4,2,1,5,0,0

[Colours]
Combo1 : 255,181,120
Combo2 : 117,186,209
Combo3 : 255,238,238
Combo4 : 136,163,255
Combo5 : 255,86,86
Combo6 : 255,136,136

[HitObjects]
102,338,10644,21,6,0:2:0:0:
140,208,11110,2,0,P|180:195|228:206,2,90,2|2|2,0:2|0:2|0:2,0:0:0:0:
52,183,12043,2,0,L|45:92,1,90,2|2,0:2|0:2,0:0:0:0:
73,7,12664,1,2,0:2:0:0:
152,49,12975,1,2,0:2:0:0:
285,30,13442,53,2,0:2:0:0:
399,106,13908,2,0,L|494:98,2,90,2|2|2,0:2|0:2|0:2,0:0:0:0:
356,185,14841,1,2,0:2:0:0:
388,268,15151,2,0,P|365:331|290:334,1,135,2|2,0:2|0:2,0:0:0:0:
169,332,16084,22,0,P|124:345|73:326,2,90,2|2|2,0:2|0:2|0:2,0:0:0:0:
189,244,17017,2,0,L|182:143,1,90,2|2,0:2|0:2,0:0:0:0:
147,71,17639,1,2,0:2:0:0:
63,104,17949,1,2,0:2:0:0:
44,237,18416,53,2,0:2:0:0:
134,340,18882,2,0,B|182:349|182:349|224:337,1,90,2|2,0:2|0:2,0:0:0:0:
305,303,19504,2,0,B|344:291|344:291|392:300,1,90,2|2,0:2|0:2,0:0:0:0:
473,340,20126,2,0,P|485:295|428:220,1,135,2|6,0:2|0:3,0:0:0:0:
59,185,23079,22,0,L|66:322,2,135,6|2|2,0:2|0:2|0:2,0:0:0:0:
51,50,24478,1,2,0:2:0:0:
172,109,24944,2,0,P|216:116|257:96,1,90,2|2,0:2|0:2,0:0:0:0:
317,30,25566,2,0,P|346:89|322:157,2,135,2|2|2,0:2|0:2|0:2,0:0:0:0:
204,275,27431,2,0,B|240:268|240:268|261:276|261:276|296:271,1,90,2|0,0:2|0:0,0:0:0:0:
376,302,28053,54,0,P|392:247|479:242,2,135,2|2|2,3:2|0:2|0:2,0:0:0:0:
261,374,29452,1,2,0:2:0:0:
133,331,29918,2,0,B|112:289|112:289|126:243,1,90,2|2,0:2|0:2,0:0:0:0:
170,170,30540,2,0,P|235:150|298:186,1,135,2|2,0:2|0:2,0:0:0:0:
368,290,31473,1,2,0:2:0:0:
488,48,32405,2,0,L|383:64,1,90,2|0,0:2|0:0,0:0:0:0:
311,84,33027,22,0,L|169:62,2,135,6|2|2,3:2|0:2|0:2,0:0:0:0:
385,196,34426,1,2,0:2:0:0:
315,311,34892,2,0,P|274:327|220:313,1,90,2|2,0:2|0:2,0:0:0:0:
153,271,35514,2,0,B|103:227|103:227|40:258,2,135,2|2|2,0:2|0:2|0:2,0:0:0:0:
348,84,37379,2,0,P|311:64|255:82,1,90,2|0,0:2|0:0,0:0:0:0:
178,50,38001,54,0,P|118:42|78:114,2,135,2|2|2,3:2|0:2|0:2,0:0:0:0:
226,176,39400,1,2,0:2:0:0:
177,302,39866,2,0,B|221:318|221:318|266:305,1,90,2|2,0:2|0:2,0:0:0:0:
348,333,40488,2,0,P|354:243|369:190,1,135,2|2,0:2|0:2,0:0:0:0:
481,130,41421,1,2,0:2:0:0:
424,59,41732,22,0,P|384:53|335:71,1,90,0|0,3:0|3:0,0:0:0:0:
258,110,42354,2,0,P|216:125|171:119,1,90,0|8,3:0|0:2,0:0:0:0:
84,95,42975,70,0,L|90:6,2,90,6|10|2,3:2|0:2|0:2,0:0:0:0:
80,185,43908,1,8,0:2:0:0:
141,250,44219,2,0,P|185:258|229:243,1,90,0|10,3:0|0:2,0:0:0:0:
310,208,44841,2,0,P|352:194|396:202,1,90,2|8,0:2|0:2,0:0:0:0:
455,269,45462,22,0,L|445:366,2,90,0|8|0,3:0|0:2|0:0,0:0:0:0:
396,202,46395,1,8,0:2:0:0:
453,132,46706,2,0,P|464:90|449:43,1,90,0|10,3:0|0:2,0:0:0:0:
375,96,47328,2,0,P|333:107|286:92,1,90,2|10,0:2|0:2,0:0:0:0:
209,53,47949,54,0,B|187:92|210:140|210:140|229:181|209:226,1,180,2|0,3:2|0:0,0:0:0:0:
128,268,48882,1,8,0:2:0:0:
43,236,49193,2,0,L|33:147,2,90,0|8|0,3:0|0:2|0:0,0:0:0:0:
30,325,50126,1,10,0:2:0:0:
113,357,50436,22,0,B|157:370|157:370|201:356,1,90,0|8,3:0|0:2,0:0:0:0:
285,328,51058,2,0,B|327:314|327:314|371:327,1,90,0|8,3:2|0:2,0:0:0:0:
447,374,51680,1,0,3:0:0:0:
473,195,52302,1,10,0:2:0:0:
392,154,52613,1,8,0:2:0:0:
308,185,52923,54,0,B|212:212|234:136|133:165,1,180,6|0,3:2|0:0,0:0:0:0:
57,206,53856,1,8,0:2:0:0:
63,116,54167,2,0,L|59:16,2,90,0|8|2,3:0|0:2|0:2,0:0:0:0:
137,165,55100,1,10,0:2:0:0:
181,86,55411,22,0,B|264:50|264:50|350:88,1,180,2|0,3:2|0:0,0:0:0:0:
422,133,56343,1,8,0:2:0:0:
472,207,56654,2,0,P|482:258|473:298,2,90,0|8|0,3:0|0:2|0:0,0:0:0:0:
397,256,57587,1,10,0:2:0:0:
323,307,57898,54,0,B|303:259|318:220|318:220|331:179|313:129,1,180,2|0,3:2|0:0,0:0:0:0:
247,70,58830,1,8,0:2:0:0:
168,114,59141,2,0,B|126:131|126:131|72:115,2,90,0|10|2,3:0|0:2|0:2,0:0:0:0:
247,70,60074,1,10,0:2:0:0:
329,33,60385,22,0,P|380:15|423:31,1,90,2|8,3:2|0:2,0:0:0:0:
467,96,61006,2,0,L|459:194,1,90,0|10,0:0|0:2,0:0:0:0:
450,365,61939,1,8,0:2:0:0:
368,326,62250,1,10,0:2:0:0:
286,287,62561,1,10,0:2:0:0:
229,356,62872,70,0,P|177:338|160:251,1,135,6|2,1:2|1:2,0:0:0:0:
193,185,63649,2,0,L|189:76,1,90,2|2,1:2|1:2,0:0:0:0:
60,152,64426,1,2,1:2:0:0:
17,231,64737,2,0,L|21:340,1,90,2|2,1:2|1:2,0:0:0:0:
99,365,65359,54,0,B|158:334|158:334|225:360,1,135,2|2,1:2|1:2,0:0:0:0:
308,333,66136,2,0,P|350:350|397:336,1,90,2|2,1:2|1:2,0:0:0:0:
464,225,66913,1,2,1:2:0:0:
405,157,67224,2,0,P|363:140|316:154,1,90,2|2,1:2|1:2,0:0:0:0:
248,204,67846,22,0,B|232:189|229:172|229:172|166:146|125:192,1,135,2|2,1:2|1:2,0:0:0:0:
53,147,68623,2,0,B|39:102|39:102|52:61,1,90,2|2,1:2|1:2,0:0:0:0:
181,14,69400,1,2,1:2:0:0:
260,56,69711,2,0,B|301:69|301:69|346:55,1,90,2|2,1:2|1:2,0:0:0:0:
429,21,70333,54,0,B|453:92|409:77|429:158,1,135,2|2,1:2|1:2,0:0:0:0:
467,233,71110,2,0,P|424:240|373:223,1,90,2|2,1:2|1:2,0:0:0:0:
265,155,71887,1,2,1:2:0:0:
181,188,72198,2,0,B|136:203|136:203|84:187,1,90,2|2,1:2|1:2,0:0:0:0:
40,119,72820,22,0,B|57:66|57:66|119:35|196:69,1,180,2|8,3:2|0:2,0:0:0:0:
303,11,73908,1,2,1:2:0:0:
428,59,74374,1,2,3:2:0:0:
479,132,74685,2,0,P|493:180|475:230,1,90,10|2,1:2|1:2,0:0:0:0:
419,276,75307,54,0,B|331:249|342:321|233:280,1,180,2|8,3:2|1:2,0:0:0:0:
118,316,76395,1,2,1:2:0:0:
71,189,76861,1,2,3:2:0:0:
130,121,77172,2,0,P|171:109|219:122,1,90,10|2,1:2|1:2,0:0:0:0:
286,176,77794,22,0,B|359:170|359:170|386:190|386:190|465:182,1,180,2|8,3:2|1:2,0:0:0:0:
498,53,78882,1,2,1:2:0:0:
368,15,79348,1,2,3:2:0:0:
290,60,79659,2,0,P|234:74|187:55,1,90,10|2,1:2|1:2,0:0:0:0:
129,14,80281,54,0,B|107:62|126:101|126:101|142:140|126:188,1,180,2|8,3:2|1:2,0:0:0:0:
62,308,81369,1,2,1:2:0:0:
186,359,81835,1,2,3:2:0:0:
263,313,82146,2,0,B|271:234|271:234|251:212|251:212|256:138,1,180,10|4,1:2|3:3,0:0:0:0:
455,311,92716,6,0,P|415:288|361:289,1,90,6|10,3:2|0:2,0:0:0:0:
292,329,93338,1,2,0:2:0:0:
210,290,93649,1,8,0:2:0:0:
129,330,93960,2,0,L|35:318,2,90,0|10|2,3:0|0:2|0:2,0:0:0:0:
136,240,94892,1,10,0:2:0:0:
78,171,95203,22,0,P|118:153|174:159,1,90,0|10,3:0|0:2,0:0:0:0:
242,198,95825,2,0,P|282:216|338:210,1,90,2|10,0:2|0:2,0:0:0:0:
414,191,96447,1,2,3:2:0:0:
432,102,96758,1,10,0:2:0:0:
377,30,97069,2,0,B|335:12|335:12|285:24,1,90,2|10,0:2|0:2,0:0:0:0:
215,69,97690,54,0,B|119:44|142:123|39:93,1,180,2|2,3:2|0:2,0:0:0:0:
14,179,98623,1,10,0:2:0:0:
67,251,98934,2,0,B|163:226|140:305|243:275,1,180,2|2,3:2|0:2,0:0:0:0:
302,213,99867,1,10,0:2:0:0:
383,250,100177,22,0,P|394:297|379:344,1,90,2|10,3:2|0:2,0:0:0:0:
302,377,100799,2,0,P|251:365|204:372,1,90,2|10,0:2|0:2,0:0:0:0:
130,335,101421,1,2,3:2:0:0:
29,185,102043,1,10,0:2:0:0:
80,111,102354,1,10,0:2:0:0:
159,153,102664,54,0,B|200:132|200:132|252:151,1,90,6|10,3:2|0:2,0:0:0:0:
321,187,103286,2,0,B|362:202|362:202|403:181,1,90,2|10,0:2|0:2,0:0:0:0:
468,116,103908,2,0,L|474:24,2,90,2|10|2,3:2|0:2|0:2,0:0:0:0:
378,100,104841,1,10,0:2:0:0:
309,41,105151,22,0,P|261:28|217:44,1,90,2|10,3:2|0:2,0:0:0:0:
181,119,105773,2,0,P|223:132|266:120,1,90,2|10,0:2|0:2,0:0:0:0:
328,185,106395,2,0,P|336:232|328:290,2,90,2|10|2,3:2|0:2|0:2,0:0:0:0:
252,235,107328,1,10,0:2:0:0:
180,290,107639,54,0,L|81:280,2,90,6|8|0,3:2|0:2|3:0,0:0:0:0:
263,324,108571,1,8,0:2:0:0:
332,273,108882,2,0,L|431:283,2,90,4|10|2,3:2|0:2|3:2,0:0:0:0:
252,235,109814,1,10,0:2:0:0:
180,290,110126,22,0,B|161:251|161:251|171:205,1,90,6|8,3:2|0:2,0:0:0:0:
203,121,110747,2,0,P|244:111|302:125,1,90,4|10,3:2|0:2,0:0:0:0:
376,92,111369,53,4,3:2:0:0:
213,14,111991,1,14,3:2:0:0:
136,60,112302,2,0,P|95:70|37:56,1,90,10|4,0:2|3:3,0:0:0:0:
