osu file format v14

[General]
AudioFilename: audio.mp3
AudioLeadIn: 0
PreviewTime: 92405
Countdown: 0
SampleSet: Normal
StackLeniency: 0.7
Mode: 1
LetterboxInBreaks: 0
WidescreenStoryboard: 1

[Editor]
DistanceSpacing: 0.8
BeatDivisor: 4
GridSize: 32
TimelineZoom: 2.799999

[Metadata]
Title:Hemisphere
TitleUnicode:Hemisphere
Artist:ARForest
ArtistUnicode:ARForest
Creator:[Zeth]
Version:Inner Oni
Source:Dynamix
Tags:mappers' guild mg featured artist fa osu! Evolutionary Reboot Pack OverRapid Rhythm Video Game electronic instrumental artcore duski
BeatmapID:2599694
BeatmapSetID:1241825

[Difficulty]
HPDrainRate:5
CircleSize:2
OverallDifficulty:6
ApproachRate:10
SliderMultiplier:1.4
SliderTickRate:1

[Events]
//Background and Video events
0,0,"1617572642_preview_header.jpg",0,0
//Break Periods
//Storyboard Layer 0 (Background)
//Storyboard Layer 1 (Fail)
//Storyboard Layer 2 (Pass)
//Storyboard Layer 3 (Foreground)
//Storyboard Layer 4 (Overlay)
//Storyboard Sound Samples

[TimingPoints]
696,310.880829015544,4,1,0,80,1,0
1162,-125,4,1,0,80,0,0
9556,-121.212121212121,4,1,0,80,0,0
9866,-114.285714285714,4,1,0,80,0,0
10177,-108.108108108108,4,1,0,80,0,0
10333,-105.263157894737,4,1,0,80,0,0
10488,-102.564102564103,4,1,0,80,0,0
10644,-100,4,1,0,80,0,0
11110,-111.111111111111,4,1,0,80,0,0
19504,-108.108108108108,4,1,0,80,0,0
19815,-102.564102564103,4,1,0,80,0,0
20126,-97.5609756097561,4,1,0,80,0,0
20281,-95.2380952380952,4,1,0,80,0,0
20436,-93.0232558139535,4,1,0,80,0,0
20592,-90.9090909090909,4,1,0,80,0,0
21447,-125,4,1,0,40,0,0
21835,-111.111111111111,4,1,0,50,0,0
22146,-111.111111111111,4,1,0,60,0,0
22457,-111.111111111111,4,1,0,70,0,0
22768,-108.695652173913,4,1,0,80,0,0
22846,-106.382978723404,4,1,0,80,0,0
22923,-104.166666666667,4,1,0,80,0,0
23079,-100,4,1,0,80,0,0
23234,-111.111111111111,4,1,0,60,0,0
27587,-108.108108108108,4,1,0,60,0,0
27664,-106.666666666667,4,1,0,60,0,0
27742,-105.263157894737,4,1,0,60,0,0
27898,-102.564102564103,4,1,0,60,0,0
28053,-100,4,1,0,60,0,0
28364,-111.111111111111,4,1,0,60,0,0
32561,-107.181136120043,4,1,0,60,0,0
33027,-100,4,1,0,60,0,0
33338,-111.111111111111,4,1,0,60,0,0
37535,-108.108108108108,4,1,0,60,0,0
37613,-106.666666666667,4,1,0,60,0,0
37690,-105.263157894737,4,1,0,60,0,0
37846,-102.564102564103,4,1,0,60,0,0
38001,-100,4,1,0,60,0,0
38312,-111.111111111111,4,1,0,60,0,0
41732,-111.111111111111,4,1,0,60,0,0
41810,-112.359550561798,4,1,0,60,0,0
41888,-113.636363636364,4,1,0,60,0,0
42043,-116.279069767442,4,1,0,60,0,0
42199,-119.047619047619,4,1,0,60,0,0
42277,-120.481927710843,4,1,0,60,0,0
42354,-121.951219512195,4,1,0,60,0,0
42509,-123.456790123457,4,1,0,60,0,0
42587,-108.695652173913,4,1,0,100,0,0
42742,-106.382978723404,4,1,0,100,0,0
42820,-104.166666666667,4,1,0,100,0,0
42975,-100,4,1,0,100,0,1
62872,-100,4,1,0,100,0,0
62988,-101.26582278481,4,1,0,60,0,0
63105,-101.910828025478,4,1,0,60,0,0
63183,-102.564102564103,4,1,0,60,0,0
63338,-103.896103896104,4,1,0,60,0,0
63649,-106.666666666667,4,1,0,60,0,0
63960,-109.58904109589,4,1,0,60,0,0
64115,-111.111111111111,4,1,0,60,0,0
64271,-112.676056338028,4,1,0,60,0,0
64348,-113.475177304965,4,1,0,60,0,0
64426,-114.285714285714,4,1,0,60,0,0
64582,-115.942028985507,4,1,0,60,0,0
64737,-117.647058823529,4,1,0,60,0,0
64892,-119.402985074627,4,1,0,60,0,0
65048,-121.212121212121,4,1,0,60,0,0
65203,-123.076923076923,4,1,0,60,0,0
65359,-125,4,1,0,60,0,0
72198,-121.951219512195,4,1,0,60,0,0
72276,-120.481927710843,4,1,0,60,0,0
72354,-119.047619047619,4,1,0,60,0,0
72431,-117.647058823529,4,1,0,60,0,0
72509,-116.279069767442,4,1,0,60,0,0
72664,-113.636363636364,4,1,0,60,0,0
72820,-111.111111111111,4,1,0,60,0,0
81525,-111.111111111111,4,1,0,60,0,0
81680,-109.58904109589,4,1,0,60,0,0
81758,-108.843537414966,4,1,0,60,0,0
81835,-108.108108108108,4,1,0,60,0,0
81913,-107.38255033557,4,1,0,60,0,0
81991,-106.666666666667,4,1,0,60,0,0
82146,-105.263157894737,4,1,0,60,0,0
82224,-104.575163398693,4,1,0,60,0,0
82302,-103.896103896104,4,1,0,60,0,0
82379,-103.225806451613,4,1,0,60,0,0
82457,-102.564102564103,4,1,0,60,0,0
82613,-101.26582278481,4,1,0,60,0,0
82768,-100,4,1,0,60,0,0
83390,-125,4,1,0,60,0,0
91473,-129.032258064516,4,1,0,60,0,0
91784,-133.333333333333,4,1,0,60,0,0
92094,-137.931034482759,4,1,0,60,0,0
92328,-108.695652173913,4,1,0,100,0,0
92483,-106.382978723404,4,1,0,100,0,0
92561,-104.166666666667,4,1,0,100,0,0
92716,-100,4,1,0,100,0,1
101421,-100,4,1,0,100,0,1
101499,-99.3788819875776,4,1,0,100,0,1
101576,-98.7654320987654,4,1,0,100,0,1
101654,-98.159509202454,4,1,0,100,0,1
101732,-97.5609756097561,4,1,0,100,0,1
101887,-96.3855421686747,4,1,0,100,0,1
101965,-95.8083832335329,4,1,0,100,0,1
102043,-95.2380952380952,4,1,0,100,0,1
102120,-94.6745562130178,4,1,0,100,0,1
102198,-94.1176470588235,4,1,0,100,0,1
102276,-93.5672514619883,4,1,0,100,0,1
102354,-93.0232558139535,4,1,0,100,0,1
102431,-92.485549132948,4,1,0,100,0,1
102509,-91.9540229885058,4,1,0,100,0,1
102664,-90.9090909090909,4,1,0,100,0,1
112613,-83.3333333333333,4,1,0,100,0,0

[HitObjects]
256,192,696,5,6,0:0:0:0:
256,192,1162,1,0,0:0:0:0:
256,192,1472,1,2,0:0:0:0:
256,192,1783,1,0,0:0:0:0:
256,192,2094,1,0,0:0:0:0:
256,192,2405,1,2,0:0:0:0:
256,192,2716,1,2,0:0:0:0:
256,192,3027,1,0,0:0:0:0:
256,192,3493,1,2,0:0:0:0:
256,192,3960,1,2,0:0:0:0:
256,192,4271,1,0,0:0:0:0:
256,192,4582,1,2,0:0:0:0:
256,192,4892,1,0,0:0:0:0:
256,192,5203,1,0,0:0:0:0:
256,192,5359,1,2,0:0:0:0:
256,192,5514,1,2,0:0:0:0:
256,192,5670,1,0,0:0:0:0:
256,192,6136,1,0,0:0:0:0:
256,192,6447,1,2,0:0:0:0:
256,192,6758,1,0,0:0:0:0:
256,192,7069,1,0,0:0:0:0:
256,192,7379,1,2,0:0:0:0:
256,192,7690,1,2,0:0:0:0:
256,192,8001,1,0,0:0:0:0:
256,192,8468,1,2,0:0:0:0:
256,192,8934,1,2,0:0:0:0:
256,192,9245,1,0,0:0:0:0:
256,192,9556,1,2,0:0:0:0:
256,192,9866,1,2,0:0:0:0:
256,192,10177,1,2,0:0:0:0:
256,192,10333,1,2,0:0:0:0:
256,192,10488,1,0,0:0:0:0:
256,192,10644,1,4,0:0:0:0:
256,192,11110,1,0,0:0:0:0:
256,192,11421,1,2,0:0:0:0:
256,192,11732,1,0,0:0:0:0:
256,192,12043,1,0,0:0:0:0:
256,192,12354,1,2,0:0:0:0:
256,192,12665,1,2,0:0:0:0:
256,192,12976,1,0,0:0:0:0:
256,192,13442,1,2,0:0:0:0:
256,192,13909,1,2,0:0:0:0:
256,192,14220,1,0,0:0:0:0:
256,192,14531,1,2,0:0:0:0:
256,192,14841,1,0,0:0:0:0:
256,192,15152,1,0,0:0:0:0:
256,192,15308,1,2,0:0:0:0:
256,192,15463,1,2,0:0:0:0:
256,192,15619,1,0,0:0:0:0:
256,192,16085,1,0,0:0:0:0:
256,192,16396,1,2,0:0:0:0:
256,192,16707,1,0,0:0:0:0:
256,192,17018,1,0,0:0:0:0:
256,192,17328,1,2,0:0:0:0:
256,192,17639,1,2,0:0:0:0:
256,192,17950,1,0,0:0:0:0:
256,192,18417,1,2,0:0:0:0:
256,192,18883,1,2,0:0:0:0:
256,192,19194,1,2,0:0:0:0:
256,192,19504,1,0,0:0:0:0:
256,192,19815,1,0,0:0:0:0:
256,192,20126,1,0,0:0:0:0:
256,192,20281,1,2,0:0:0:0:
256,192,20436,1,2,0:0:0:0:
256,192,20592,1,4,0:0:0:0:
256,192,21525,12,0,22613,0:0:0:0:
256,192,22768,5,2,0:0:0:0:
256,192,22846,1,2,0:0:0:0:
256,192,22923,1,2,0:0:0:0:
256,192,23079,1,4,0:0:0:0:
256,192,23390,1,2,0:0:0:0:
256,192,23545,1,2,0:0:0:0:
256,192,23623,1,0,0:0:0:0:
256,192,23701,1,2,0:0:0:0:
256,192,23856,1,2,0:0:0:0:
256,192,24012,1,0,0:0:0:0:
256,192,24089,1,2,0:0:0:0:
256,192,24167,1,0,0:0:0:0:
256,192,24322,1,0,0:0:0:0:
256,192,24478,1,2,0:0:0:0:
256,192,24633,1,0,0:0:0:0:
256,192,24789,1,2,0:0:0:0:
256,192,24866,1,0,0:0:0:0:
256,192,24944,1,2,0:0:0:0:
256,192,25100,1,2,0:0:0:0:
256,192,25255,1,0,0:0:0:0:
256,192,25333,1,2,0:0:0:0:
256,192,25411,1,0,0:0:0:0:
256,192,25488,1,2,0:0:0:0:
256,192,25566,1,0,0:0:0:0:
256,192,25877,1,2,0:0:0:0:
256,192,26032,1,0,0:0:0:0:
256,192,26110,1,0,0:0:0:0:
256,192,26188,1,2,0:0:0:0:
256,192,26343,1,2,0:0:0:0:
256,192,26499,1,0,0:0:0:0:
256,192,26576,1,2,0:0:0:0:
256,192,26654,1,0,0:0:0:0:
256,192,26809,1,2,0:0:0:0:
256,192,26887,1,0,0:0:0:0:
256,192,26965,1,2,0:0:0:0:
256,192,27043,1,0,0:0:0:0:
256,192,27120,1,2,0:0:0:0:
256,192,27276,1,0,0:0:0:0:
256,192,27354,1,0,0:0:0:0:
256,192,27431,1,2,0:0:0:0:
256,192,27587,1,0,0:0:0:0:
256,192,27664,1,2,0:0:0:0:
256,192,27742,1,0,0:0:0:0:
256,192,27898,5,0,0:0:0:0:
256,192,28053,1,4,0:0:0:0:
256,192,28364,1,2,0:0:0:0:
256,192,28519,1,0,0:0:0:0:
256,192,28597,1,0,0:0:0:0:
256,192,28675,1,2,0:0:0:0:
256,192,28830,1,2,0:0:0:0:
256,192,28986,1,0,0:0:0:0:
256,192,29063,1,2,0:0:0:0:
256,192,29141,1,0,0:0:0:0:
256,192,29296,1,0,0:0:0:0:
256,192,29452,1,2,0:0:0:0:
256,192,29607,1,0,0:0:0:0:
256,192,29763,1,2,0:0:0:0:
256,192,29841,1,0,0:0:0:0:
256,192,29918,1,2,0:0:0:0:
256,192,30074,1,2,0:0:0:0:
256,192,30229,1,0,0:0:0:0:
256,192,30307,1,0,0:0:0:0:
256,192,30385,1,2,0:0:0:0:
256,192,30462,1,2,0:0:0:0:
256,192,30540,1,0,0:0:0:0:
256,192,30851,1,2,0:0:0:0:
256,192,31006,1,0,0:0:0:0:
256,192,31084,1,0,0:0:0:0:
256,192,31162,1,2,0:0:0:0:
256,192,31317,1,2,0:0:0:0:
256,192,31473,1,0,0:0:0:0:
256,192,31550,1,2,0:0:0:0:
256,192,31628,1,0,0:0:0:0:
256,192,31784,1,2,0:0:0:0:
256,192,31861,1,2,0:0:0:0:
256,192,31939,1,0,0:0:0:0:
256,192,32017,1,0,0:0:0:0:
256,192,32094,1,2,0:0:0:0:
256,192,32250,1,0,0:0:0:0:
256,192,32328,1,0,0:0:0:0:
256,192,32405,1,2,0:0:0:0:
256,192,32561,2,0,L|288:160,4,32.6549997060173
256,192,33027,1,4,0:0:0:0:
256,192,33339,1,2,0:0:0:0:
256,192,33494,1,2,0:0:0:0:
256,192,33572,1,0,0:0:0:0:
256,192,33650,1,2,0:0:0:0:
256,192,33805,1,2,0:0:0:0:
256,192,33961,1,0,0:0:0:0:
256,192,34038,1,2,0:0:0:0:
256,192,34116,1,0,0:0:0:0:
256,192,34271,1,0,0:0:0:0:
256,192,34427,1,2,0:0:0:0:
256,192,34582,1,0,0:0:0:0:
256,192,34738,1,2,0:0:0:0:
256,192,34815,1,0,0:0:0:0:
256,192,34893,1,2,0:0:0:0:
256,192,35049,1,2,0:0:0:0:
256,192,35204,1,0,0:0:0:0:
256,192,35282,1,2,0:0:0:0:
256,192,35360,1,0,0:0:0:0:
256,192,35437,1,2,0:0:0:0:
256,192,35515,1,0,0:0:0:0:
256,192,35826,1,2,0:0:0:0:
256,192,35981,1,0,0:0:0:0:
256,192,36059,1,0,0:0:0:0:
256,192,36137,1,2,0:0:0:0:
256,192,36292,1,2,0:0:0:0:
256,192,36448,1,0,0:0:0:0:
256,192,36525,1,2,0:0:0:0:
256,192,36603,1,0,0:0:0:0:
256,192,36758,1,2,0:0:0:0:
256,192,36836,1,0,0:0:0:0:
256,192,36914,1,2,0:0:0:0:
256,192,36992,1,0,0:0:0:0:
256,192,37069,1,2,0:0:0:0:
256,192,37225,1,0,0:0:0:0:
256,192,37303,1,0,0:0:0:0:
256,192,37380,1,2,0:0:0:0:
256,192,37536,1,0,0:0:0:0:
256,192,37613,1,2,0:0:0:0:
256,192,37691,1,0,0:0:0:0:
256,192,37846,5,0,0:0:0:0:
256,192,38001,1,4,0:0:0:0:
256,192,38312,1,2,0:0:0:0:
256,192,38468,1,0,0:0:0:0:
256,192,38545,1,0,0:0:0:0:
256,192,38623,1,2,0:0:0:0:
256,192,38778,1,2,0:0:0:0:
256,192,38934,1,0,0:0:0:0:
256,192,39012,1,2,0:0:0:0:
256,192,39089,1,0,0:0:0:0:
256,192,39245,1,0,0:0:0:0:
256,192,39400,1,2,0:0:0:0:
256,192,39556,1,0,0:0:0:0:
256,192,39711,1,2,0:0:0:0:
256,192,39789,1,0,0:0:0:0:
256,192,39866,1,2,0:0:0:0:
256,192,40022,1,2,0:0:0:0:
256,192,40177,1,0,0:0:0:0:
256,192,40255,1,0,0:0:0:0:
256,192,40333,1,2,0:0:0:0:
256,192,40488,5,0,0:0:0:0:
256,192,40799,1,2,0:0:0:0:
256,192,40955,1,0,0:0:0:0:
256,192,41032,1,0,0:0:0:0:
256,192,41110,1,2,0:0:0:0:
256,192,41188,1,0,0:0:0:0:
256,192,41265,1,2,0:0:0:0:
256,192,41421,1,0,0:0:0:0:
256,192,41499,1,2,0:0:0:0:
256,192,41576,1,0,0:0:0:0:
256,192,41732,1,2,0:0:0:0:
256,192,41810,1,2,0:0:0:0:
256,192,41888,1,0,0:0:0:0:
256,192,42043,1,2,0:0:0:0:
256,192,42199,1,0,0:0:0:0:
256,192,42277,1,0,0:0:0:0:
256,192,42354,1,2,0:0:0:0:
256,192,42509,1,0,0:0:0:0:
256,192,42665,1,2,0:0:0:0:
256,192,42743,1,2,0:0:0:0:
256,192,42821,1,2,0:0:0:0:
256,192,42975,1,4,0:0:0:0:
256,192,43208,1,0,0:0:0:0:
256,192,43286,1,2,0:0:0:0:
256,192,43442,1,0,0:0:0:0:
256,192,43597,1,2,0:0:0:0:
256,192,43752,1,0,0:0:0:0:
256,192,43830,1,0,0:0:0:0:
256,192,43908,1,0,0:0:0:0:
256,192,44063,1,2,0:0:0:0:
256,192,44374,1,2,0:0:0:0:
256,192,44452,1,2,0:0:0:0:
256,192,44530,1,0,0:0:0:0:
256,192,44685,1,0,0:0:0:0:
256,192,44841,1,2,0:0:0:0:
256,192,44996,1,0,0:0:0:0:
256,192,45074,1,2,0:0:0:0:
256,192,45151,1,0,0:0:0:0:
256,192,45307,1,2,0:0:0:0:
256,192,45618,1,2,0:0:0:0:
256,192,45773,1,0,0:0:0:0:
256,192,45929,1,2,0:0:0:0:
256,192,46006,1,2,0:0:0:0:
256,192,46084,1,0,0:0:0:0:
256,192,46240,1,0,0:0:0:0:
256,192,46395,1,2,0:0:0:0:
256,192,46550,1,0,0:0:0:0:
256,192,46706,1,2,0:0:0:0:
256,192,46861,1,0,0:0:0:0:
256,192,46939,1,0,0:0:0:0:
256,192,47017,1,2,0:0:0:0:
256,192,47172,1,0,0:0:0:0:
256,192,47328,1,2,0:0:0:0:
256,192,47483,1,2,0:0:0:0:
256,192,47561,1,0,0:0:0:0:
256,192,47639,1,2,0:0:0:0:
256,192,47794,1,2,0:0:0:0:
256,192,47949,1,0,0:0:0:0:
256,192,48183,1,2,0:0:0:0:
256,192,48260,1,0,0:0:0:0:
256,192,48416,1,2,0:0:0:0:
256,192,48571,1,0,0:0:0:0:
256,192,48649,1,0,0:0:0:0:
256,192,48727,1,2,0:0:0:0:
256,192,48882,1,0,0:0:0:0:
256,192,48960,1,2,0:0:0:0:
256,192,49037,1,0,0:0:0:0:
256,192,49193,1,2,0:0:0:0:
256,192,49426,1,0,0:0:0:0:
256,192,49504,1,2,0:0:0:0:
256,192,49659,1,0,0:0:0:0:
256,192,49815,1,2,0:0:0:0:
256,192,49970,1,0,0:0:0:0:
256,192,50048,1,0,0:0:0:0:
256,192,50126,1,2,0:0:0:0:
256,192,50281,1,2,0:0:0:0:
256,192,50436,1,0,0:0:0:0:
256,192,50592,1,2,0:0:0:0:
256,192,50747,1,0,0:0:0:0:
256,192,50825,1,2,0:0:0:0:
256,192,50903,1,0,0:0:0:0:
256,192,51058,1,2,0:0:0:0:
256,192,51214,1,2,0:0:0:0:
256,192,51291,1,0,0:0:0:0:
256,192,51369,1,2,0:0:0:0:
256,192,51525,1,0,0:0:0:0:
256,192,51680,1,0,0:0:0:0:
256,192,51835,1,0,0:0:0:0:
256,192,51991,1,2,0:0:0:0:
256,192,52146,1,0,0:0:0:0:
256,192,52224,1,0,0:0:0:0:
256,192,52302,1,2,0:0:0:0:
256,192,52457,1,0,0:0:0:0:
256,192,52535,1,0,0:0:0:0:
256,192,52613,1,2,0:0:0:0:
256,192,52690,1,2,0:0:0:0:
256,192,52768,1,0,0:0:0:0:
256,192,52923,1,6,0:0:0:0:
256,192,53079,1,0,0:0:0:0:
256,192,53234,1,2,0:0:0:0:
256,192,53390,1,2,0:0:0:0:
256,192,53468,1,2,0:0:0:0:
256,192,53545,1,0,0:0:0:0:
256,192,53701,1,2,0:0:0:0:
256,192,53778,1,0,0:0:0:0:
256,192,53856,1,0,0:0:0:0:
256,192,54012,1,2,0:0:0:0:
256,192,54322,1,0,0:0:0:0:
256,192,54400,1,0,0:0:0:0:
256,192,54478,1,2,0:0:0:0:
256,192,54633,1,0,0:0:0:0:
256,192,54789,1,2,0:0:0:0:
256,192,54866,1,2,0:0:0:0:
256,192,54944,1,0,0:0:0:0:
256,192,55022,1,0,0:0:0:0:
256,192,55100,1,2,0:0:0:0:
256,192,55255,1,2,0:0:0:0:
256,192,55411,1,0,0:0:0:0:
256,192,55566,1,2,0:0:0:0:
256,192,55721,1,2,0:0:0:0:
256,192,55877,1,0,0:0:0:0:
256,192,55955,1,2,0:0:0:0:
256,192,56032,1,0,0:0:0:0:
256,192,56188,1,2,0:0:0:0:
256,192,56265,1,0,0:0:0:0:
256,192,56343,1,2,0:0:0:0:
256,192,56499,1,2,0:0:0:0:
256,192,56809,1,2,0:0:0:0:
256,192,56887,1,2,0:0:0:0:
256,192,56965,1,0,0:0:0:0:
256,192,57120,1,2,0:0:0:0:
256,192,57276,1,0,0:0:0:0:
256,192,57431,1,2,0:0:0:0:
256,192,57509,1,0,0:0:0:0:
256,192,57587,1,2,0:0:0:0:
256,192,57664,1,2,0:0:0:0:
256,192,57742,1,0,0:0:0:0:
256,192,57898,1,2,0:0:0:0:
256,192,58131,1,0,0:0:0:0:
256,192,58208,1,2,0:0:0:0:
256,192,58364,1,0,0:0:0:0:
256,192,58519,1,2,0:0:0:0:
256,192,58597,1,0,0:0:0:0:
256,192,58675,1,2,0:0:0:0:
256,192,58830,1,0,0:0:0:0:
256,192,58908,1,0,0:0:0:0:
256,192,58986,1,2,0:0:0:0:
256,192,59141,1,0,0:0:0:0:
256,192,59297,1,0,0:0:0:0:
256,192,59374,1,0,0:0:0:0:
256,192,59452,1,2,0:0:0:0:
256,192,59607,1,0,0:0:0:0:
256,192,59763,1,0,0:0:0:0:
256,192,59841,1,2,0:0:0:0:
256,192,59918,1,0,0:0:0:0:
256,192,60074,1,2,0:0:0:0:
256,192,60229,5,0,0:0:0:0:
256,192,60385,1,0,0:0:0:0:
256,192,60540,1,2,0:0:0:0:
256,192,60618,1,0,0:0:0:0:
256,192,60696,1,0,0:0:0:0:
256,192,60851,1,2,0:0:0:0:
256,192,61006,1,0,0:0:0:0:
256,192,61162,1,0,0:0:0:0:
256,192,61317,1,2,0:0:0:0:
256,192,61473,1,0,0:0:0:0:
256,192,61550,1,2,0:0:0:0:
256,192,61628,1,0,0:0:0:0:
256,192,61784,1,2,0:0:0:0:
256,192,61939,1,0,0:0:0:0:
256,192,62017,1,0,0:0:0:0:
256,192,62094,1,2,0:0:0:0:
256,192,62250,1,2,0:0:0:0:
256,192,62405,1,0,0:0:0:0:
256,192,62483,1,0,0:0:0:0:
256,192,62561,1,2,0:0:0:0:
256,192,62639,1,2,0:0:0:0:
256,192,62716,1,2,0:0:0:0:
256,192,62872,5,4,0:0:0:0:
256,192,63027,1,2,0:0:0:0:
256,192,63105,1,0,0:0:0:0:
256,192,63183,1,2,0:0:0:0:
256,192,63338,1,0,0:0:0:0:
256,192,63649,1,0,0:0:0:0:
256,192,63960,1,2,0:0:0:0:
256,192,64271,1,0,0:0:0:0:
256,192,64348,1,0,0:0:0:0:
256,192,64426,1,2,0:0:0:0:
256,192,64582,1,0,0:0:0:0:
256,192,64737,1,2,0:0:0:0:
256,192,64892,1,2,0:0:0:0:
256,192,65048,1,0,0:0:0:0:
256,192,65203,1,2,0:0:0:0:
256,192,65359,1,2,0:0:0:0:
256,192,65514,1,0,0:0:0:0:
256,192,65592,1,2,0:0:0:0:
256,192,65670,1,2,0:0:0:0:
256,192,65825,1,0,0:0:0:0:
256,192,66136,1,0,0:0:0:0:
256,192,66447,1,2,0:0:0:0:
256,192,66758,1,0,0:0:0:0:
256,192,66835,1,0,0:0:0:0:
256,192,66913,1,2,0:0:0:0:
256,192,67069,1,0,0:0:0:0:
256,192,67224,1,2,0:0:0:0:
256,192,67379,1,2,0:0:0:0:
256,192,67457,1,2,0:0:0:0:
256,192,67535,1,2,0:0:0:0:
256,192,67690,1,0,0:0:0:0:
256,192,67846,1,2,0:0:0:0:
256,192,68001,1,2,0:0:0:0:
256,192,68079,1,0,0:0:0:0:
256,192,68157,1,2,0:0:0:0:
256,192,68312,1,0,0:0:0:0:
256,192,68623,1,0,0:0:0:0:
256,192,68934,1,2,0:0:0:0:
256,192,69245,1,0,0:0:0:0:
256,192,69322,1,0,0:0:0:0:
256,192,69400,1,2,0:0:0:0:
256,192,69556,1,0,0:0:0:0:
256,192,69711,1,2,0:0:0:0:
256,192,69866,1,2,0:0:0:0:
256,192,70022,1,0,0:0:0:0:
256,192,70177,1,2,0:0:0:0:
256,192,70333,1,2,0:0:0:0:
256,192,70488,1,0,0:0:0:0:
256,192,70566,1,2,0:0:0:0:
256,192,70644,1,2,0:0:0:0:
256,192,70799,1,0,0:0:0:0:
256,192,71110,1,0,0:0:0:0:
256,192,71421,1,2,0:0:0:0:
256,192,71732,1,0,0:0:0:0:
256,192,71809,1,0,0:0:0:0:
256,192,71887,1,2,0:0:0:0:
256,192,72043,1,0,0:0:0:0:
256,192,72198,1,2,0:0:0:0:
256,192,72276,1,0,0:0:0:0:
256,192,72354,1,2,0:0:0:0:
256,192,72431,1,0,0:0:0:0:
256,192,72509,1,2,0:0:0:0:
256,192,72664,1,2,0:0:0:0:
256,192,72820,1,0,0:0:0:0:
256,192,72975,1,2,0:0:0:0:
256,192,73053,1,0,0:0:0:0:
256,192,73131,1,2,0:0:0:0:
256,192,73286,1,0,0:0:0:0:
256,192,73442,1,6,0:0:0:0:
256,192,73597,1,0,0:0:0:0:
256,192,73908,1,2,0:0:0:0:
256,192,74219,1,0,0:0:0:0:
256,192,74296,1,0,0:0:0:0:
256,192,74374,1,2,0:0:0:0:
256,192,74530,1,0,0:0:0:0:
256,192,74685,1,6,0:0:0:0:
256,192,74841,1,2,0:0:0:0:
256,192,74996,1,0,0:0:0:0:
256,192,75151,1,2,0:0:0:0:
256,192,75307,1,2,0:0:0:0:
256,192,75462,1,0,0:0:0:0:
256,192,75540,1,2,0:0:0:0:
256,192,75618,1,2,0:0:0:0:
256,192,75773,1,0,0:0:0:0:
256,192,75929,1,6,0:0:0:0:
256,192,76084,1,0,0:0:0:0:
256,192,76395,1,2,0:0:0:0:
256,192,76706,1,0,0:0:0:0:
256,192,76783,1,0,0:0:0:0:
256,192,76861,1,2,0:0:0:0:
256,192,77017,1,0,0:0:0:0:
256,192,77172,1,6,0:0:0:0:
256,192,77328,1,2,0:0:0:0:
256,192,77405,1,2,0:0:0:0:
256,192,77483,1,2,0:0:0:0:
256,192,77638,1,0,0:0:0:0:
256,192,77794,1,2,0:0:0:0:
256,192,77949,1,2,0:0:0:0:
256,192,78027,1,0,0:0:0:0:
256,192,78105,1,2,0:0:0:0:
256,192,78260,1,0,0:0:0:0:
256,192,78416,1,6,0:0:0:0:
256,192,78571,1,0,0:0:0:0:
256,192,78882,1,2,0:0:0:0:
256,192,79193,1,0,0:0:0:0:
256,192,79270,1,0,0:0:0:0:
256,192,79348,1,2,0:0:0:0:
256,192,79504,1,0,0:0:0:0:
256,192,79659,1,6,0:0:0:0:
256,192,79815,1,2,0:0:0:0:
256,192,79970,1,0,0:0:0:0:
256,192,80125,1,2,0:0:0:0:
256,192,80281,1,2,0:0:0:0:
256,192,80436,1,0,0:0:0:0:
256,192,80514,1,2,0:0:0:0:
256,192,80592,1,2,0:0:0:0:
256,192,80747,1,0,0:0:0:0:
256,192,80903,1,6,0:0:0:0:
256,192,81058,1,0,0:0:0:0:
256,192,81369,1,2,0:0:0:0:
256,192,81525,1,0,0:0:0:0:
256,192,81680,1,2,0:0:0:0:
256,192,81758,1,2,0:0:0:0:
256,192,81835,1,0,0:0:0:0:
256,192,81913,1,0,0:0:0:0:
256,192,81991,1,2,0:0:0:0:
256,192,82146,1,2,0:0:0:0:
256,192,82224,1,0,0:0:0:0:
256,192,82302,1,2,0:0:0:0:
256,192,82379,1,0,0:0:0:0:
256,192,82457,1,2,0:0:0:0:
256,192,82613,1,2,0:0:0:0:
256,192,82768,1,4,0:0:0:0:
256,192,84012,1,2,0:0:0:0:
256,192,85255,1,2,0:0:0:0:
256,192,86188,1,0,0:0:0:0:
256,192,86499,1,2,0:0:0:0:
256,192,86809,1,2,0:0:0:0:
256,192,87120,1,0,0:0:0:0:
256,192,87431,1,0,0:0:0:0:
256,192,88986,1,2,0:0:0:0:
256,192,91162,1,0,0:0:0:0:
256,192,91473,1,2,0:0:0:0:
256,192,91784,1,2,0:0:0:0:
256,192,92094,1,0,0:0:0:0:
256,192,92405,1,2,0:0:0:0:
256,192,92483,1,2,0:0:0:0:
256,192,92561,1,2,0:0:0:0:
256,192,92716,1,4,0:0:0:0:
256,192,92872,1,2,0:0:0:0:
256,192,92949,1,2,0:0:0:0:
256,192,93027,1,0,0:0:0:0:
256,192,93105,1,2,0:0:0:0:
256,192,93183,1,0,0:0:0:0:
256,192,93338,1,2,0:0:0:0:
256,192,93493,1,0,0:0:0:0:
256,192,93571,1,0,0:0:0:0:
256,192,93649,1,0,0:0:0:0:
256,192,93804,1,2,0:0:0:0:
256,192,93960,1,0,0:0:0:0:
256,192,94115,1,2,0:0:0:0:
288,192,94193,1,2,0:0:0:0:
256,192,94271,1,0,0:0:0:0:
256,192,94348,1,0,0:0:0:0:
256,192,94426,1,2,0:0:0:0:
256,192,94504,1,0,0:0:0:0:
256,192,94582,1,2,0:0:0:0:
256,192,94737,1,0,0:0:0:0:
256,192,94815,1,2,0:0:0:0:
256,192,94892,1,0,0:0:0:0:
256,192,95048,1,2,0:0:0:0:
256,192,95203,1,0,0:0:0:0:
256,192,95359,1,2,0:0:0:0:
256,192,95514,1,2,0:0:0:0:
256,192,95670,1,0,0:0:0:0:
256,192,95747,1,0,0:0:0:0:
256,192,95825,1,2,0:0:0:0:
256,192,95903,1,0,0:0:0:0:
256,192,95980,1,0,0:0:0:0:
256,192,96136,1,2,0:0:0:0:
256,192,96214,1,0,0:0:0:0:
256,192,96291,1,2,0:0:0:0:
256,192,96369,1,2,0:0:0:0:
256,192,96447,1,0,0:0:0:0:
256,192,96602,1,0,0:0:0:0:
256,192,96680,1,0,0:0:0:0:
256,192,96758,1,2,0:0:0:0:
256,192,96835,1,2,0:0:0:0:
256,192,96913,1,0,0:0:0:0:
256,192,97069,1,0,0:0:0:0:
256,192,97224,1,2,0:0:0:0:
256,192,97302,1,0,0:0:0:0:
256,192,97379,1,2,0:0:0:0:
256,192,97457,1,0,0:0:0:0:
256,192,97535,1,2,0:0:0:0:
256,192,97613,1,2,0:0:0:0:
256,192,97690,1,0,0:0:0:0:
256,192,97846,1,2,0:0:0:0:
256,192,98001,1,0,0:0:0:0:
256,192,98079,1,0,0:0:0:0:
256,192,98157,1,2,0:0:0:0:
256,192,98312,1,0,0:0:0:0:
256,192,98390,1,0,0:0:0:0:
256,192,98468,1,2,0:0:0:0:
256,192,98545,1,0,0:0:0:0:
256,192,98623,1,2,0:0:0:0:
256,192,98778,1,0,0:0:0:0:
256,192,98934,1,0,0:0:0:0:
256,192,99089,1,2,0:0:0:0:
256,192,99245,1,0,0:0:0:0:
256,192,99322,1,0,0:0:0:0:
256,192,99400,1,2,0:0:0:0:
256,192,99556,1,0,0:0:0:0:
256,192,99633,1,2,0:0:0:0:
256,192,99711,1,2,0:0:0:0:
256,192,99789,1,0,0:0:0:0:
256,192,99866,1,2,0:0:0:0:
256,192,100022,1,0,0:0:0:0:
256,192,100177,1,0,0:0:0:0:
256,192,100333,1,2,0:0:0:0:
256,192,100488,1,2,0:0:0:0:
256,192,100566,1,2,0:0:0:0:
256,192,100644,1,0,0:0:0:0:
256,192,100799,1,2,0:0:0:0:
256,192,100877,1,2,0:0:0:0:
256,192,100955,1,0,0:0:0:0:
256,192,101032,1,0,0:0:0:0:
256,192,101110,1,2,0:0:0:0:
256,192,101265,1,0,0:0:0:0:
256,192,101421,1,2,0:0:0:0:
256,192,101499,1,2,0:0:0:0:
256,192,101576,1,0,0:0:0:0:
256,192,101654,1,2,0:0:0:0:
256,192,101732,1,0,0:0:0:0:
256,192,101887,1,2,0:0:0:0:
256,192,101965,1,2,0:0:0:0:
256,192,102043,1,0,0:0:0:0:
256,192,102120,1,2,0:0:0:0:
256,192,102198,1,0,0:0:0:0:
256,192,102276,1,0,0:0:0:0:
256,192,102354,1,2,0:0:0:0:
256,192,102431,1,2,0:0:0:0:
256,192,102509,1,0,0:0:0:0:
256,192,102664,1,6,0:0:0:0:
256,192,102820,1,0,0:0:0:0:
256,192,102898,1,0,0:0:0:0:
256,192,102975,1,2,0:0:0:0:
256,192,103053,1,0,0:0:0:0:
256,192,103131,1,2,0:0:0:0:
256,192,103286,1,2,0:0:0:0:
256,192,103364,1,0,0:0:0:0:
256,192,103442,1,0,0:0:0:0:
256,192,103519,1,0,0:0:0:0:
256,192,103597,1,2,0:0:0:0:
256,192,103752,1,0,0:0:0:0:
256,192,103830,1,0,0:0:0:0:
256,192,103908,1,2,0:0:0:0:
256,192,104063,1,2,0:0:0:0:
256,192,104141,1,2,0:0:0:0:
256,192,104219,1,0,0:0:0:0:
256,192,104297,1,2,0:0:0:0:
256,192,104374,1,0,0:0:0:0:
256,192,104452,1,0,0:0:0:0:
256,192,104530,1,2,0:0:0:0:
256,192,104685,1,0,0:0:0:0:
256,192,104763,1,0,0:0:0:0:
256,192,104841,1,2,0:0:0:0:
256,192,104918,1,2,0:0:0:0:
256,192,104996,1,0,0:0:0:0:
256,192,105151,1,2,0:0:0:0:
256,192,105307,1,0,0:0:0:0:
256,192,105385,1,0,0:0:0:0:
256,192,105462,1,2,0:0:0:0:
256,192,105540,1,0,0:0:0:0:
256,192,105618,1,2,0:0:0:0:
256,192,105695,1,0,0:0:0:0:
256,192,105773,1,2,0:0:0:0:
256,192,105929,1,0,0:0:0:0:
256,192,106006,1,0,0:0:0:0:
256,192,106084,1,2,0:0:0:0:
256,192,106162,1,2,0:0:0:0:
256,192,106240,1,0,0:0:0:0:
256,192,106317,1,0,0:0:0:0:
256,192,106395,1,2,0:0:0:0:
256,192,106550,1,0,0:0:0:0:
256,192,106628,1,0,0:0:0:0:
256,192,106706,1,2,0:0:0:0:
256,192,106784,1,0,0:0:0:0:
256,192,106861,1,2,0:0:0:0:
256,192,107017,1,2,0:0:0:0:
256,192,107094,1,2,0:0:0:0:
256,192,107172,1,0,0:0:0:0:
256,192,107250,1,0,0:0:0:0:
256,192,107328,1,2,0:0:0:0:
256,192,107483,1,2,0:0:0:0:
256,192,107639,5,4,0:0:0:0:
256,192,107794,1,2,0:0:0:0:
256,192,107872,1,2,0:0:0:0:
256,192,107949,1,0,0:0:0:0:
256,192,108027,1,2,0:0:0:0:
256,192,108105,1,0,0:0:0:0:
256,192,108260,1,2,0:0:0:0:
256,192,108338,1,0,0:0:0:0:
256,192,108416,1,2,0:0:0:0:
256,192,108493,1,0,0:0:0:0:
256,192,108571,1,2,0:0:0:0:
256,192,108727,1,2,0:0:0:0:
256,192,108882,1,0,0:0:0:0:
256,192,109037,1,2,0:0:0:0:
256,192,109115,1,2,0:0:0:0:
256,192,109193,1,0,0:0:0:0:
256,192,109271,1,0,0:0:0:0:
256,192,109348,1,2,0:0:0:0:
256,192,109426,1,0,0:0:0:0:
256,192,109504,1,2,0:0:0:0:
256,192,109659,1,0,0:0:0:0:
256,192,109737,1,0,0:0:0:0:
256,192,109815,1,2,0:0:0:0:
256,192,109892,1,0,0:0:0:0:
256,192,109970,1,2,0:0:0:0:
256,192,110126,1,0,0:0:0:0:
256,192,110281,1,2,0:0:0:0:
256,192,110359,1,2,0:0:0:0:
256,192,110436,1,0,0:0:0:0:
256,192,110514,1,0,0:0:0:0:
256,192,110592,1,2,0:0:0:0:
256,192,110747,1,0,0:0:0:0:
256,192,110825,1,0,0:0:0:0:
256,192,110903,1,2,0:0:0:0:
256,192,110980,1,0,0:0:0:0:
256,192,111058,1,2,0:0:0:0:
256,192,111214,1,2,0:0:0:0:
256,192,111369,1,0,0:0:0:0:
256,192,111525,1,2,0:0:0:0:
256,192,111602,1,2,0:0:0:0:
256,192,111680,1,0,0:0:0:0:
256,192,111758,1,0,0:0:0:0:
256,192,111835,1,2,0:0:0:0:
256,192,111913,1,0,0:0:0:0:
256,192,111991,1,2,0:0:0:0:
256,192,112146,1,0,0:0:0:0:
256,192,112224,1,0,0:0:0:0:
256,192,112302,1,2,0:0:0:0:
256,192,112457,1,2,0:0:0:0:
256,192,112613,5,4,0:0:0:0:
