osu file format v14

[General]
AudioFilename: audio.mp3
AudioLeadIn: 0
PreviewTime: 29031
Countdown: 1
SampleSet: Normal
StackLeniency: 0.7
Mode: 0
LetterboxInBreaks: 0
WidescreenStoryboard: 0

[Editor]
Bookmarks: 10416,20416,40107,49953,59799,69645,89337,109030,118876
DistanceSpacing: 0.3
BeatDivisor: 4
GridSize: 4
TimelineZoom: 2.999999

[Metadata]
Title:Flashback
TitleUnicode:Flashback
Artist:ARForest
ArtistUnicode:ARForest
Creator:Secretpipe
Version:not dnb
Source:
Tags:for kawa my dood
BeatmapID:1654294
BeatmapSetID:788196

[Difficulty]
HPDrainRate:7
CircleSize:4.4
OverallDifficulty:8.6
ApproachRate:9.5
SliderMultiplier:1.8
SliderTickRate:1

[Events]
//Background and Video events
0,0,"bg.jpg",0,0
//Break Periods
2,20616,28461
2,69845,78614
//Storyboard Layer 0 (Background)
//Storyboard Layer 1 (Fail)
//Storyboard Layer 2 (Pass)
//Storyboard Layer 3 (Foreground)
//Storyboard Layer 4 (Overlay)
//Storyboard Sound Samples

[TimingPoints]
570,307.692307692308,4,1,0,40,1,0
570,-125,4,1,0,40,0,0
10416,-76.9230769230769,4,1,0,40,0,0
10723,-100,4,1,0,40,0,0
29031,307.692307692308,4,1,0,40,1,0
29031,-133.333333333333,4,1,0,40,0,0
30261,307.692307692308,4,1,0,40,1,0
30261,-83.3333333333333,4,1,0,40,0,0
49953,-133.333333333333,4,1,0,40,0,0
59799,-111.111111111111,4,1,0,40,0,0
69645,-100,4,1,0,40,0,0
79184,-333.333333333333,4,1,0,40,0,0
79491,-200,4,1,0,40,0,0
86876,-125,4,1,0,40,0,0
87184,-100,4,1,0,40,0,0
87491,-83.3333333333333,4,1,0,40,0,0
87799,-71.4285714285714,4,1,0,40,0,0
88107,-62.5,4,1,0,40,0,0
88414,-55.5555555555556,4,1,0,40,0,0
88722,-50,4,1,0,40,0,0
89337,-66.6666666666667,4,1,0,40,0,1
109107,-66.6666666666667,4,1,0,40,0,0

[HitObjects]
76,270,570,6,0,P|146:280|190:263,1,108
247,235,877,1,0,0:0:0:0:
270,226,954,1,0,0:0:0:0:
295,225,1031,2,0,L|378:232,1,72
265,127,1339,1,0,0:0:0:0:
399,66,1493,2,0,P|379:125|401:171,1,108
440,227,1800,6,0,L|428:305,1,72
265,127,2108,1,0,0:0:0:0:
257,151,2185,1,0,0:0:0:0:
256,176,2262,2,0,L|276:249,1,72
399,66,2570,2,0,P|362:61|322:77,2,72
265,127,3031,6,0,L|132:111,1,108
88,82,3339,1,0,0:0:0:0:
75,59,3416,1,0,0:0:0:0:
78,33,3493,1,0,0:0:0:0:
164,261,3646,2,0,P|182:223|178:188,1,72
77,297,3954,2,0,P|41:294|8:307,1,72
193,362,4262,5,0,0:0:0:0:
211,356,4570,2,0,L|218:295,1,36
255,258,4723,1,0,0:0:0:0:
147,148,4877,2,0,L|165:227,1,72
308,129,5185,2,0,L|327:47,1,72
71,89,5493,6,0,B|52:129|52:129|76:211,1,108
144,252,5800,2,0,L|91:260,1,36
212,302,5954,1,0,0:0:0:0:
212,302,6262,1,0,0:0:0:0:
281,148,6416,2,0,L|277:268,1,108
316,313,6723,6,0,P|344:279|342:243,1,72
253,88,7031,1,0,0:0:0:0:
253,88,7108,1,0,0:0:0:0:
253,88,7185,2,0,P|258:129|281:148,1,72
474,118,7493,2,0,P|441:104|392:121,2,72
301,227,7954,6,0,L|172:217,1,108
130,270,8262,2,0,P|127:293|133:305,2,36
236,71,8570,2,0,P|236:106|207:149,1,72
33,68,8877,2,0,L|117:84,1,72
333,155,9185,6,0,P|338:114|321:85,1,72
241,285,9493,1,0,0:0:0:0:
263,296,9570,1,0,0:0:0:0:
288,300,9646,1,0,0:0:0:0:
437,142,9800,2,0,L|424:221,1,72
242,77,10108,2,0,L|259:155,1,72
99,264,10416,6,0,P|128:218|184:234,1,116.999994644165
30,330,10723,1,0,0:0:0:0:
30,330,10800,1,0,0:0:0:0:
30,330,10877,2,0,L|18:232,1,90
67,73,11185,1,0,0:0:0:0:
151,188,11339,2,0,L|161:88,1,90
244,271,11646,6,0,L|226:118,1,135
269,71,11954,2,0,L|278:23,2,45
244,271,12262,1,0,0:0:0:0:
324,361,12416,2,0,P|350:324|341:269,2,90
97,234,12877,2,0,L|212:231,1,90
354,146,13185,1,0,0:0:0:0:
345,156,13262,1,0,0:0:0:0:
333,160,13339,2,0,L|153:166,1,180
77,316,13800,2,0,P|101:267|86:214,1,90
33,74,14108,6,0,L|46:175,1,90
239,35,14416,1,0,0:0:0:0:
239,35,14493,1,0,0:0:0:0:
239,35,14570,1,0,0:0:0:0:
118,182,14723,2,0,L|136:86,1,90
233,298,15031,6,0,L|226:234,1,45
268,163,15185,1,0,0:0:0:0:
443,250,15339,6,0,L|296:234,1,135
196,192,15646,1,0,0:0:0:0:
196,192,15723,1,0,0:0:0:0:
196,192,15800,2,0,L|213:90,1,90
134,256,16108,1,0,0:0:0:0:
262,339,16262,2,0,P|235:279|192:263,1,90
38,219,16570,6,0,L|59:113,1,90
196,192,16877,1,0,0:0:0:0:
196,192,16954,1,0,0:0:0:0:
196,192,17031,2,0,L|180:92,1,90
298,300,17339,1,0,0:0:0:0:
406,208,17493,1,0,0:0:0:0:
284,152,17646,1,0,0:0:0:0:
452,268,17800,6,0,P|471:245|465:173,1,90
273,229,18108,1,0,0:0:0:0:
273,229,18185,1,0,0:0:0:0:
273,229,18262,2,0,P|322:226|353:189,1,90
142,154,18570,1,0,0:0:0:0:
161,257,18723,1,0,0:0:0:0:
244,135,18877,1,0,0:0:0:0:
26,244,19031,6,0,L|174:258,1,135
223,285,19339,1,0,0:0:0:0:
244,319,19416,1,0,0:0:0:0:
237,359,19493,1,0,0:0:0:0:
26,244,19646,5,0,0:0:0:0:
244,67,19800,1,0,0:0:0:0:
158,208,19954,1,0,0:0:0:0:
158,208,20031,1,0,0:0:0:0:
158,208,20108,1,0,0:0:0:0:
118,92,20262,1,0,0:0:0:0:
332,256,20416,5,0,0:0:0:0:
93,122,29031,6,0,L|102:171,1,33.7500012874604
153,219,29184,2,0,L|146:265,1,33.7500012874604
93,316,29338,1,0,0:0:0:0:
246,172,29492,1,0,0:0:0:0:
257,151,29569,1,0,0:0:0:0:
263,128,29646,2,0,L|251:70,2,33.7500012874604
359,362,29954,5,0,0:0:0:0:
397,328,30031,1,0,0:0:0:0:
409,279,30107,1,0,0:0:0:0:
401,228,30184,1,0,0:0:0:0:
370,190,30261,6,0,P|361:166|363:136,1,53.9999983520508
459,45,30414,2,0,P|460:71|451:96,1,53.9999983520508
331,26,30568,1,0,0:0:0:0:
237,165,30722,2,0,L|225:108,1,53.9999983520508
286,222,30876,1,0,0:0:0:0:
20,223,31030,2,0,P|73:179|120:192,1,107.999996704102
164,225,31261,1,0,0:0:0:0:
192,263,31337,2,0,L|184:323,2,53.9999983520508
403,259,31645,1,0,0:0:0:0:
190,65,31799,6,0,L|205:133,1,53.9999983520508
335,239,31953,2,0,L|345:176,1,53.9999983520508
415,49,32107,2,0,L|435:119,1,53.9999983520508
266,204,32261,2,0,L|201:184,1,53.9999983520508
31,228,32414,1,0,0:0:0:0:
57,226,32491,1,0,0:0:0:0:
83,220,32568,1,0,0:0:0:0:
109,213,32645,1,0,0:0:0:0:
133,201,32722,6,0,P|135:175|121:144,1,53.9999983520508
22,77,32876,2,0,P|52:87|93:79,1,53.9999983520508
265,48,33030,2,0,L|153:39,1,107.999996704102
164,65,33261,1,0,0:0:0:0:
181,85,33337,1,0,0:0:0:0:
436,41,33491,2,0,B|394:113|401:157|401:157|433:148|445:124,1,161.999995056153
495,96,33799,5,0,0:0:0:0:
246,247,33953,2,0,P|293:276|349:274,1,107.999996704102
234,106,34261,1,0,0:0:0:0:
147,249,34414,1,0,0:0:0:0:
373,155,34568,1,0,0:0:0:0:
119,57,34722,1,0,0:0:0:0:
279,303,34876,1,0,0:0:0:0:
413,92,35030,6,0,P|341:88|296:159,1,161.999995056153
321,225,35337,1,0,0:0:0:0:
46,43,35491,2,0,B|51:110|79:89|71:146,1,107.999996704102
11,295,35799,1,0,0:0:0:0:
321,225,35953,2,0,B|289:226|266:203|266:203|216:222,1,107.999996704102
362,102,36261,6,0,B|335:48|335:48|321:159,1,161.999995056153
391,179,36568,1,0,0:0:0:0:
189,34,36722,2,0,L|207:158,1,107.999996704102
143,269,37030,1,0,0:0:0:0:
67,62,37184,1,0,0:0:0:0:
19,227,37337,2,0,L|85:220,1,53.9999983520508
143,269,37491,2,0,L|196:272,1,53.9999983520508
282,235,37645,5,0,0:0:0:0:
147,129,37799,1,0,0:0:0:0:
351,26,37953,1,0,0:0:0:0:
199,207,38107,1,0,0:0:0:0:
199,207,38184,1,0,0:0:0:0:
199,207,38261,5,0,0:0:0:0:
262,60,38414,1,0,0:0:0:0:
359,256,38568,1,0,0:0:0:0:
84,243,38722,1,0,0:0:0:0:
331,97,38876,1,0,0:0:0:0:
187,319,39030,1,0,0:0:0:0:
187,117,39184,1,0,0:0:0:0:
273,349,39337,1,0,0:0:0:0:
262,59,39491,5,0,0:0:0:0:
331,97,39568,2,0,L|393:101,1,53.9999983520508
244,200,39722,1,0,0:0:0:0:
181,245,39799,2,0,L|121:239,1,53.9999983520508
273,349,39953,2,0,L|342:343,1,53.9999983520508
384,166,40107,6,0,P|389:200|406:228,1,53.9999983520508
344,46,40260,2,0,P|329:81|335:111,1,53.9999983520508
439,25,40414,1,0,0:0:0:0:
181,245,40568,2,0,P|190:217|182:176,1,53.9999983520508
152,117,40722,1,0,0:0:0:0:
34,315,40876,2,0,B|73:301|73:301|198:318,1,161.999995056153
279,330,41184,6,0,L|356:316,1,53.9999983520508
392,282,41337,1,0,0:0:0:0:
164,195,41491,1,0,0:0:0:0:
398,98,41645,2,0,P|336:107|285:86,1,107.999996704102
453,37,41953,1,0,0:0:0:0:
110,135,42107,2,0,P|164:117|231:145,1,107.999996704102
229,352,42414,6,0,B|232:321|262:290|262:290|234:252|251:199,1,161.999995056153
290,132,42722,1,0,0:0:0:0:
409,350,42876,2,0,P|356:371|306:345,1,107.999996704102
174,283,43184,1,0,0:0:0:0:
478,228,43337,2,0,B|441:234|399:205|399:205|366:237|312:223,1,161.999995056153
251,210,43645,6,0,L|261:276,1,53.9999983520508
228,342,43799,1,0,0:0:0:0:
335,154,43953,1,0,0:0:0:0:
155,78,44107,2,0,L|137:193,1,107.999996704102
265,42,44414,2,0,L|284:125,1,53.9999983520508
335,154,44568,1,0,0:0:0:0:
325,179,44645,1,0,0:0:0:0:
316,204,44722,2,0,L|327:276,1,53.9999983520508
282,334,44876,1,0,0:0:0:0:
103,139,45030,6,0,B|84:177|84:177|99:248,1,107.999996704102
440,348,45337,2,0,P|461:295|439:234,1,107.999996704102
425,216,45568,1,0,0:0:0:0:
401,186,45645,2,0,P|387:161|391:129,1,53.9999983520508
484,34,45799,2,0,L|461:148,1,107.999996704102
127,109,46107,6,0,B|165:117|198:91|198:91|248:80|294:110,1,161.999995056153
341,148,46414,1,0,0:0:0:0:
108,264,46568,1,0,0:0:0:0:
40,57,46722,2,0,L|51:125,1,53.9999983520508
30,187,46876,1,0,0:0:0:0:
324,229,47030,1,0,0:0:0:0:
244,81,47184,2,0,P|242:116|231:140,1,53.9999983520508
194,258,47337,2,0,P|185:230|182:205,1,53.9999983520508
270,311,47491,6,0,L|339:321,1,53.9999983520508
176,353,47645,1,0,0:0:0:0:
415,122,47799,2,0,B|391:161|391:161|405:246,1,107.999996704102
431,291,48030,1,0,0:0:0:0:
431,291,48107,1,0,0:0:0:0:
186,163,48261,1,0,0:0:0:0:
296,327,48414,1,0,0:0:0:0:
296,90,48568,1,0,0:0:0:0:
139,281,48722,5,0,0:0:0:0:
359,216,48876,1,0,0:0:0:0:
138,51,49030,1,0,0:0:0:0:
242,258,49184,1,0,0:0:0:0:
368,42,49337,5,0,0:0:0:0:
295,89,49414,2,0,L|307:142,1,53.9999983520508
388,290,49568,1,0,0:0:0:0:
458,247,49645,2,0,L|469:194,1,53.9999983520508
314,284,49799,2,0,L|329:349,1,53.9999983520508
204,184,49953,6,0,L|221:45,1,135.000005149842
237,34,50414,2,0,L|218:178,1,135.000005149842
159,245,50876,2,0,P|92:245|45:191,1,135.000005149842
140,50,51337,2,0,P|159:112|117:176,1,135.000005149842
171,311,51799,2,0,L|156:232,1,67.5000025749208
272,217,52107,2,0,L|283:144,1,67.5000025749208
467,320,52414,6,0,B|414:341|414:341|326:322,1,135.000005149842
263,281,52876,2,0,B|207:269|207:269|123:303,1,135.000005149842
61,339,53337,2,0,P|112:298|97:230,1,135.000005149842
50,182,53799,2,0,L|32:32,1,135.000005149842
203,177,54261,2,0,L|185:259,1,67.5000025749208
307,106,54568,2,0,L|298:29,1,67.5000025749208
361,213,54876,6,0,P|426:225|507:198,1,135.000005149842
286,284,55337,2,0,P|232:257|150:271,1,135.000005149842
383,346,55799,2,0,L|358:196,1,135.000005149842
225,75,56261,2,0,P|225:126|293:169,1,135.000005149842
368,82,56722,2,0,L|279:95,1,67.5000025749208
146,152,57030,2,0,L|71:142,1,67.5000025749208
202,255,57337,6,0,L|194:197,1,33.7500012874604
272,345,57491,6,0,L|280:274,2,67.5000025749208
407,220,57953,2,0,P|372:211|320:231,1,67.5000025749208
451,319,58261,6,0,L|456:276,1,33.7500012874604
407,220,58414,6,0,L|386:137,2,67.5000025749208
323,115,58876,2,0,P|284:104|250:113,1,67.5000025749208
81,178,59184,1,0,0:0:0:0:
178,341,59337,1,0,0:0:0:0:
367,269,59491,1,0,0:0:0:0:
258,109,59645,1,0,0:0:0:0:
367,269,59799,6,0,P|382:237|372:180,1,80.9999975280763
365,166,60030,1,0,0:0:0:0:
350,141,60107,1,0,0:0:0:0:
268,285,60261,1,0,0:0:0:0:
445,345,60414,2,0,L|453:248,1,80.9999975280763
394,72,60722,5,0,0:0:0:0:
394,72,60876,1,0,0:0:0:0:
174,143,61030,2,0,L|266:138,1,80.9999975280763
278,121,61261,1,0,0:0:0:0:
303,109,61337,1,0,0:0:0:0:
91,82,61491,1,0,0:0:0:0:
150,303,61645,2,0,P|164:266|149:213,2,80.9999975280763
78,182,62107,1,0,0:0:0:0:
242,340,62261,5,0,0:0:0:0:
320,273,62414,1,0,0:0:0:0:
320,273,62491,1,0,0:0:0:0:
320,273,62568,1,0,0:0:0:0:
463,358,62722,1,0,0:0:0:0:
392,100,62876,2,0,L|385:185,1,80.9999975280763
223,68,63184,6,0,L|232:164,1,80.9999975280763
300,26,63491,1,0,0:0:0:0:
139,128,63645,1,0,0:0:0:0:
132,155,63722,1,0,0:0:0:0:
139,182,63799,1,0,0:0:0:0:
306,136,63953,1,0,0:0:0:0:
42,54,64107,1,0,0:0:0:0:
211,268,64261,1,0,0:0:0:0:
228,246,64337,1,0,0:0:0:0:
230,217,64414,1,0,0:0:0:0:
230,188,64491,1,0,0:0:0:0:
216,163,64568,1,0,0:0:0:0:
67,333,64722,6,0,L|162:325,1,80.9999975280763
171,334,64953,1,0,0:0:0:0:
193,342,65030,2,0,L|286:334,1,80.9999975280763
453,275,65337,2,0,P|368:235|331:294,1,161.999995056153
446,351,65799,1,0,0:0:0:0:
260,264,65953,6,0,L|252:184,1,80.9999975280763
232,157,66184,1,0,0:0:0:0:
215,129,66261,2,0,P|206:88|216:44,1,80.9999975280763
363,85,66568,2,0,P|317:95|262:77,1,80.9999975280763
51,119,66876,2,0,P|94:129|141:109,1,80.9999975280763
51,302,67184,6,0,L|39:240,1,40.4999987640381
117,351,67337,1,0,0:0:0:0:
126,319,67414,1,0,0:0:0:0:
131,287,67491,2,0,L|115:202,1,80.9999975280763
294,311,67799,2,0,P|257:327|205:310,1,80.9999975280763
357,253,68107,6,0,L|409:257,1,40.4999987640381
492,189,68261,2,0,L|437:197,1,40.4999987640381
359,44,68414,1,0,0:0:0:0:
352,75,68491,1,0,0:0:0:0:
346,107,68568,1,0,0:0:0:0:
339,138,68645,1,0,0:0:0:0:
331,169,68722,1,0,0:0:0:0:
438,89,68876,1,0,0:0:0:0:
237,74,69030,6,0,B|215:117|215:117|228:203,1,121.499996292114
266,359,69337,2,0,B|288:316|288:316|275:230,1,121.499996292114
169,273,69645,5,0,0:0:0:0:
88,204,79184,6,0,L|92:240,1,26.9999991760254
135,289,79491,2,0,P|197:306|261:281,1,135
309,216,80107,2,0,L|302:166,2,45
267,88,80568,2,0,P|222:101|164:87,1,90
81,63,81030,2,0,L|89:125,1,45
131,176,81337,1,0,0:0:0:0:
57,282,81491,2,0,L|63:224,1,45
125,337,81799,6,0,P|160:324|263:339,1,135
341,374,82414,1,0,0:0:0:0:
408,303,82568,2,0,L|401:242,2,45
455,192,83030,2,0,L|460:92,1,90
269,54,83491,2,0,L|277:114,2,45
232,223,83953,2,0,P|226:201|226:178,1,45
300,296,84261,5,0,0:0:0:0:
306,302,84568,2,0,L|368:306,1,45
421,349,84876,1,0,0:0:0:0:
472,194,85030,2,0,L|480:251,2,45
413,84,85491,5,0,0:0:0:0:
346,169,85645,2,0,L|288:178,1,45
221,134,85953,1,0,0:0:0:0:
221,134,86107,1,0,0:0:0:0:
97,185,86261,2,0,L|150:197,2,45
196,259,86722,1,0,0:0:0:0:
33,61,86876,6,0,L|40:137,1,72
265,244,87184,6,0,P|241:204|176:197,1,90
131,206,87414,1,0,0:0:0:0:
113,298,87491,6,0,L|118:351,1,53.9999983520508
196,259,87645,2,0,L|186:321,1,53.9999983520508
19,162,87799,6,0,P|83:145|114:72,1,125.999996154785
132,28,88030,1,0,0:0:0:0:
185,79,88107,6,0,P|242:120|313:114,1,144
372,62,88337,1,0,0:0:0:0:
386,134,88414,6,0,B|407:176|374:220|374:220|377:267|405:281,1,161.999995056153
465,236,88645,1,0,0:0:0:0:
341,329,88722,6,0,L|249:325,1,90
110,240,88876,2,0,P|163:232|203:257,1,90
40,317,89030,5,0,0:0:0:0:
24,246,89107,1,0,0:0:0:0:
46,177,89184,1,0,0:0:0:0:
99,129,89261,1,0,0:0:0:0:
169,120,89337,6,0,L|240:135,1,67.5000025749208
299,181,89491,1,0,0:0:0:0:
430,38,89645,2,0,P|396:99|424:175,1,135.000005149842
118,311,89953,2,0,L|109:239,1,67.5000025749208
46,177,90107,1,0,0:0:0:0:
318,329,90261,1,0,0:0:0:0:
250,28,90414,6,0,B|258:72|224:104|224:104|244:161|244:161|216:202|230:247,1,202.500007724762
224,288,90722,1,0,0:0:0:0:
46,37,90876,1,0,0:0:0:0:
431,190,91030,2,0,L|296:207,1,135.000005149842
21,308,91337,1,0,0:0:0:0:
46,37,91491,2,0,L|187:52,1,135.000005149842
218,90,91722,1,0,0:0:0:0:
180,128,91799,6,0,P|168:166|170:194,1,67.5000025749208
187,265,91953,1,0,0:0:0:0:
459,55,92107,1,0,0:0:0:0:
53,322,92261,2,0,L|141:307,1,67.5000025749208
187,265,92414,1,0,0:0:0:0:
394,345,92568,1,0,0:0:0:0:
430,314,92645,2,0,P|445:250|396:192,1,135.000005149842
342,159,92876,6,0,L|333:20,1,135.000005149842
90,349,93184,1,0,0:0:0:0:
73,304,93261,1,0,0:0:0:0:
81,258,93337,1,0,0:0:0:0:
113,223,93414,1,0,0:0:0:0:
151,195,93491,1,0,0:0:0:0:
173,153,93568,1,0,0:0:0:0:
167,106,93645,1,0,0:0:0:0:
140,66,93722,1,0,0:0:0:0:
93,55,93799,6,0,L|23:65,1,67.5000025749208
239,107,93953,2,0,L|219:27,1,67.5000025749208
113,223,94107,6,0,L|339:213,1,202.500007724762
383,255,94414,1,0,0:0:0:0:
55,155,94568,1,0,0:0:0:0:
294,367,94722,1,0,0:0:0:0:
334,44,94876,1,0,0:0:0:0:
57,284,95030,2,0,B|101:277|132:295|132:295|160:271|192:274,1,135.000005149842
451,341,95337,1,0,0:0:0:0:
422,303,95414,1,0,0:0:0:0:
420,255,95491,6,0,L|429:177,2,67.5000025749208
157,44,95799,2,0,P|180:109|158:176,1,135.000005149842
132,207,96030,1,0,0:0:0:0:
102,244,96107,2,0,P|98:287|112:314,1,67.5000025749208
190,263,96261,1,0,0:0:0:0:
48,106,96414,1,0,0:0:0:0:
352,31,96568,6,0,B|362:64|347:99|347:99|315:124|318:165|318:165|285:149|245:161,1,202.500007724762
193,178,96876,1,0,0:0:0:0:
481,357,97030,1,0,0:0:0:0:
500,313,97107,1,0,0:0:0:0:
491,266,97184,2,0,L|485:184,1,67.5000025749208
418,66,97337,6,0,P|403:100|408:145,1,67.5000025749208
412,205,97491,2,0,L|403:282,1,67.5000025749208
222,41,97645,2,0,P|235:80|233:138,1,67.5000025749208
193,178,97799,2,0,L|190:261,1,67.5000025749208
55,62,97953,5,0,0:0:0:0:
112,82,98030,1,0,0:0:0:0:
172,75,98107,1,0,0:0:0:0:
222,41,98184,1,0,0:0:0:0:
279,22,98261,1,0,0:0:0:0:
338,30,98337,1,0,0:0:0:0:
383,69,98414,1,0,0:0:0:0:
442,82,98491,1,0,0:0:0:0:
498,59,98568,6,0,L|483:168,1,67.5000025749208
326,230,98722,2,0,L|341:151,1,67.5000025749208
222,41,98876,2,0,L|207:150,1,67.5000025749208
43,168,99030,2,0,L|58:89,1,67.5000025749208
104,282,99184,5,0,0:0:0:0:
338,163,99337,1,0,0:0:0:0:
164,340,99491,2,0,P|185:267|148:212,1,135.000005149842
292,21,99799,2,0,L|300:106,1,67.5000025749208
338,163,99953,1,0,0:0:0:0:
104,282,100107,1,0,0:0:0:0:
148,32,100261,6,0,B|150:79|182:104|182:104|194:172|147:233,1,202.500007724762
104,282,100568,2,0,L|17:288,1,67.5000025749208
182,327,100722,2,0,L|268:335,1,67.5000025749208
76,211,100876,2,0,L|-11:217,1,67.5000025749208
219,254,101030,1,0,0:0:0:0:
46,21,101184,1,0,0:0:0:0:
104,282,101337,1,0,0:0:0:0:
389,136,101491,6,0,B|343:150|303:133|303:133|291:94|254:76|254:76|226:82|200:75,1,202.500007724762
138,66,101799,1,0,0:0:0:0:
486,56,101953,2,0,L|471:207,1,135.000005149842
449,349,102261,1,0,0:0:0:0:
104,282,102414,2,0,P|99:251|110:214,1,67.5000025749208
166,343,102568,1,0,0:0:0:0:
63,154,102722,2,0,L|42:21,1,135.000005149842
367,114,103030,5,0,0:0:0:0:
331,163,103107,1,0,0:0:0:0:
278,193,103184,2,0,P|251:208|199:208,1,67.5000025749208
173,24,103337,2,0,P|194:49|200:103,1,67.5000025749208
34,212,103491,6,0,P|42:179|63:153,1,67.5000025749208
133,82,103645,1,0,0:0:0:0:
95,344,103799,1,0,0:0:0:0:
284,33,103953,2,0,L|294:108,1,67.5000025749208
492,284,104107,5,0,0:0:0:0:
435,306,104184,1,0,0:0:0:0:
375,293,104261,1,0,0:0:0:0:
331,251,104337,1,0,0:0:0:0:
277,222,104414,1,0,0:0:0:0:
216,230,104491,1,0,0:0:0:0:
162,259,104568,1,0,0:0:0:0:
142,310,104645,1,0,0:0:0:0:
188,362,104722,6,0,L|285:350,1,67.5000025749208
86,256,104876,2,0,L|19:247,1,67.5000025749208
182,355,105030,2,0,L|279:343,1,67.5000025749208
88,245,105184,2,0,L|21:236,1,67.5000025749208
109,46,105337,5,0,0:0:0:0:
155,84,105414,1,0,0:0:0:0:
213,100,105491,1,0,0:0:0:0:
271,83,105568,1,0,0:0:0:0:
313,39,105645,1,0,0:0:0:0:
318,99,105722,1,0,0:0:0:0:
348,151,105799,1,0,0:0:0:0:
402,178,105876,1,0,0:0:0:0:
457,153,105953,6,0,L|442:67,1,67.5000025749208
329,231,106107,2,0,L|317:326,1,67.5000025749208
145,103,106261,2,0,L|225:99,1,67.5000025749208
97,269,106414,2,0,L|13:254,1,67.5000025749208
216,352,106568,5,0,0:0:0:0:
261,311,106645,1,0,0:0:0:0:
320,297,106722,1,0,0:0:0:0:
378,313,106799,1,0,0:0:0:0:
428,346,106876,1,0,0:0:0:0:
470,302,106953,1,0,0:0:0:0:
468,241,107030,1,0,0:0:0:0:
433,191,107107,1,0,0:0:0:0:
390,147,107184,6,0,L|406:51,1,67.5000025749208
284,30,107337,1,0,0:0:0:0:
284,30,107414,1,0,0:0:0:0:
284,30,107491,2,0,P|295:72|285:114,1,67.5000025749208
219,230,107645,2,0,P|221:189|241:148,1,67.5000025749208
77,28,107799,5,0,0:0:0:0:
113,76,107876,1,0,0:0:0:0:
112,136,107953,1,0,0:0:0:0:
76,185,108030,1,0,0:0:0:0:
43,236,108107,1,0,0:0:0:0:
34,296,108184,1,0,0:0:0:0:
65,348,108261,1,0,0:0:0:0:
122,366,108337,1,0,0:0:0:0:
179,347,108414,5,0,0:0:0:0:
229,312,108491,1,0,0:0:0:0:
289,304,108568,1,0,0:0:0:0:
345,325,108645,1,0,0:0:0:0:
388,367,108722,2,0,L|383:281,1,67.5000025749208
452,146,108876,2,0,L|440:222,1,67.5000025749208
208,45,109030,5,0,0:0:0:0:
256,192,109107,12,0,118953,0:0:0:0:
