osu file format v14

[General]
AudioFilename: audio.mp3
AudioLeadIn: 0
PreviewTime: 89060
Countdown: 0
SampleSet: Normal
StackLeniency: 0.7
Mode: 2
LetterboxInBreaks: 0
WidescreenStoryboard: 0

[Editor]
DistanceSpacing: 1.6
BeatDivisor: 4
GridSize: 4
TimelineZoom: 1.6

[Metadata]
Title:Flashback
TitleUnicode:Flashback
Artist:ARForest
ArtistUnicode:ARForest
Creator:Ollapeu
Version:Resumption
Source:
Tags:
BeatmapID:1562653
BeatmapSetID:740732

[Difficulty]
HPDrainRate:6
CircleSize:4.2
OverallDifficulty:9.4
ApproachRate:9.4
SliderMultiplier:1.9
SliderTickRate:2

[Events]
//Background and Video events
0,0,"bg.jpg",0,0
//Break Periods
2,20645,28520
2,69875,78981
//Storyboard Layer 0 (Background)
//Storyboard Layer 1 (Fail)
//Storyboard Layer 2 (Pass)
//Storyboard Layer 3 (Foreground)
//Storyboard Sound Samples

[TimingPoints]
599.06570356397,307.692307692308,4,1,1,75,1,0
10445,-100,4,1,2,75,0,0
10599,-100,4,1,1,75,0,0
10906,-100,4,1,2,75,0,0
11214,-100,4,1,1,75,0,0
12906,-100,4,1,2,75,0,0
13060,-100,4,1,1,75,0,0
13368,-100,4,1,2,75,0,0
13522,-100,4,1,1,75,0,0
15368,-100,4,1,2,75,0,0
15675,-100,4,1,1,75,0,0
15829,-100,4,1,2,75,0,0
16137,-100,4,1,1,75,0,0
17829,-100,4,1,2,75,0,0
17983,-100,4,1,1,75,0,0
18291,-100,4,1,2,75,0,0
18445,-100,4,1,1,75,0,0
18599,-100,4,1,2,75,0,0
18752,-100,4,1,1,75,0,0
19060,-100,4,1,2,75,0,0
19368,-100,4,1,1,75,0,0
19829,-100,4,1,2,75,0,0
19983,-100,4,1,1,75,0,0
20060,-100,4,1,2,75,0,0
20445,-100,4,1,1,75,0,0
29060,307.692307692308,4,1,1,75,1,0
29060,-100,4,1,1,60,0,0
29521,-100,4,1,1,65,0,0
29983,-100,4,1,2,65,0,0
30290,-100,4,1,1,90,0,0
30444,-100,4,1,2,90,0,0
35213,-100,4,1,1,90,0,0
35367,-100,4,1,2,90,0,0
89367,-100,4,1,1,100,0,1
109060,-100,4,1,1,100,0,0
118906,-100,4,1,1,100,0,0
119213,-100,4,1,1,50,0,0
119521,-100,4,1,1,40,0,0
119829,-100,4,1,1,30,0,0
120136,-100,4,1,1,20,0,0
120444,-100,4,1,1,15,0,0
120752,-100,4,1,1,10,0,0
121060,-100,4,1,1,5,0,0

[Colours]
Combo1 : 255,255,159
Combo2 : 153,153,204
Combo3 : 255,81,168

[HitObjects]
136,260,599,6,0,P|84:228|144:132,1,190,2|0,0:0|0:0,0:0:0:0:
184,132,983,1,0,0:0:0:0:
240,132,1060,2,0,P|296:197|235:259,1,190,2|0,0:0|0:0,0:0:0:0:
96,260,1522,2,0,L|96:152,1,95
408,80,1829,6,0,L|204:80,1,190,2|0,0:0|0:0,0:0:0:0:
168,80,2214,1,0,0:0:0:0:
218,80,2291,2,0,L|432:80,1,190,2|0,0:0|0:0,0:0:0:0:
312,80,2752,2,0,L|212:80,1,95
392,148,3060,5,2,0:0:0:0:
340,148,3137,1,0,0:0:0:0:
288,148,3214,2,0,L|388:148,1,95
336,148,3445,1,0,0:0:0:0:
288,148,3522,1,2,0:0:0:0:
424,148,3675,2,0,L|424:48,1,95
264,148,3983,2,0,L|140:148,1,95
216,148,4214,1,0,0:0:0:0:
372,140,4291,5,2,0:0:0:0:
476,140,4445,1,0,0:0:0:0:
352,140,4599,1,0,0:0:0:0:
300,140,4675,1,0,0:0:0:0:
352,140,4752,1,2,0:0:0:0:
476,140,4906,1,0,0:0:0:0:
336,140,5060,1,0,0:0:0:0:
476,140,5214,1,0,0:0:0:0:
360,140,5368,2,0,L|296:140,1,47.5
120,140,5522,5,2,0:0:0:0:
172,140,5599,1,0,0:0:0:0:
224,140,5675,2,0,L|328:140,1,95
368,140,5906,1,0,0:0:0:0:
156,200,5983,2,0,P|96:176|168:112,1,190,2|0,0:0|0:0,0:0:0:0:
268,108,6445,2,0,L|372:108,1,95
92,116,6752,5,2,0:0:0:0:
208,116,6906,1,0,0:0:0:0:
80,116,7060,2,0,L|32:116,1,47.5
248,188,7214,2,0,L|460:188,1,190,2|0,0:0|0:0,0:0:0:0:
168,120,7675,1,0,0:0:0:0:
300,120,7829,2,0,L|304:72,1,47.5
104,64,7983,5,2,0:0:0:0:
56,64,8060,1,0,0:0:0:0:
4,64,8137,1,0,0:0:0:0:
148,64,8291,2,0,L|204:64,1,47.5
4,64,8445,2,0,L|108:64,2,95,2|0|0,0:0|0:0|0:0,0:0:0:0:
116,64,8906,2,0,L|236:64,1,95
24,136,9214,6,0,L|236:136,1,190,2|0,0:0|0:0,0:0:0:0:
264,136,9599,1,0,0:0:0:0:
96,136,9675,2,0,L|-16:136,2,95,2|0|0,0:0|0:0|0:0,0:0:0:0:
248,136,10137,1,0,0:0:0:0:
96,136,10291,1,0,0:0:0:0:
356,136,10445,6,0,L|360:32,1,95,2|0,0:0|0:0,0:0:0:0:
248,40,10752,2,0,L|196:40,1,47.5
16,40,10906,2,0,L|208:40,1,190,2|0,0:0|0:0,0:0:0:0:
76,40,11368,2,0,L|76:156,1,95
208,148,11675,6,0,P|260:124|260:20,1,142.5,2|0,0:0|0:0,0:0:0:0:
224,44,11983,1,0,0:0:0:0:
168,44,12060,1,0,0:0:0:0:
400,44,12137,2,0,P|460:76|380:148,1,190,2|0,0:0|0:0,0:0:0:0:
280,156,12599,2,0,L|400:156,1,95
124,160,12906,6,0,L|120:56,1,95,2|0,0:0|0:0,0:0:0:0:
288,104,13214,2,0,L|292:32,1,47.5
96,64,13368,1,2,0:0:0:0:
208,36,13522,1,0,0:0:0:0:
272,104,13675,1,0,0:0:0:0:
272,200,13829,1,0,0:0:0:0:
208,280,13983,1,0,0:0:0:0:
100,280,14137,6,0,L|-28:280,1,95,2|0,0:0|0:0,0:0:0:0:
204,236,14445,1,0,0:0:0:0:
208,184,14522,1,0,0:0:0:0:
212,132,14599,1,2,0:0:0:0:
80,128,14752,2,0,L|80:32,1,95
140,32,14983,1,0,0:0:0:0:
368,32,15060,2,0,P|368:92|288:128,1,142.5
124,224,15368,6,0,P|64:164|152:112,1,190,2|0,0:0|0:0,0:0:0:0:
176,104,15752,1,0,0:0:0:0:
388,224,15829,2,0,P|448:164|360:112,1,190,2|0,0:0|0:0,0:0:0:0:
288,104,16291,2,0,L|176:104,1,95
384,104,16599,2,0,L|384:0,1,95,2|0,0:0|0:0,0:0:0:0:
204,12,16906,2,0,L|256:12,1,47.5
420,16,17060,2,0,P|480:48|416:120,1,190,2|0,0:0|0:0,0:0:0:0:
312,120,17522,1,0,0:0:0:0:
200,120,17675,1,0,0:0:0:0:
420,120,17829,5,2,0:0:0:0:
296,120,17983,1,0,0:0:0:0:
448,120,18137,2,0,L|456:64,1,47.5
208,48,18291,1,2,0:0:0:0:
308,48,18445,1,0,0:0:0:0:
64,48,18599,1,8,0:0:0:0:
208,48,18752,1,0,0:0:0:0:
72,48,18906,1,0,0:0:0:0:
352,48,19060,6,0,P|412:84|336:148,1,190,2|0,0:0|0:0,0:0:0:0:
300,152,19445,1,0,0:0:0:0:
152,152,19522,2,0,L|32:152,1,95
336,68,19829,2,0,L|448:68,1,95,8|0,0:0|0:0,0:0:0:0:
384,68,20060,1,2,0:0:0:0:
144,64,20137,1,2,0:0:0:0:
280,64,20291,1,0,0:0:0:0:
64,64,20445,1,4,0:0:0:0:
200,120,29060,6,0,L|295:120,2,95
372,36,29521,1,0,0:0:0:0:
408,60,29597,1,0,0:0:0:0:
420,104,29674,1,0,0:0:0:0:
404,148,29751,1,0,0:0:0:0:
372,176,29829,2,0,L|260:176,1,95
232,176,30060,1,2,0:0:0:0:
380,116,30136,2,0,L|440:116,1,47.5,2|0,0:0|0:0,0:0:0:0:
172,52,30290,6,0,L|52:52,1,95,4|0,0:0|0:0,0:0:0:0:
28,52,30521,1,0,0:0:0:0:
77,52,30598,2,0,L|180:52,1,95,8|0,0:0|0:0,0:0:0:0:
220,52,30829,1,0,0:0:0:0:
77,52,30906,2,0,L|76:120,1,47.5
220,96,31060,2,0,L|276:96,1,47.5,8|0,0:0|0:0,0:0:0:0:
60,184,31213,1,0,0:0:0:0:
20,152,31290,1,0,0:0:0:0:
20,104,31367,1,2,0:0:0:0:
56,60,31444,1,0,0:0:0:0:
304,60,31521,6,0,L|164:60,1,95
160,60,31752,1,0,0:0:0:0:
380,60,31829,1,8,0:0:0:0:
419,83,31905,1,0,0:0:0:0:
435,127,31982,1,0,0:0:0:0:
419,171,32059,1,0,0:0:0:0:
379,194,32136,1,0,0:0:0:0:
256,196,32290,2,0,L|192:196,1,47.5,8|0,0:0|0:0,0:0:0:0:
40,196,32444,2,0,L|144:196,2,95,0|2|0,0:0|0:0|0:0,0:0:0:0:
324,196,32906,1,2,0:0:0:0:
207,62,33060,5,8,0:0:0:0:
168,85,33136,1,0,0:0:0:0:
152,129,33213,1,0,0:0:0:0:
168,173,33290,1,0,0:0:0:0:
208,196,33367,1,2,0:0:0:0:
356,152,33521,2,0,L|416:152,1,47.5,8|0,0:0|0:0,0:0:0:0:
200,88,33675,1,0,0:0:0:0:
148,88,33752,1,0,0:0:0:0:
96,88,33829,1,2,0:0:0:0:
48,88,33906,1,0,0:0:0:0:
248,88,33983,5,0,0:0:0:0:
152,88,34136,2,0,L|92:88,1,47.5,2|0,0:0|0:0,0:0:0:0:
336,156,34290,2,0,L|440:156,1,95,8|2,0:0|0:0,0:0:0:0:
480,156,34521,1,0,0:0:0:0:
284,156,34598,1,8,0:0:0:0:
392,152,34752,2,0,L|424:100,1,47.5
148,92,34906,1,8,0:0:0:0:
40,96,35060,2,0,L|4:48,1,47.5,2|0,0:0|0:0,0:0:0:0:
304,36,35214,5,4,0:0:0:0:
168,36,35367,1,2,0:0:0:0:
320,32,35521,1,0,0:0:0:0:
362,51,35597,1,0,0:0:0:0:
379,94,35674,1,0,0:0:0:0:
364,138,35751,1,0,0:0:0:0:
323,159,35828,1,0,0:0:0:0:
184,160,35983,1,0,0:0:0:0:
323,159,36136,2,0,L|387:159,1,47.5
228,244,36290,2,0,L|160:244,1,47.5
416,176,36444,6,0,L|512:176,1,95
464,176,36675,1,0,0:0:0:0:
236,176,36752,1,0,0:0:0:0:
340,176,36906,2,0,L|396:176,1,47.5
104,176,37060,1,0,0:0:0:0:
63,152,37136,1,0,0:0:0:0:
47,109,37213,1,0,0:0:0:0:
62,65,37290,1,0,0:0:0:0:
102,40,37367,1,0,0:0:0:0:
232,40,37521,2,0,L|292:40,1,47.5
128,104,37675,6,0,L|20:104,1,95
88,104,37906,1,0,0:0:0:0:
296,140,37983,2,0,L|412:140,1,95
340,140,38213,1,0,0:0:0:0:
48,136,38290,1,0,0:0:0:0:
160,88,38444,1,0,0:0:0:0:
212,88,38521,1,0,0:0:0:0:
160,88,38598,1,0,0:0:0:0:
24,88,38752,2,0,L|80:88,1,47.5
360,48,38906,6,0,L|244:48,1,95
216,48,39136,1,0,0:0:0:0:
36,48,39213,2,0,L|152:48,1,95
180,48,39444,1,0,0:0:0:0:
368,116,39521,2,0,L|308:116,1,47.5
152,116,39675,2,0,L|100:116,1,47.5
280,192,39829,2,0,L|348:192,1,47.5
116,192,39983,2,0,L|56:192,1,47.5
364,72,40136,6,0,L|472:72,1,95
408,72,40367,1,0,0:0:0:0:
364,72,40444,1,0,0:0:0:0:
316,72,40521,1,0,0:0:0:0:
364,72,40598,1,0,0:0:0:0:
408,72,40675,1,0,0:0:0:0:
156,128,40752,6,0,L|268:128,1,95
300,128,40983,1,0,0:0:0:0:
116,192,41060,1,0,0:0:0:0:
75,173,41136,1,0,0:0:0:0:
73,128,41213,1,0,0:0:0:0:
113,107,41290,1,0,0:0:0:0:
332,104,41367,6,0,L|444:104,2,95
172,56,41829,2,0,L|108:56,1,47.5
332,176,41983,2,0,L|444:176,1,95
248,124,42290,2,0,L|200:124,1,47.5
360,124,42444,2,0,L|428:124,1,47.5
188,40,42598,5,0,0:0:0:0:
84,40,42752,1,0,0:0:0:0:
300,40,42906,1,0,0:0:0:0:
347,40,42982,1,0,0:0:0:0:
395,40,43059,1,0,0:0:0:0:
347,40,43136,1,0,0:0:0:0:
300,40,43213,1,0,0:0:0:0:
184,152,43367,1,0,0:0:0:0:
180,100,43444,1,0,0:0:0:0:
176,44,43521,5,0,0:0:0:0:
300,48,43675,2,0,L|360:48,1,47.5
128,48,43829,1,0,0:0:0:0:
12,48,43983,1,0,0:0:0:0:
296,128,44136,2,0,L|420:128,1,95
340,128,44367,1,0,0:0:0:0:
180,192,44444,5,0,0:0:0:0:
172,152,44521,1,0,0:0:0:0:
188,108,44598,1,0,0:0:0:0:
232,88,44675,1,0,0:0:0:0:
388,88,44752,2,0,L|435:88,1,47.5
176,84,44906,2,0,L|176:32,1,47.5
396,104,45060,6,0,L|492:104,1,95
444,104,45290,1,0,0:0:0:0:
232,104,45367,1,0,0:0:0:0:
341,37,45521,1,0,0:0:0:0:
380,60,45597,1,0,0:0:0:0:
396,104,45674,1,0,0:0:0:0:
380,148,45751,1,0,0:0:0:0:
340,171,45828,1,0,0:0:0:0:
192,172,45983,2,0,L|132:172,1,47.5
340,171,46136,2,0,L|400:171,2,47.5
176,144,46444,2,0,L|172:92,1,47.5
364,112,46598,6,0,L|368:8,1,95
280,36,46829,1,0,0:0:0:0:
196,112,46906,2,0,L|192:8,1,95
340,32,47213,1,0,0:0:0:0:
392,32,47290,1,0,0:0:0:0:
444,32,47367,1,0,0:0:0:0:
392,32,47444,1,0,0:0:0:0:
88,168,47521,6,0,L|80:56,1,95
256,64,47752,1,0,0:0:0:0:
424,168,47829,2,0,L|432:56,1,95
360,72,48060,1,0,0:0:0:0:
172,68,48136,1,0,0:0:0:0:
304,64,48290,2,0,L|360:64,1,47.5
152,68,48444,1,0,0:0:0:0:
48,68,48598,2,0,L|-4:68,1,47.5
312,148,48752,5,0,0:0:0:0:
192,148,48906,1,0,0:0:0:0:
240,148,48983,1,0,0:0:0:0:
288,148,49060,1,0,0:0:0:0:
160,148,49213,2,0,L|96:148,1,47.5
372,40,49367,1,0,0:0:0:0:
413,57,49443,1,0,0:0:0:0:
414,102,49520,1,0,0:0:0:0:
373,122,49597,1,0,0:0:0:0:
164,56,49675,6,0,L|96:56,1,47.5
328,104,49829,2,0,L|392:104,1,47.5
140,192,49983,5,0,0:0:0:0:
88,120,50136,1,0,0:0:0:0:
88,32,50290,1,0,0:0:0:0:
140,192,50444,1,0,0:0:0:0:
256,128,50598,1,0,0:0:0:0:
128,128,50752,1,0,0:0:0:0:
392,128,50906,2,0,L|480:128,2,95
256,128,51367,2,0,L|256:24,1,95
388,32,51675,1,0,0:0:0:0:
92,32,51829,1,0,0:0:0:0:
216,32,51983,1,0,0:0:0:0:
72,32,52136,2,0,L|72:128,1,95
356,268,52444,5,0,0:0:0:0:
216,268,52598,1,0,0:0:0:0:
368,268,52752,1,0,0:0:0:0:
112,192,52906,2,0,L|4:192,2,95
336,104,53367,1,0,0:0:0:0:
216,104,53521,1,0,0:0:0:0:
88,104,53675,1,0,0:0:0:0:
332,104,53829,2,0,L|432:104,2,95
180,104,54290,1,0,0:0:0:0:
332,104,54444,1,0,0:0:0:0:
176,104,54598,1,0,0:0:0:0:
384,104,54752,1,0,0:0:0:0:
92,160,54906,6,0,L|88:44,1,95
160,16,55213,1,0,0:0:0:0:
456,160,55367,2,0,L|460:44,1,95
384,16,55675,1,0,0:0:0:0:
148,56,55829,1,0,0:0:0:0:
260,56,55983,1,0,0:0:0:0:
120,56,56136,1,0,0:0:0:0:
368,140,56290,2,0,L|480:140,1,95
344,140,56598,1,0,0:0:0:0:
96,136,56752,2,0,L|-4:136,1,95
360,32,57060,1,0,0:0:0:0:
140,28,57367,5,0,0:0:0:0:
424,32,57521,2,0,P|484:76|412:144,1,190
292,144,57983,2,0,L|292:48,1,95
412,48,58290,1,0,0:0:0:0:
192,48,58444,2,0,L|-16:48,1,190
112,48,58906,2,0,L|216:48,1,95
92,48,59213,1,0,0:0:0:0:
168,108,59367,1,0,0:0:0:0:
168,192,59521,1,0,0:0:0:0:
92,256,59675,1,0,0:0:0:0:
404,192,59829,5,0,0:0:0:0:
280,192,59983,1,0,0:0:0:0:
243,162,60059,1,0,0:0:0:0:
230,117,60136,1,0,0:0:0:0:
243,72,60213,1,0,0:0:0:0:
278,42,60290,1,0,0:0:0:0:
416,40,60444,1,0,0:0:0:0:
278,42,60598,1,0,0:0:0:0:
432,40,60752,6,0,L|432:152,1,95
144,128,61060,1,0,0:0:0:0:
248,128,61213,1,0,0:0:0:0:
268,92,61290,1,0,0:0:0:0:
248,52,61367,1,0,0:0:0:0:
116,52,61521,1,0,0:0:0:0:
248,52,61675,2,0,L|344:52,1,95
172,124,61983,2,0,L|76:124,1,95
340,124,62290,5,0,0:0:0:0:
208,208,62444,1,0,0:0:0:0:
171,178,62520,1,0,0:0:0:0:
157,133,62597,1,0,0:0:0:0:
170,88,62674,1,0,0:0:0:0:
205,57,62751,1,0,0:0:0:0:
360,43,62906,2,0,L|480:43,1,95
284,100,63213,1,0,0:0:0:0:
420,132,63367,2,0,L|300:132,1,95
456,132,63675,1,0,0:0:0:0:
460,80,63752,1,0,0:0:0:0:
464,28,63829,5,0,0:0:0:0:
348,28,63983,1,0,0:0:0:0:
92,28,64136,1,0,0:0:0:0:
240,32,64290,2,0,L|240:108,1,47.5
160,104,64444,2,0,L|160:164,1,47.5
240,208,64598,1,0,0:0:0:0:
472,208,64752,5,0,0:0:0:0:
356,208,64906,1,0,0:0:0:0:
314,186,64982,1,0,0:0:0:0:
297,143,65059,1,0,0:0:0:0:
316,100,65136,1,0,0:0:0:0:
356,76,65213,1,0,0:0:0:0:
104,12,65367,6,0,P|108:120|204:136,1,190
296,144,65829,2,0,L|172:144,1,95
336,144,66136,1,0,0:0:0:0:
384,144,66213,1,0,0:0:0:0:
336,144,66290,1,0,0:0:0:0:
200,144,66444,1,0,0:0:0:0:
368,144,66598,2,0,L|368:40,1,95
204,48,66906,2,0,L|96:48,1,95
368,48,67213,5,0,0:0:0:0:
232,48,67367,1,0,0:0:0:0:
192,73,67443,1,0,0:0:0:0:
178,117,67520,1,0,0:0:0:0:
193,161,67597,1,0,0:0:0:0:
233,186,67674,1,0,0:0:0:0:
352,188,67829,2,0,L|460:188,1,95
276,96,68136,2,0,L|156:96,1,95
352,96,68444,5,0,0:0:0:0:
391,120,68520,1,0,0:0:0:0:
408,163,68597,1,0,0:0:0:0:
393,208,68674,1,0,0:0:0:0:
355,233,68751,1,0,0:0:0:0:
180,232,68906,1,0,0:0:0:0:
308,232,69060,1,0,0:0:0:0:
152,232,69213,1,0,0:0:0:0:
332,232,69367,1,0,0:0:0:0:
160,232,69521,1,0,0:0:0:0:
472,232,69675,1,0,0:0:0:0:
28,304,79521,6,0,L|24:200,1,95
140,232,79829,2,0,L|136:128,1,95
260,164,80136,2,0,L|256:60,1,95
376,116,80444,2,0,L|372:12,1,95
192,20,80752,5,0,0:0:0:0:
107,58,80905,1,0,0:0:0:0:
71,143,81059,1,0,0:0:0:0:
103,231,81213,1,0,0:0:0:0:
186,273,81367,1,0,0:0:0:0:
275,248,81521,1,0,0:0:0:0:
323,168,81675,1,0,0:0:0:0:
305,77,81828,1,0,0:0:0:0:
108,136,81983,6,0,L|108:32,1,95
260,40,82290,2,0,L|372:40,1,95
512,136,82598,2,0,L|512:32,1,95
356,40,82906,2,0,L|252:40,1,95
448,108,83213,5,0,0:0:0:0:
336,108,83367,1,0,0:0:0:0:
448,108,83521,2,0,L|448:8,1,95
264,164,83829,2,0,L|264:64,1,95
84,104,84136,2,0,L|84:4,1,95
232,60,84444,6,0,L|328:60,1,95
168,140,84752,2,0,L|48:140,1,95
232,220,85060,2,0,L|352:220,1,95
172,304,85367,2,0,L|40:304,1,95
256,192,85675,12,0,86906,0:0:0:0:
184,192,87213,5,0,0:0:0:0:
324,192,87367,2,0,L|384:192,1,47.5
280,192,87521,2,0,L|176:192,1,95
352,32,87829,1,0,0:0:0:0:
394,50,87905,1,0,0:0:0:0:
412,93,87982,1,0,0:0:0:0:
395,136,88059,1,0,0:0:0:0:
353,156,88136,1,0,0:0:0:0:
200,156,88290,2,0,L|148:156,1,47.5
400,156,88444,5,0,0:0:0:0:
280,156,88598,2,0,L|232:156,1,47.5
424,32,88752,1,0,0:0:0:0:
459,60,88828,1,0,0:0:0:0:
461,106,88905,1,0,0:0:0:0:
426,137,88982,1,0,0:0:0:0:
232,64,89060,2,0,L|176:64,1,47.5
360,96,89213,2,0,L|360:40,1,47.5
140,64,89367,6,0,L|40:64,1,95
100,64,89598,1,0,0:0:0:0:
312,64,89675,1,0,0:0:0:0:
188,184,89829,1,0,0:0:0:0:
148,158,89905,1,0,0:0:0:0:
133,114,89982,1,0,0:0:0:0:
149,70,90059,1,0,0:0:0:0:
188,45,90136,1,0,0:0:0:0:
364,44,90290,2,0,L|308:44,1,47.5
116,196,90444,1,0,0:0:0:0:
164,196,90521,1,0,0:0:0:0:
212,196,90598,5,0,0:0:0:0:
96,196,90752,2,0,L|40:196,1,47.5
232,80,90906,2,0,L|327:80,2,95
184,80,91290,1,0,0:0:0:0:
376,80,91367,1,0,0:0:0:0:
272,80,91521,1,0,0:0:0:0:
408,80,91675,1,0,0:0:0:0:
168,152,91829,5,0,0:0:0:0:
127,128,91905,1,0,0:0:0:0:
111,84,91982,1,0,0:0:0:0:
127,40,92059,1,0,0:0:0:0:
167,17,92136,1,0,0:0:0:0:
280,16,92290,2,0,L|332:16,1,47.5
504,16,92444,2,0,L|400:16,1,95
360,16,92675,1,0,0:0:0:0:
164,108,92752,2,0,L|268:108,1,95
440,168,93060,5,0,0:0:0:0:
444,60,93213,1,0,0:0:0:0:
216,40,93367,2,0,L|160:40,1,47.5
340,100,93521,2,0,L|408:100,1,47.5
136,136,93675,2,0,L|32:136,1,95
96,136,93906,1,0,0:0:0:0:
296,168,93983,2,0,L|400:168,1,95
440,168,94213,1,0,0:0:0:0:
248,228,94290,5,0,0:0:0:0:
209,203,94366,1,0,0:0:0:0:
196,156,94443,1,0,0:0:0:0:
212,108,94520,1,0,0:0:0:0:
248,76,94598,2,0,L|352:76,1,95
396,76,94829,1,0,0:0:0:0:
232,48,94906,2,0,L|176:48,1,47.5
232,48,95060,2,0,L|284:48,1,47.5
120,104,95213,2,0,L|56:104,1,47.5
248,104,95367,2,0,L|248:168,1,47.5
64,144,95521,6,0,L|168:144,1,95
208,144,95752,1,0,0:0:0:0:
159,144,95829,2,0,L|48:144,1,95
16,144,96060,1,0,0:0:0:0:
312,56,96136,1,0,0:0:0:0:
359,56,96212,1,0,0:0:0:0:
407,56,96289,1,0,0:0:0:0:
454,56,96366,1,0,0:0:0:0:
208,80,96444,2,0,L|148:80,1,47.5
348,156,96598,6,0,L|460:156,1,95
392,156,96829,1,0,0:0:0:0:
200,160,96906,2,0,L|136:160,1,47.5
360,156,97060,2,0,L|360:96,1,47.5
152,136,97213,2,0,L|100:136,1,47.5
384,28,97367,1,0,0:0:0:0:
423,53,97443,1,0,0:0:0:0:
437,97,97520,1,0,0:0:0:0:
420,140,97597,1,0,0:0:0:0:
379,163,97674,1,0,0:0:0:0:
268,168,97829,2,0,L|216:168,1,47.5
64,168,97983,5,0,0:0:0:0:
24,145,98059,1,0,0:0:0:0:
23,100,98136,1,0,0:0:0:0:
61,75,98213,1,0,0:0:0:0:
208,72,98290,2,0,L|268:72,1,47.5
416,72,98444,2,0,L|468:72,1,47.5
168,72,98598,1,0,0:0:0:0:
129,96,98674,1,0,0:0:0:0:
129,142,98751,1,0,0:0:0:0:
167,167,98828,1,0,0:0:0:0:
344,164,98906,2,0,L|408:164,1,47.5
152,168,99060,2,0,L|152:100,1,47.5
396,80,99213,6,0,L|496:80,1,95
440,80,99444,1,0,0:0:0:0:
240,80,99521,2,0,L|136:80,1,95
320,80,99829,1,0,0:0:0:0:
364,108,99906,1,0,0:0:0:0:
364,160,99983,1,0,0:0:0:0:
320,200,100060,1,0,0:0:0:0:
144,200,100136,2,0,L|252:200,2,95
288,124,100598,2,0,L|352:124,1,47.5
164,60,100752,1,0,0:0:0:0:
116,60,100828,1,0,0:0:0:0:
69,60,100905,1,0,0:0:0:0:
21,60,100982,1,0,0:0:0:0:
272,56,101060,6,0,L|272:176,1,95
220,152,101290,1,0,0:0:0:0:
52,152,101367,2,0,L|112:152,1,47.5
300,148,101521,2,0,P|360:128|276:76,1,190
256,56,101906,1,0,0:0:0:0:
96,60,101983,5,0,0:0:0:0:
56,82,102059,1,0,0:0:0:0:
39,125,102136,1,0,0:0:0:0:
55,169,102213,1,0,0:0:0:0:
96,191,102290,1,0,0:0:0:0:
216,192,102444,2,0,L|288:192,1,47.5
412,188,102598,1,0,0:0:0:0:
448,160,102674,1,0,0:0:0:0:
447,114,102751,1,0,0:0:0:0:
410,88,102828,1,0,0:0:0:0:
236,84,102906,6,0,L|128:84,1,95
92,84,103136,1,0,0:0:0:0:
320,84,103213,2,0,L|376:84,1,47.5
156,148,103367,2,0,L|156:80,1,47.5
340,84,103521,2,0,L|452:84,1,95
484,84,103752,1,0,0:0:0:0:
228,84,103829,2,0,L|116:84,1,95
84,84,104060,1,0,0:0:0:0:
272,120,104136,6,0,L|332:120,1,47.5
112,124,104290,2,0,L|112:60,1,47.5
316,44,104444,2,0,L|252:44,1,47.5
116,48,104598,2,0,L|52:48,1,47.5
336,44,104752,1,0,0:0:0:0:
371,72,104828,1,0,0:0:0:0:
371,118,104905,1,0,0:0:0:0:
334,144,104982,1,0,0:0:0:0:
284,144,105060,1,0,0:0:0:0:
238,148,105136,1,0,0:0:0:0:
217,188,105213,1,0,0:0:0:0:
239,228,105290,1,0,0:0:0:0:
392,224,105367,6,0,L|456:224,1,47.5
224,224,105521,2,0,L|160:224,1,47.5
368,228,105675,1,0,0:0:0:0:
408,203,105751,1,0,0:0:0:0:
430,162,105828,1,0,0:0:0:0:
430,115,105905,1,0,0:0:0:0:
406,74,105982,1,0,0:0:0:0:
365,51,106059,1,0,0:0:0:0:
184,32,106136,2,0,L|128:32,2,31.6666666666667
388,84,106290,1,0,0:0:0:0:
393,130,106366,1,0,0:0:0:0:
371,171,106443,1,0,0:0:0:0:
328,191,106520,1,0,0:0:0:0:
140,192,106598,6,0,L|24:192,1,95
88,192,106803,1,0,0:0:0:0:
132,192,106854,1,0,0:0:0:0:
296,192,106906,2,0,L|412:192,1,95
348,192,107111,1,0,0:0:0:0:
304,192,107162,1,0,0:0:0:0:
104,140,107213,2,0,L|156:140,1,47.5
320,136,107367,2,0,L|320:76,1,47.5
156,92,107521,2,0,L|48:92,1,95
116,92,107752,1,0,0:0:0:0:
384,108,107829,6,0,L|396:32,1,47.5
176,36,107983,1,0,0:0:0:0:
64,96,108136,2,0,L|52:20,1,47.5
312,36,108290,1,0,0:0:0:0:
428,112,108444,2,0,L|440:36,1,47.5
176,36,108598,1,0,0:0:0:0:
133,54,108674,1,0,0:0:0:0:
108,93,108751,1,0,0:0:0:0:
109,140,108828,1,0,0:0:0:0:
135,178,108905,1,0,0:0:0:0:
179,196,108982,1,0,0:0:0:0:
432,196,109060,1,0,0:0:0:0:
88,196,109521,5,0,0:0:0:0:
320,104,109829,2,0,L|224:104,2,95
184,48,110290,2,0,P|124:88|200:152,1,190
304,156,110752,2,0,L|412:156,1,95
240,88,111060,1,0,0:0:0:0:
352,88,111213,1,0,0:0:0:0:
464,88,111367,1,0,0:0:0:0:
320,88,111521,5,0,0:0:0:0:
96,192,111829,2,0,L|96:84,1,95
416,192,112290,2,0,L|416:84,1,95
260,96,112598,2,0,L|52:96,1,190
216,164,113060,2,0,L|324:164,1,95
180,164,113367,1,0,0:0:0:0:
120,68,113521,1,0,0:0:0:0:
256,68,113675,1,0,0:0:0:0:
140,68,113829,1,0,0:0:0:0:
300,68,113983,5,0,0:0:0:0:
112,68,114290,1,0,0:0:0:0:
348,68,114598,2,0,L|448:68,2,95
196,68,115060,2,0,L|396:68,1,190
264,68,115521,1,0,0:0:0:0:
428,68,115829,1,0,0:0:0:0:
300,68,115983,1,0,0:0:0:0:
428,68,116136,1,0,0:0:0:0:
180,72,116290,6,0,P|120:104|200:168,1,190
308,176,116752,2,0,L|308:72,1,95
192,80,117060,1,0,0:0:0:0:
340,80,117213,2,0,L|452:80,1,95
212,132,117521,6,0,L|8:132,1,190
176,60,117983,2,0,L|60:60,1,95
228,128,118290,2,0,L|108:128,1,95
12,128,118598,1,0,0:0:0:0:
376,132,118752,1,0,0:0:0:0:
256,192,118906,12,0,121367,0:0:0:0:
