osu file format v14

[General]
AudioFilename: ARFOrest - Flashback.mp3
AudioLeadIn: 0
PreviewTime: 29031
Countdown: 0
SampleSet: Normal
StackLeniency: 0.7
Mode: 0
LetterboxInBreaks: 0
StoryFireInFront: 0
EpilepsyWarning: 1
WidescreenStoryboard: 1

[Editor]
Bookmarks: 20262,40107,49953,89337,99184,104107,109030,118876
DistanceSpacing: 0.9
BeatDivisor: 4
GridSize: 4
TimelineZoom: 1.9

[Metadata]
Title:Flashback
TitleUnicode:Flashback
Artist:ARForest
ArtistUnicode:ARForest
Creator:Kawa
Version:Insane
Source:Arcaea
Tags:
BeatmapID:1301184
BeatmapSetID:617053

[Difficulty]
HPDrainRate:4.5
CircleSize:4
OverallDifficulty:7
ApproachRate:9.2
SliderMultiplier:1.4
SliderTickRate:1

[Events]
//Background and Video events
0,0,"bg.jpg",0,0
//Break Periods
2,20615,28431
//Storyboard Layer 0 (Background)
//Storyboard Layer 1 (Fail)
//Storyboard Layer 2 (Pass)
//Storyboard Layer 3 (Foreground)
Sprite,Foreground,Centre,"sb\hl.png",320,240 F,0,0,,0 P,0,0,118722,A M,0,29031,,120,196 C,0,29031,,100,189,255 F,21,29031,30184,0.5,0 S,21,29031,30184,1,0.2 M,0,49337,,464,188 C,0,49337,,192,192,192 F,21,49337,50413,0.5,0 S,21,49337,50413,1,0.2 M,0,88107,,352,256 C,0,88107,,255,182,147 F,21,88107,89337,0.5,0 S,21,88107,89337,1,0.2 M,0,98261,,224,228 C,0,98261,,255,182,147 F,21,98261,99337,0.5,0 S,21,98261,99337,1,0.2 M,0,105030,,212,280 C,0,105030,,192,192,192 F,21,105030,106183,0.5,0 S,21,105030,106183,1,0.2 M,0,106683,,159.5556,123.8444 C,0,106683,,255,182,147 F,21,106683,107721,0.5,0 S,21,106683,107721,1,0.2 M,0,108875,,293,212 C,0,108875,,255,132,132 F,2,108875,109875,0.5,0 S,2,108875,109875,1,0.2
Sprite,Foreground,Centre,"sb\hl.png",320,240 F,0,0,,0 P,0,0,118722,A M,0,29069,,137.4427,196.1853 C,0,29069,,100,189,255 F,21,29069,30184,0.5,0 S,21,29069,30184,1,0.2 M,0,49375,,452.4762,201.1701 C,0,49375,,192,192,192 F,21,49375,50413,0.5,0 S,21,49375,50413,1,0.2 M,0,88145,,369.4637,257.1267 C,0,88145,,255,182,147 F,21,88145,89337,0.5,0 S,21,88145,89337,1,0.2 M,0,98299,,224,245.5 C,0,98299,,255,182,147 F,21,98299,99337,0.5,0 S,21,98299,99337,1,0.2 M,0,105068,,226.8833,270.8306 C,0,105068,,192,192,192 F,21,105068,106183,0.5,0 S,21,105068,106183,1,0.2 M,0,106876,,360,100 C,0,106876,,255,182,147 F,2,106876,107876,0.5,0 S,2,106876,107876,1,0.2 M,0,108952,,326,237 C,0,108952,,255,132,132 F,2,108952,109952,0.5,0 S,2,108952,109952,1,0.2
Sprite,Foreground,Centre,"sb\hl.png",320,240 F,0,0,,0 P,0,0,118722,A M,0,29107,,154.444,192.3654 C,0,29107,,100,189,255 F,21,29107,30184,0.5,0 S,21,29107,30184,1,0.2 M,0,49491,,496,320 C,0,49491,,192,192,192 F,21,49491,50567,0.5,0 S,21,49491,50567,1,0.2 M,0,88183,,386.9274,258.2534 C,0,88183,,255,182,147 F,21,88183,89337,0.5,0 S,21,88183,89337,1,0.2 M,0,98414,,64,332 C,0,98414,,255,182,147 F,21,98414,99490,0.5,0 S,21,98414,99490,1,0.2 M,0,105106,,242.9769,264.0115 C,0,105106,,192,192,192 F,21,105106,106183,0.5,0 S,21,105106,106183,1,0.2 M,0,107030,,320,244 C,0,107030,,255,182,147 F,2,107030,108030,0.5,0 S,2,107030,108030,1,0.2
Sprite,Foreground,Centre,"sb\hl.png",320,240 F,0,0,,0 P,0,0,118722,A M,0,29146,,170.0993,184.7513 C,0,29146,,100,189,255 F,21,29146,30184,0.5,0 S,21,29146,30184,1,0.2 M,0,49529,,507.7069,306.9924 C,0,49529,,192,192,192 F,21,49529,50567,0.5,0 S,21,49529,50567,1,0.2 M,0,88222,,404.3911,259.3801 C,0,88222,,255,182,147 F,21,88222,89337,0.5,0 S,21,88222,89337,1,0.2 M,0,98452,,64,314.5 C,0,98452,,255,182,147 F,21,98452,99490,0.5,0 S,21,98452,99490,1,0.2 M,0,105145,,259.9124,259.698 C,0,105145,,192,192,192 F,21,105145,106183,0.5,0 S,21,105145,106183,1,0.2 M,0,107184,,256,56 C,0,107184,,255,182,147 F,2,107184,108184,0.5,0 S,2,107184,108184,1,0.2
Sprite,Foreground,Centre,"sb\hl.png",320,240 F,0,0,,0 P,0,0,118722,A M,0,29338,,236,72 C,0,29338,,100,189,255 F,2,29338,30338,0.5,0 S,2,29338,30338,1,0.2 M,0,49645,,548,124 C,0,49645,,192,192,192 F,2,49645,50645,0.5,0 S,2,49645,50645,1,0.2 M,0,88260,,421.8548,260.5068 C,0,88260,,255,182,147 F,21,88260,89337,0.5,0 S,21,88260,89337,1,0.2 M,0,98568,,152,148 C,0,98568,,100,189,255 F,2,98568,99568,0.5,0 S,2,98568,99568,1,0.2 M,0,105337,,392,372 C,0,105337,,192,192,192 F,21,105337,106490,0.5,0 S,21,105337,106490,1,0.2 M,0,107337,,452,136 C,0,107337,,255,182,147 F,2,107337,108337,0.5,0 S,2,107337,108337,1,0.2
Sprite,Foreground,Centre,"sb\hl.png",320,240 F,0,0,,0 P,0,0,118722,A M,0,29492,,284,248 C,0,29492,,100,189,255 F,21,29492,30645,0.5,0 S,21,29492,30645,1,0.2 M,0,49722,,519,103 C,0,49722,,192,192,192 F,2,49722,50722,0.5,0 S,2,49722,50722,1,0.2 M,0,88299,,439.3185,261.6335 C,0,88299,,255,182,147 F,21,88299,89337,0.5,0 S,21,88299,89337,1,0.2 M,0,98644,,183,132 C,0,98644,,100,189,255 F,2,98644,99644,0.5,0 S,2,98644,99644,1,0.2 M,0,105375,,393.1837,389.4599 C,0,105375,,192,192,192 F,21,105375,106490,0.5,0 S,21,105375,106490,1,0.2 M,0,107414,,471,143 C,0,107414,,255,182,147 F,2,107414,108414,0.5,0 S,2,107414,108414,1,0.2
Sprite,Foreground,Centre,"sb\hl.png",320,240 F,0,0,,0 P,0,0,118722,A M,0,29530,,287.9351,265.0518 C,0,29530,,100,189,255 F,21,29530,30645,0.5,0 S,21,29530,30645,1,0.2 M,0,49798,,486,91 C,0,49798,,192,192,192 F,2,49798,50798,0.5,0 S,2,49798,50798,1,0.2 M,0,88414,,556,160 C,0,88414,,255,182,147 F,21,88414,89567,0.5,0 S,21,88414,89567,1,0.2 M,0,98721,,217,125 C,0,98721,,100,189,255 F,2,98721,99721,0.5,0 S,2,98721,99721,1,0.2 M,0,105413,,394.3674,406.9198 C,0,105413,,192,192,192 F,21,105413,106490,0.5,0 S,21,105413,106490,1,0.2 M,0,107491,,491,151 C,0,107491,,255,182,147 F,21,107491,108644,0.5,0 S,21,107491,108644,1,0.2
Sprite,Foreground,Centre,"sb\hl.png",320,240 F,0,0,,0 P,0,0,118722,A M,0,29568,,291.8701,282.1037 C,0,29568,,100,189,255 F,21,29568,30645,0.5,0 S,21,29568,30645,1,0.2 M,0,49875,,452,88 C,0,49875,,192,192,192 F,2,49875,50875,0.5,0 S,2,49875,50875,1,0.2 M,0,88452,,538.5658,158.484 C,0,88452,,255,182,147 F,21,88452,89567,0.5,0 S,21,88452,89567,1,0.2 M,0,98798,,251,129 C,0,98798,,100,189,255 F,2,98798,99798,0.5,0 S,2,98798,99798,1,0.2 M,0,105452,,393.1837,389.4599 C,0,105452,,192,192,192 F,21,105452,106490,0.5,0 S,21,105452,106490,1,0.2 M,0,107529,,489.7229,168.4533 C,0,107529,,255,182,147 F,21,107529,108644,0.5,0 S,21,107529,108644,1,0.2
Sprite,Foreground,Centre,"sb\hl.png",320,240 F,0,0,,0 P,0,0,118722,A M,0,29607,,287.9351,265.0518 C,0,29607,,100,189,255 F,21,29607,30645,0.5,0 S,21,29607,30645,1,0.2 M,0,86876,,396,308 C,0,86876,,255,132,132 F,21,86876,88106,0.5,0 S,21,86876,88106,1,0.2 M,0,88490,,521.1316,156.968 C,0,88490,,255,182,147 F,21,88490,89567,0.5,0 S,21,88490,89567,1,0.2 M,0,98875,,283,145 C,0,98875,,100,189,255 F,2,98875,99875,0.5,0 S,2,98875,99875,1,0.2 M,0,105645,,468,232 C,0,105645,,192,192,192 F,21,105645,106798,0.5,0 S,21,105645,106798,1,0.2 M,0,107567,,488.4459,185.9067 C,0,107567,,255,182,147 F,21,107567,108644,0.5,0 S,21,107567,108644,1,0.2
Sprite,Foreground,Centre,"sb\hl.png",320,240 F,0,0,,0 P,0,0,118722,A M,0,29800,,308,164 C,0,29800,,100,189,255 F,2,29800,30800,0.5,0 S,2,29800,30800,1,0.2 M,0,86914,,378.5388,306.8359 C,0,86914,,255,132,132 F,21,86914,88106,0.5,0 S,21,86914,88106,1,0.2 M,0,88529,,503.6974,155.4519 C,0,88529,,255,182,147 F,21,88529,89567,0.5,0 S,21,88529,89567,1,0.2 M,0,98952,,313,162 C,0,98952,,100,189,255 F,2,98952,99952,0.5,0 S,2,98952,99952,1,0.2 M,0,105683,,474.7207,248.1312 C,0,105683,,192,192,192 F,21,105683,106798,0.5,0 S,21,105683,106798,1,0.2 M,0,107606,,482.9061,202.1879 C,0,107606,,255,182,147 F,21,107606,108644,0.5,0 S,21,107606,108644,1,0.2
Sprite,Foreground,Centre,"sb\hl.png",320,240 F,0,0,,0 P,0,0,118722,A M,0,29954,,196,340 C,0,29954,,100,189,255 F,2,29954,30954,0.5,0 S,2,29954,30954,1,0.2 M,0,86952,,361.0775,305.6718 C,0,86952,,255,132,132 F,21,86952,88106,0.5,0 S,21,86952,88106,1,0.2 M,0,88645,,316,172 C,0,88645,,255,182,147 F,21,88645,89798,0.5,0 S,21,88645,89798,1,0.2 M,0,99029,,347,170 C,0,99029,,100,189,255 F,2,99029,100029,0.5,0 S,2,99029,100029,1,0.2 M,0,105721,,478.9113,265.0878 C,0,105721,,192,192,192 F,21,105721,106798,0.5,0 S,21,105721,106798,1,0.2 M,0,107799,,340,404 C,0,107799,,100,189,255 F,21,107799,108875,0.5,0 S,21,107799,108875,1,0.2
Sprite,Foreground,Centre,"sb\hl.png",320,240 F,0,0,,0 P,0,0,118722,A M,0,30030,,218,366 C,0,30030,,100,189,255 F,2,30030,31030,0.5,0 S,2,30030,31030,1,0.2 M,0,86991,,343.6163,304.5078 C,0,86991,,255,132,132 F,21,86991,88106,0.5,0 S,21,86991,88106,1,0.2 M,0,88683,,333.4342,173.516 C,0,88683,,255,182,147 F,21,88683,89798,0.5,0 S,21,88683,89798,1,0.2 M,0,99106,,381,165 C,0,99106,,100,189,255 F,2,99106,100106,0.5,0 S,2,99106,100106,1,0.2 M,0,105760,,480.4771,282.4769 C,0,105760,,192,192,192 F,21,105760,106798,0.5,0 S,21,105760,106798,1,0.2 M,0,107837,,348.8002,384.9329 C,0,107837,,100,189,255 F,21,107837,108875,0.5,0 S,21,107837,108875,1,0.2
Sprite,Foreground,Centre,"sb\hl.png",320,240 F,0,0,,0 P,0,0,118722,A M,0,30107,,248,384 C,0,30107,,100,189,255 F,2,30107,31107,0.5,0 S,2,30107,31107,1,0.2 M,0,87029,,327.971,298.265 C,0,87029,,255,132,132 F,21,87029,88106,0.5,0 S,21,87029,88106,1,0.2 M,0,88721,,350.8684,175.032 C,0,88721,,255,182,147 F,21,88721,89798,0.5,0 S,21,88721,89798,1,0.2 M,0,104107,,179,148 C,0,104107,,255,132,132 F,2,104107,105107,0.5,0 S,2,104107,105107,1,0.2 M,0,105876,,384,192 C,0,105876,,192,192,192 F,2,105876,106876,0.5,0 S,2,105876,106876,1,0.2 M,0,107953,,492,300 C,0,107953,,100,189,255 F,21,107953,109029,0.5,0 S,21,107953,109029,1,0.2
Sprite,Foreground,Centre,"sb\hl.png",320,240 F,0,0,,0 P,0,0,118722,A M,0,30184,,282,391 C,0,30184,,100,189,255 F,2,30184,31184,0.5,0 S,2,30184,31184,1,0.2 M,0,87068,,313.7307,288.0934 C,0,87068,,255,132,132 F,21,87068,88106,0.5,0 S,21,87068,88106,1,0.2 M,0,88760,,368.3026,176.5481 C,0,88760,,255,182,147 F,21,88760,89798,0.5,0 S,21,88760,89798,1,0.2 M,0,104183,,209,166 C,0,104183,,255,132,132 F,2,104183,105183,0.5,0 S,2,104183,105183,1,0.2 M,0,105953,,384,192 C,0,105953,,192,192,192 F,21,105953,107106,0.5,0 S,21,105953,107106,1,0.2 M,0,107991,,483.5828,319.2393 C,0,107991,,100,189,255 F,21,107991,109029,0.5,0 S,21,107991,109029,1,0.2
Sprite,Foreground,Centre,"sb\hl.png",320,240 F,0,0,,0 P,0,0,118722,A M,0,39491,,424,132 C,0,39491,,255,132,132 F,21,39491,40567,0.5,0 S,21,39491,40567,1,0.2 M,0,87184,,248,168 C,0,87184,,255,132,132 F,2,87184,88184,0.5,0 S,2,87184,88184,1,0.2 M,0,88876,,464,64 C,0,88876,,255,182,147 F,21,88876,89952,0.5,0 S,21,88876,89952,1,0.2 M,0,104260,,243,175 C,0,104260,,255,132,132 F,2,104260,105260,0.5,0 S,2,104260,105260,1,0.2 M,0,105991,,384,174.5 C,0,105991,,192,192,192 F,21,105991,107106,0.5,0 S,21,105991,107106,1,0.2 M,0,108107,,332,344 C,0,108107,,100,189,255 F,21,108107,109183,0.5,0 S,21,108107,109183,1,0.2
Sprite,Foreground,Centre,"sb\hl.png",320,240 F,0,0,,0 P,0,0,118722,A M,0,39529,,439.6525,124.1738 C,0,39529,,255,132,132 F,21,39529,40567,0.5,0 S,21,39529,40567,1,0.2 M,0,87414,,80,316 C,0,87414,,255,132,132 F,2,87414,88414,0.5,0 S,2,87414,88414,1,0.2 M,0,88914,,446.5869,62.25869 C,0,88914,,255,182,147 F,21,88914,89952,0.5,0 S,21,88914,89952,1,0.2 M,0,104337,,278,174 C,0,104337,,255,132,132 F,2,104337,105337,0.5,0 S,2,104337,105337,1,0.2 M,0,106029,,384,157 C,0,106029,,192,192,192 F,21,106029,107106,0.5,0 S,21,106029,107106,1,0.2 M,0,108145,,341.3915,325.217 C,0,108145,,100,189,255 F,21,108145,109183,0.5,0 S,21,108145,109183,1,0.2
Sprite,Foreground,Centre,"sb\hl.png",320,240 F,0,0,,0 P,0,0,118722,A M,0,39645,,456,228 C,0,39645,,255,132,132 F,21,39645,40721,0.5,0 S,21,39645,40721,1,0.2 M,0,87491,,80,316 C,0,87491,,255,132,132 F,2,87491,88491,0.5,0 S,2,87491,88491,1,0.2 M,0,89030,,248,96 C,0,89030,,255,182,147 F,2,89030,90030,0.5,0 S,2,89030,90030,1,0.2 M,0,104414,,312,156 C,0,104414,,255,132,132 F,2,104414,105414,0.5,0 S,2,104414,105414,1,0.2 M,0,106068,,384,139.5 C,0,106068,,192,192,192 F,21,106068,107106,0.5,0 S,21,106068,107106,1,0.2 M,0,108261,,492,364 C,0,108261,,100,189,255 F,21,108261,109337,0.5,0 S,21,108261,109337,1,0.2
Sprite,Foreground,Centre,"sb\hl.png",320,240 F,0,0,,0 P,0,0,118722,A M,0,39683,,440.1657,235.4514 C,0,39683,,255,132,132 F,21,39683,40721,0.5,0 S,21,39683,40721,1,0.2 M,0,87645,,200,396 C,0,87645,,255,132,132 F,21,87645,88875,0.5,0 S,21,87645,88875,1,0.2 M,0,89106,,222,126 C,0,89106,,255,182,147 F,2,89106,90106,0.5,0 S,2,89106,90106,1,0.2 M,0,104490,,334,129 C,0,104490,,255,132,132 F,2,104490,105490,0.5,0 S,2,104490,105490,1,0.2 M,0,106261,,232,188 C,0,106261,,192,192,192 F,2,106261,107261,0.5,0 S,2,106261,107261,1,0.2 M,0,108299,,484.4614,383.6003 C,0,108299,,100,189,255 F,21,108299,109337,0.5,0 S,21,108299,109337,1,0.2
Sprite,Foreground,Centre,"sb\hl.png",320,240 F,0,0,,0 P,0,0,118722,A M,0,39799,,272,211 C,0,39799,,255,132,132 F,2,39799,40799,0.5,0 S,2,39799,40799,1,0.2 M,0,87683,,208.2968,380.5918 C,0,87683,,255,132,132 F,21,87683,88875,0.5,0 S,21,87683,88875,1,0.2 M,0,89183,,211,165 C,0,89183,,255,182,147 F,2,89183,90183,0.5,0 S,2,89183,90183,1,0.2 M,0,104567,,366,115 C,0,104567,,255,132,132 F,2,104567,105567,0.5,0 S,2,104567,105567,1,0.2 M,0,106337,,197,189 C,0,106337,,192,192,192 F,2,106337,107337,0.5,0 S,2,106337,107337,1,0.2 M,0,108414,,256,356 C,0,108414,,255,132,132 F,2,108414,109414,0.5,0 S,2,108414,109414,1,0.2
Sprite,Foreground,Centre,"sb\hl.png",320,240 F,0,0,,0 P,0,0,118722,A M,0,39876,,243,192 C,0,39876,,255,132,132 F,2,39876,40876,0.5,0 S,2,39876,40876,1,0.2 M,0,87721,,216.5935,365.1835 C,0,87721,,255,132,132 F,21,87721,88875,0.5,0 S,21,87721,88875,1,0.2 M,0,89260,,218,204 C,0,89260,,255,182,147 F,2,89260,90260,0.5,0 S,2,89260,90260,1,0.2 M,0,104644,,400,116 C,0,104644,,255,132,132 F,2,104644,105644,0.5,0 S,2,104644,105644,1,0.2 M,0,106414,,163,181 C,0,106414,,192,192,192 F,2,106414,107414,0.5,0 S,2,106414,107414,1,0.2 M,0,108490,,218,339 C,0,108490,,255,132,132 F,2,108490,109490,0.5,0 S,2,108490,109490,1,0.2
Sprite,Foreground,Centre,"sb\hl.png",320,240 F,0,0,,0 P,0,0,118722,A M,0,39953,,221,166 C,0,39953,,255,132,132 F,2,39953,40953,0.5,0 S,2,39953,40953,1,0.2 M,0,87760,,224.8902,349.7753 C,0,87760,,255,132,132 F,21,87760,88875,0.5,0 S,21,87760,88875,1,0.2 M,0,97953,,224,304 C,0,97953,,255,182,147 F,21,97953,99029,0.5,0 S,21,97953,99029,1,0.2 M,0,104722,,431,131 C,0,104722,,255,132,132 F,21,104722,105875,0.5,0 S,21,104722,105875,1,0.2 M,0,106491,,132,163 C,0,106491,,192,192,192 F,2,106491,107491,0.5,0 S,2,106491,107491,1,0.2 M,0,108567,,195,305 C,0,108567,,255,132,132 F,2,108567,109567,0.5,0 S,2,108567,109567,1,0.2
Sprite,Foreground,Centre,"sb\hl.png",320,240 F,0,0,,0 P,0,0,118722,A M,0,40030,,208,132 C,0,40030,,255,132,132 F,2,40030,41030,0.5,0 S,2,40030,41030,1,0.2 M,0,87798,,228,333.0593 C,0,87798,,255,132,132 F,21,87798,88875,0.5,0 S,21,87798,88875,1,0.2 M,0,97991,,206.5,304 C,0,97991,,255,182,147 F,21,97991,99029,0.5,0 S,21,97991,99029,1,0.2 M,0,104760,,427.3067,148.0631 C,0,104760,,255,132,132 F,21,104760,105875,0.5,0 S,21,104760,105875,1,0.2 M,0,106568,,109,138 C,0,106568,,255,182,147 F,21,106568,107721,0.5,0 S,21,106568,107721,1,0.2 M,0,108644,,194,263 C,0,108644,,255,132,132 F,2,108644,109644,0.5,0 S,2,108644,109644,1,0.2
Sprite,Foreground,Centre,"sb\hl.png",320,240 F,0,0,,0 P,0,0,118722,A M,0,49184,,524,200 C,0,49184,,255,132,132 F,2,49184,50184,0.5,0 S,2,49184,50184,1,0.2 M,0,87837,,228,315.5593 C,0,87837,,255,132,132 F,21,87837,88875,0.5,0 S,21,87837,88875,1,0.2 M,0,98107,,64,256 C,0,98107,,255,182,147 F,21,98107,99183,0.5,0 S,21,98107,99183,1,0.2 M,0,104798,,421.3233,164.4314 C,0,104798,,255,132,132 F,21,104798,105875,0.5,0 S,21,104798,105875,1,0.2 M,0,106606,,125.8519,133.2815 C,0,106606,,255,182,147 F,21,106606,107721,0.5,0 S,21,106606,107721,1,0.2 M,0,108722,,215,227 C,0,108722,,255,132,132 F,2,108722,109722,0.5,0 S,2,108722,109722,1,0.2
Sprite,Foreground,Centre,"sb\hl.png",320,240 F,0,0,,0 P,0,0,118722,A M,0,49260,,492,188 C,0,49260,,255,132,132 F,2,49260,50260,0.5,0 S,2,49260,50260,1,0.2 M,0,87953,,184,224 C,0,87953,,255,132,132 F,2,87953,88953,0.5,0 S,2,87953,88953,1,0.2 M,0,98145,,81.5,256 C,0,98145,,255,182,147 F,21,98145,99183,0.5,0 S,21,98145,99183,1,0.2 M,0,104837,,412.8536,179.6626 C,0,104837,,255,132,132 F,21,104837,105875,0.5,0 S,21,104837,105875,1,0.2 M,0,106644,,142.7037,128.563 C,0,106644,,255,182,147 F,21,106644,107721,0.5,0 S,21,106644,107721,1,0.2 M,0,108798,,251,208 C,0,108798,,255,132,132 F,2,108798,109798,0.5,0 S,2,108798,109798,1,0.2
Sprite,Foreground,Centre,"sb\r.png",320,240 F,0,0,,0 P,0,0,118722,A T,HitSound,10378,10454 M,0,0,,240,260 F,3,0,1000,0.7,0 S,22,0,1500,0.3,0.6 T,HitSound,18685,18761 M,0,0,,356,128 F,3,0,1000,0.7,0 S,22,0,1500,0.3,0.6 T,HitSound,63453,63529 M,0,0,,158,296 F,3,0,1000,0.7,0 S,22,0,1500,0.3,0.6
Sprite,Foreground,Centre,"sb\rb.png",320,240 F,0,0,,0 P,0,0,118722,A T,HitSound,10378,10454 M,0,0,,240,260 F,3,0,1500,0.7,0 S,22,0,1500,0.3,0.6 T,HitSound,18685,18761 M,0,0,,356,128 F,3,0,1500,0.7,0 S,22,0,1500,0.3,0.6 T,HitSound,63453,63529 M,0,0,,158,296 F,3,0,1500,0.7,0 S,22,0,1500,0.3,0.6
Sprite,Foreground,Centre,"sb\r.png",320,240 F,0,0,,0 P,0,0,118722,A T,HitSound,10839,10915 M,0,0,,112,116 F,3,0,1000,0.7,0 S,22,0,1500,0.3,0.6 T,HitSound,18993,19069 M,0,0,,152,64 F,3,0,1000,0.7,0 S,22,0,1500,0.3,0.6 T,HitSound,64684,64760 M,0,0,,195,243 F,3,0,1000,0.7,0 S,22,0,1500,0.3,0.6
Sprite,Foreground,Centre,"sb\rb.png",320,240 F,0,0,,0 P,0,0,118722,A T,HitSound,10839,10915 M,0,0,,112,116 F,3,0,1500,0.7,0 S,22,0,1500,0.3,0.6 T,HitSound,18993,19069 M,0,0,,152,64 F,3,0,1500,0.7,0 S,22,0,1500,0.3,0.6 T,HitSound,64684,64760 M,0,0,,195,243 F,3,0,1500,0.7,0 S,22,0,1500,0.3,0.6
Sprite,Foreground,Centre,"sb\r.png",320,240 F,0,0,,0 P,0,0,118722,A T,HitSound,12839,12915 M,0,0,,168,340 F,3,0,1000,0.7,0 S,22,0,1500,0.3,0.6 T,HitSound,19455,19531 M,0,0,,72,296 F,3,0,1000,0.7,0 S,22,0,1500,0.3,0.6 T,HitSound,65607,65683 M,0,0,,447,135 F,3,0,1000,0.7,0 S,22,0,1500,0.3,0.6
Sprite,Foreground,Centre,"sb\rb.png",320,240 F,0,0,,0 P,0,0,118722,A T,HitSound,12839,12915 M,0,0,,168,340 F,3,0,1500,0.7,0 S,22,0,1500,0.3,0.6 T,HitSound,19455,19531 M,0,0,,72,296 F,3,0,1500,0.7,0 S,22,0,1500,0.3,0.6 T,HitSound,65607,65683 M,0,0,,447,135 F,3,0,1500,0.7,0 S,22,0,1500,0.3,0.6
Sprite,Foreground,Centre,"sb\r.png",320,240 F,0,0,,0 P,0,0,118722,A T,HitSound,13301,13377 M,0,0,,360,260 F,3,0,1000,0.7,0 S,22,0,1500,0.3,0.6 T,HitSound,59761,59837 M,0,0,,158,225 F,3,0,1000,0.7,0 S,22,0,1500,0.3,0.6 T,HitSound,65915,65991 M,0,0,,375,291 F,3,0,1000,0.7,0 S,22,0,1500,0.3,0.6
Sprite,Foreground,Centre,"sb\rb.png",320,240 F,0,0,,0 P,0,0,118722,A T,HitSound,13301,13377 M,0,0,,360,260 F,3,0,1500,0.7,0 S,22,0,1500,0.3,0.6 T,HitSound,59761,59837 M,0,0,,158,225 F,3,0,1500,0.7,0 S,22,0,1500,0.3,0.6 T,HitSound,65915,65991 M,0,0,,375,291 F,3,0,1500,0.7,0 S,22,0,1500,0.3,0.6
Sprite,Foreground,Centre,"sb\r.png",320,240 F,0,0,,0 P,0,0,118722,A T,HitSound,15301,15377 M,0,0,,400,184 F,3,0,1000,0.7,0 S,22,0,1500,0.3,0.6 T,HitSound,60684,60760 M,0,0,,364,314 F,3,0,1000,0.7,0 S,22,0,1500,0.3,0.6 T,HitSound,67146,67222 M,0,0,,223,262 F,3,0,1000,0.7,0 S,22,0,1500,0.3,0.6
Sprite,Foreground,Centre,"sb\rb.png",320,240 F,0,0,,0 P,0,0,118722,A T,HitSound,15301,15377 M,0,0,,400,184 F,3,0,1500,0.7,0 S,22,0,1500,0.3,0.6 T,HitSound,60684,60760 M,0,0,,364,314 F,3,0,1500,0.7,0 S,22,0,1500,0.3,0.6 T,HitSound,67146,67222 M,0,0,,223,262 F,3,0,1500,0.7,0 S,22,0,1500,0.3,0.6
Sprite,Foreground,Centre,"sb\r.png",320,240 F,0,0,,0 P,0,0,118722,A T,HitSound,15762,15838 M,0,0,,196,80 F,3,0,1000,0.7,0 S,22,0,1500,0.3,0.6 T,HitSound,60992,61068 M,0,0,,313,407 F,3,0,1000,0.7,0 S,22,0,1500,0.3,0.6 T,HitSound,68069,68145 M,0,0,,364,257 F,3,0,1000,0.7,0 S,22,0,1500,0.3,0.6
Sprite,Foreground,Centre,"sb\rb.png",320,240 F,0,0,,0 P,0,0,118722,A T,HitSound,15762,15838 M,0,0,,196,80 F,3,0,1500,0.7,0 S,22,0,1500,0.3,0.6 T,HitSound,60992,61068 M,0,0,,313,407 F,3,0,1500,0.7,0 S,22,0,1500,0.3,0.6 T,HitSound,68069,68145 M,0,0,,364,257 F,3,0,1500,0.7,0 S,22,0,1500,0.3,0.6
Sprite,Foreground,Centre,"sb\r.png",320,240 F,0,0,,0 P,0,0,118722,A T,HitSound,17762,17838 M,0,0,,356,128 F,3,0,1000,0.7,0 S,22,0,1500,0.3,0.6 T,HitSound,62223,62299 M,0,0,,375,164 F,3,0,1000,0.7,0 S,22,0,1500,0.3,0.6 T,HitSound,68376,68452 M,0,0,,387,143 F,3,0,1000,0.7,0 S,22,0,1500,0.3,0.6
Sprite,Foreground,Centre,"sb\rb.png",320,240 F,0,0,,0 P,0,0,118722,A T,HitSound,17762,17838 M,0,0,,356,128 F,3,0,1500,0.7,0 S,22,0,1500,0.3,0.6 T,HitSound,62223,62299 M,0,0,,375,164 F,3,0,1500,0.7,0 S,22,0,1500,0.3,0.6 T,HitSound,68376,68452 M,0,0,,387,143 F,3,0,1500,0.7,0 S,22,0,1500,0.3,0.6
Sprite,Foreground,Centre,"sb\r.png",320,240 F,0,0,,0 P,0,0,118722,A T,HitSound,18224,18300 M,0,0,,404,328 F,3,0,1000,0.7,0 S,22,0,1500,0.3,0.6 T,HitSound,63146,63222 M,0,0,,157,76 F,3,0,1000,0.7,0 S,22,0,1500,0.3,0.6 T,HitSound,86838,86914 M,0,0,,396,308 F,3,0,1000,0.7,0 S,22,0,1500,0.3,0.6
Sprite,Foreground,Centre,"sb\rb.png",320,240 F,0,0,,0 P,0,0,118722,A T,HitSound,18224,18300 M,0,0,,404,328 F,3,0,1500,0.7,0 S,22,0,1500,0.3,0.6 T,HitSound,63146,63222 M,0,0,,157,76 F,3,0,1500,0.7,0 S,22,0,1500,0.3,0.6 T,HitSound,86838,86914 M,0,0,,396,308 F,3,0,1500,0.7,0 S,22,0,1500,0.3,0.6
Sprite,Foreground,Centre,"sb\r2.png",320,240 F,0,0,,0 P,0,0,118722,A T,HitSound,15147,15223 M,0,0,,400,184 F,3,0,500,0.7,0 S,22,0,1000,0.2,0.4 T,HitSound,32992,33068 M,0,0,,202,229 F,3,0,500,0.7,0 S,22,0,1000,0.2,0.4 T,HitSound,37146,37222 M,0,0,,472,244 F,3,0,500,0.7,0 S,22,0,1000,0.2,0.4 T,HitSound,40376,40452 M,0,0,,88,272 F,3,0,500,0.7,0 S,22,0,1000,0.2,0.4 T,HitSound,44684,44760 M,0,0,,448,336 F,3,0,500,0.7,0 S,22,0,1000,0.2,0.4 T,HitSound,48684,48760 M,0,0,,320,144 F,3,0,500,0.7,0 S,22,0,1000,0.2,0.4 T,HitSound,65299,65375 M,0,0,,321,214 F,3,0,500,0.7,0 S,22,0,1000,0.2,0.4 T,HitSound,91299,91375 M,0,0,,436,360 F,3,0,500,0.7,0 S,22,0,1000,0.2,0.4 T,HitSound,95761,95837 M,0,0,,420,272 F,3,0,500,0.7,0 S,22,0,1000,0.2,0.4 T,HitSound,99915,99991 M,0,0,,312,348 F,3,0,500,0.7,0 S,22,0,1000,0.2,0.4 T,HitSound,104376,104452 M,0,0,,312,156 F,3,0,500,0.7,0 S,22,0,1000,0.2,0.4 T,HitSound,107453,107529 M,0,0,,491,151 F,3,0,500,0.7,0 S,22,0,1000,0.2,0.4
Sprite,Foreground,Centre,"sb\r2b.png",320,240 F,0,0,,0 P,0,0,118722,A T,HitSound,15147,15223 M,0,0,,400,184 F,3,0,1000,0.7,0 S,22,0,1000,0.2,0.4 T,HitSound,32992,33068 M,0,0,,202,229 F,3,0,1000,0.7,0 S,22,0,1000,0.2,0.4 T,HitSound,37146,37222 M,0,0,,472,244 F,3,0,1000,0.7,0 S,22,0,1000,0.2,0.4 T,HitSound,40376,40452 M,0,0,,88,272 F,3,0,1000,0.7,0 S,22,0,1000,0.2,0.4 T,HitSound,44684,44760 M,0,0,,448,336 F,3,0,1000,0.7,0 S,22,0,1000,0.2,0.4 T,HitSound,48684,48760 M,0,0,,320,144 F,3,0,1000,0.7,0 S,22,0,1000,0.2,0.4 T,HitSound,65299,65375 M,0,0,,321,214 F,3,0,1000,0.7,0 S,22,0,1000,0.2,0.4 T,HitSound,91299,91375 M,0,0,,436,360 F,3,0,1000,0.7,0 S,22,0,1000,0.2,0.4 T,HitSound,95761,95837 M,0,0,,420,272 F,3,0,1000,0.7,0 S,22,0,1000,0.2,0.4 T,HitSound,99915,99991 M,0,0,,312,348 F,3,0,1000,0.7,0 S,22,0,1000,0.2,0.4 T,HitSound,104376,104452 M,0,0,,312,156 F,3,0,1000,0.7,0 S,22,0,1000,0.2,0.4 T,HitSound,107453,107529 M,0,0,,491,151 F,3,0,1000,0.7,0 S,22,0,1000,0.2,0.4
Sprite,Foreground,Centre,"sb\r2.png",320,240 F,0,0,,0 P,0,0,118722,A T,HitSound,18532,18608 M,0,0,,492,112 F,3,0,500,0.7,0 S,22,0,1000,0.2,0.4 T,HitSound,33453,33529 M,0,0,,328,164 F,3,0,500,0.7,0 S,22,0,1000,0.2,0.4 T,HitSound,37915,37991 M,0,0,,440,72 F,3,0,500,0.7,0 S,22,0,1000,0.2,0.4 T,HitSound,40838,40914 M,0,0,,187.5784,272.4416 F,3,0,500,0.7,0 S,22,0,1000,0.2,0.4 T,HitSound,45299,45375 M,0,0,,484,284 F,3,0,500,0.7,0 S,22,0,1000,0.2,0.4 T,HitSound,48992,49068 M,0,0,,496,320 F,3,0,500,0.7,0 S,22,0,1000,0.2,0.4 T,HitSound,66530,66606 M,0,0,,377,422 F,3,0,500,0.7,0 S,22,0,1000,0.2,0.4 T,HitSound,92069,92145 M,0,0,,352,284 F,3,0,500,0.7,0 S,22,0,1000,0.2,0.4 T,HitSound,96223,96299 M,0,0,,500,200 F,3,0,500,0.7,0 S,22,0,1000,0.2,0.4 T,HitSound,100684,100760 M,0,0,,164,192 F,3,0,500,0.7,0 S,22,0,1000,0.2,0.4 T,HitSound,104838,104914 M,0,0,,402.1061,193.3818 F,3,0,500,0.7,0 S,22,0,1000,0.2,0.4 T,HitSound,107761,107837 M,0,0,,340,404 F,3,0,500,0.7,0 S,22,0,1000,0.2,0.4
Sprite,Foreground,Centre,"sb\r2b.png",320,240 F,0,0,,0 P,0,0,118722,A T,HitSound,18532,18608 M,0,0,,492,112 F,3,0,1000,0.7,0 S,22,0,1000,0.2,0.4 T,HitSound,33453,33529 M,0,0,,328,164 F,3,0,1000,0.7,0 S,22,0,1000,0.2,0.4 T,HitSound,37915,37991 M,0,0,,440,72 F,3,0,1000,0.7,0 S,22,0,1000,0.2,0.4 T,HitSound,40838,40914 M,0,0,,187.5784,272.4416 F,3,0,1000,0.7,0 S,22,0,1000,0.2,0.4 T,HitSound,45299,45375 M,0,0,,484,284 F,3,0,1000,0.7,0 S,22,0,1000,0.2,0.4 T,HitSound,48992,49068 M,0,0,,496,320 F,3,0,1000,0.7,0 S,22,0,1000,0.2,0.4 T,HitSound,66530,66606 M,0,0,,377,422 F,3,0,1000,0.7,0 S,22,0,1000,0.2,0.4 T,HitSound,92069,92145 M,0,0,,352,284 F,3,0,1000,0.7,0 S,22,0,1000,0.2,0.4 T,HitSound,96223,96299 M,0,0,,500,200 F,3,0,1000,0.7,0 S,22,0,1000,0.2,0.4 T,HitSound,100684,100760 M,0,0,,164,192 F,3,0,1000,0.7,0 S,22,0,1000,0.2,0.4 T,HitSound,104838,104914 M,0,0,,402.1061,193.3818 F,3,0,1000,0.7,0 S,22,0,1000,0.2,0.4 T,HitSound,107761,107837 M,0,0,,340,404 F,3,0,1000,0.7,0 S,22,0,1000,0.2,0.4
Sprite,Foreground,Centre,"sb\r2.png",320,240 F,0,0,,0 P,0,0,118722,A T,HitSound,19762,19838 M,0,0,,328,320 F,3,0,500,0.7,0 S,22,0,1000,0.2,0.4 T,HitSound,34223,34299 M,0,0,,500,348 F,3,0,500,0.7,0 S,22,0,1000,0.2,0.4 T,HitSound,38223,38299 M,0,0,,305,223 F,3,0,500,0.7,0 S,22,0,1000,0.2,0.4 T,HitSound,41607,41683 M,0,0,,504,235 F,3,0,500,0.7,0 S,22,0,1000,0.2,0.4 T,HitSound,45761,45837 M,0,0,,280,348 F,3,0,500,0.7,0 S,22,0,1000,0.2,0.4 T,HitSound,49299,49375 M,0,0,,464,188 F,3,0,500,0.7,0 S,22,0,1000,0.2,0.4 T,HitSound,67761,67837 M,0,0,,211,162 F,3,0,500,0.7,0 S,22,0,1000,0.2,0.4 T,HitSound,92530,92606 M,0,0,,103.09,292.0225 F,3,0,500,0.7,0 S,22,0,1000,0.2,0.4 T,HitSound,96992,97068 M,0,0,,320,236 F,3,0,500,0.7,0 S,22,0,1000,0.2,0.4 T,HitSound,101146,101222 M,0,0,,260,68 F,3,0,500,0.7,0 S,22,0,1000,0.2,0.4 T,HitSound,105146,105222 M,0,0,,277.304,257.9532 F,3,0,500,0.7,0 S,22,0,1000,0.2,0.4 T,HitSound,108069,108145 M,0,0,,332,344 F,3,0,500,0.7,0 S,22,0,1000,0.2,0.4
Sprite,Foreground,Centre,"sb\r2b.png",320,240 F,0,0,,0 P,0,0,118722,A T,HitSound,19762,19838 M,0,0,,328,320 F,3,0,1000,0.7,0 S,22,0,1000,0.2,0.4 T,HitSound,34223,34299 M,0,0,,500,348 F,3,0,1000,0.7,0 S,22,0,1000,0.2,0.4 T,HitSound,38223,38299 M,0,0,,305,223 F,3,0,1000,0.7,0 S,22,0,1000,0.2,0.4 T,HitSound,41607,41683 M,0,0,,504,235 F,3,0,1000,0.7,0 S,22,0,1000,0.2,0.4 T,HitSound,45761,45837 M,0,0,,280,348 F,3,0,1000,0.7,0 S,22,0,1000,0.2,0.4 T,HitSound,49299,49375 M,0,0,,464,188 F,3,0,1000,0.7,0 S,22,0,1000,0.2,0.4 T,HitSound,67761,67837 M,0,0,,211,162 F,3,0,1000,0.7,0 S,22,0,1000,0.2,0.4 T,HitSound,92530,92606 M,0,0,,103.09,292.0225 F,3,0,1000,0.7,0 S,22,0,1000,0.2,0.4 T,HitSound,96992,97068 M,0,0,,320,236 F,3,0,1000,0.7,0 S,22,0,1000,0.2,0.4 T,HitSound,101146,101222 M,0,0,,260,68 F,3,0,1000,0.7,0 S,22,0,1000,0.2,0.4 T,HitSound,105146,105222 M,0,0,,277.304,257.9532 F,3,0,1000,0.7,0 S,22,0,1000,0.2,0.4 T,HitSound,108069,108145 M,0,0,,332,344 F,3,0,1000,0.7,0 S,22,0,1000,0.2,0.4
Sprite,Foreground,Centre,"sb\r2.png",320,240 F,0,0,,0 P,0,0,118722,A T,HitSound,20224,20300 M,0,0,,404,424 F,3,0,500,0.7,0 S,22,0,1000,0.2,0.4 T,HitSound,34530,34606 M,0,0,,369,221 F,3,0,500,0.7,0 S,22,0,1000,0.2,0.4 T,HitSound,38530,38606 M,0,0,,160,408 F,3,0,500,0.7,0 S,22,0,1000,0.2,0.4 T,HitSound,42069,42145 M,0,0,,412,240 F,3,0,500,0.7,0 S,22,0,1000,0.2,0.4 T,HitSound,46530,46606 M,0,0,,248,172 F,3,0,500,0.7,0 S,22,0,1000,0.2,0.4 T,HitSound,49453,49529 M,0,0,,496,320 F,3,0,500,0.7,0 S,22,0,1000,0.2,0.4 T,HitSound,68992,69068 M,0,0,,475,331 F,3,0,500,0.7,0 S,22,0,1000,0.2,0.4 T,HitSound,93299,93375 M,0,0,,464,400 F,3,0,500,0.7,0 S,22,0,1000,0.2,0.4 T,HitSound,97299,97375 M,0,0,,365,182 F,3,0,500,0.7,0 S,22,0,1000,0.2,0.4 T,HitSound,101915,101991 M,0,0,,336,236 F,3,0,500,0.7,0 S,22,0,1000,0.2,0.4 T,HitSound,105453,105529 M,0,0,,392,372 F,3,0,500,0.7,0 S,22,0,1000,0.2,0.4
Sprite,Foreground,Centre,"sb\r2b.png",320,240 F,0,0,,0 P,0,0,118722,A T,HitSound,20224,20300 M,0,0,,404,424 F,3,0,1000,0.7,0 S,22,0,1000,0.2,0.4 T,HitSound,34530,34606 M,0,0,,369,221 F,3,0,1000,0.7,0 S,22,0,1000,0.2,0.4 T,HitSound,38530,38606 M,0,0,,160,408 F,3,0,1000,0.7,0 S,22,0,1000,0.2,0.4 T,HitSound,42069,42145 M,0,0,,412,240 F,3,0,1000,0.7,0 S,22,0,1000,0.2,0.4 T,HitSound,46530,46606 M,0,0,,248,172 F,3,0,1000,0.7,0 S,22,0,1000,0.2,0.4 T,HitSound,49453,49529 M,0,0,,496,320 F,3,0,1000,0.7,0 S,22,0,1000,0.2,0.4 T,HitSound,68992,69068 M,0,0,,475,331 F,3,0,1000,0.7,0 S,22,0,1000,0.2,0.4 T,HitSound,93299,93375 M,0,0,,464,400 F,3,0,1000,0.7,0 S,22,0,1000,0.2,0.4 T,HitSound,97299,97375 M,0,0,,365,182 F,3,0,1000,0.7,0 S,22,0,1000,0.2,0.4 T,HitSound,101915,101991 M,0,0,,336,236 F,3,0,1000,0.7,0 S,22,0,1000,0.2,0.4 T,HitSound,105453,105529 M,0,0,,392,372 F,3,0,1000,0.7,0 S,22,0,1000,0.2,0.4
Sprite,Foreground,Centre,"sb\r2.png",320,240 F,0,0,,0 P,0,0,118722,A T,HitSound,30530,30606 M,0,0,,500,412 F,3,0,500,0.7,0 S,22,0,1000,0.2,0.4 T,HitSound,34838,34914 M,0,0,,232,320 F,3,0,500,0.7,0 S,22,0,1000,0.2,0.4 T,HitSound,38838,38914 M,0,0,,184,184 F,3,0,500,0.7,0 S,22,0,1000,0.2,0.4 T,HitSound,42838,42914 M,0,0,,234,175 F,3,0,500,0.7,0 S,22,0,1000,0.2,0.4 T,HitSound,46992,47068 M,0,0,,208,248 F,3,0,500,0.7,0 S,22,0,1000,0.2,0.4 T,HitSound,60376,60452 M,0,0,,217,298 F,3,0,500,0.7,0 S,22,0,1000,0.2,0.4 T,HitSound,69299,69375 M,0,0,,364,257 F,3,0,500,0.7,0 S,22,0,1000,0.2,0.4 T,HitSound,93607,93683 M,0,0,,483,261 F,3,0,500,0.7,0 S,22,0,1000,0.2,0.4 T,HitSound,97607,97683 M,0,0,,264,148 F,3,0,500,0.7,0 S,22,0,1000,0.2,0.4 T,HitSound,102376,102452 M,0,0,,480,116 F,3,0,500,0.7,0 S,22,0,1000,0.2,0.4 T,HitSound,105915,105991 M,0,0,,384,192 F,3,0,500,0.7,0 S,22,0,1000,0.2,0.4
Sprite,Foreground,Centre,"sb\r2b.png",320,240 F,0,0,,0 P,0,0,118722,A T,HitSound,30530,30606 M,0,0,,500,412 F,3,0,1000,0.7,0 S,22,0,1000,0.2,0.4 T,HitSound,34838,34914 M,0,0,,232,320 F,3,0,1000,0.7,0 S,22,0,1000,0.2,0.4 T,HitSound,38838,38914 M,0,0,,184,184 F,3,0,1000,0.7,0 S,22,0,1000,0.2,0.4 T,HitSound,42838,42914 M,0,0,,234,175 F,3,0,1000,0.7,0 S,22,0,1000,0.2,0.4 T,HitSound,46992,47068 M,0,0,,208,248 F,3,0,1000,0.7,0 S,22,0,1000,0.2,0.4 T,HitSound,60376,60452 M,0,0,,217,298 F,3,0,1000,0.7,0 S,22,0,1000,0.2,0.4 T,HitSound,69299,69375 M,0,0,,364,257 F,3,0,1000,0.7,0 S,22,0,1000,0.2,0.4 T,HitSound,93607,93683 M,0,0,,483,261 F,3,0,1000,0.7,0 S,22,0,1000,0.2,0.4 T,HitSound,97607,97683 M,0,0,,264,148 F,3,0,1000,0.7,0 S,22,0,1000,0.2,0.4 T,HitSound,102376,102452 M,0,0,,480,116 F,3,0,1000,0.7,0 S,22,0,1000,0.2,0.4 T,HitSound,105915,105991 M,0,0,,384,192 F,3,0,1000,0.7,0 S,22,0,1000,0.2,0.4
Sprite,Foreground,Centre,"sb\r2.png",320,240 F,0,0,,0 P,0,0,118722,A T,HitSound,30992,31068 M,0,0,,484.1697,297.4171 F,3,0,500,0.7,0 S,22,0,1000,0.2,0.4 T,HitSound,35453,35529 M,0,0,,344,128 F,3,0,500,0.7,0 S,22,0,1000,0.2,0.4 T,HitSound,39146,39222 M,0,0,,388,324 F,3,0,500,0.7,0 S,22,0,1000,0.2,0.4 T,HitSound,43299,43375 M,0,0,,182,256 F,3,0,500,0.7,0 S,22,0,1000,0.2,0.4 T,HitSound,47761,47837 M,0,0,,182,148 F,3,0,500,0.7,0 S,22,0,1000,0.2,0.4 T,HitSound,61607,61683 M,0,0,,419,234 F,3,0,500,0.7,0 S,22,0,1000,0.2,0.4 T,HitSound,89607,89683 M,0,0,,156,88 F,3,0,500,0.7,0 S,22,0,1000,0.2,0.4 T,HitSound,93915,93991 M,0,0,,544,396 F,3,0,500,0.7,0 S,22,0,1000,0.2,0.4 T,HitSound,97915,97991 M,0,0,,224,304 F,3,0,500,0.7,0 S,22,0,1000,0.2,0.4 T,HitSound,103146,103222 M,0,0,,236,388 F,3,0,500,0.7,0 S,22,0,1000,0.2,0.4 T,HitSound,106530,106606 M,0,0,,109,138 F,3,0,500,0.7,0 S,22,0,1000,0.2,0.4
Sprite,Foreground,Centre,"sb\r2b.png",320,240 F,0,0,,0 P,0,0,118722,A T,HitSound,30992,31068 M,0,0,,484.1697,297.4171 F,3,0,1000,0.7,0 S,22,0,1000,0.2,0.4 T,HitSound,35453,35529 M,0,0,,344,128 F,3,0,1000,0.7,0 S,22,0,1000,0.2,0.4 T,HitSound,39146,39222 M,0,0,,388,324 F,3,0,1000,0.7,0 S,22,0,1000,0.2,0.4 T,HitSound,43299,43375 M,0,0,,182,256 F,3,0,1000,0.7,0 S,22,0,1000,0.2,0.4 T,HitSound,47761,47837 M,0,0,,182,148 F,3,0,1000,0.7,0 S,22,0,1000,0.2,0.4 T,HitSound,61607,61683 M,0,0,,419,234 F,3,0,1000,0.7,0 S,22,0,1000,0.2,0.4 T,HitSound,89607,89683 M,0,0,,156,88 F,3,0,1000,0.7,0 S,22,0,1000,0.2,0.4 T,HitSound,93915,93991 M,0,0,,544,396 F,3,0,1000,0.7,0 S,22,0,1000,0.2,0.4 T,HitSound,97915,97991 M,0,0,,224,304 F,3,0,1000,0.7,0 S,22,0,1000,0.2,0.4 T,HitSound,103146,103222 M,0,0,,236,388 F,3,0,1000,0.7,0 S,22,0,1000,0.2,0.4 T,HitSound,106530,106606 M,0,0,,109,138 F,3,0,1000,0.7,0 S,22,0,1000,0.2,0.4
Sprite,Foreground,Centre,"sb\r2.png",320,240 F,0,0,,0 P,0,0,118722,A T,HitSound,31761,31837 M,0,0,,476,136 F,3,0,500,0.7,0 S,22,0,1000,0.2,0.4 T,HitSound,35915,35991 M,0,0,,432,68 F,3,0,500,0.7,0 S,22,0,1000,0.2,0.4 T,HitSound,39453,39529 M,0,0,,424,132 F,3,0,500,0.7,0 S,22,0,1000,0.2,0.4 T,HitSound,44069,44145 M,0,0,,424,64 F,3,0,500,0.7,0 S,22,0,1000,0.2,0.4 T,HitSound,48069,48145 M,0,0,,368,216 F,3,0,500,0.7,0 S,22,0,1000,0.2,0.4 T,HitSound,62838,62914 M,0,0,,308,107 F,3,0,500,0.7,0 S,22,0,1000,0.2,0.4 T,HitSound,90069,90145 M,0,0,,352,284 F,3,0,500,0.7,0 S,22,0,1000,0.2,0.4 T,HitSound,94530,94606 M,0,0,,316,188 F,3,0,500,0.7,0 S,22,0,1000,0.2,0.4 T,HitSound,98223,98299 M,0,0,,224,228 F,3,0,500,0.7,0 S,22,0,1000,0.2,0.4 T,HitSound,103453,103529 M,0,0,,88,328 F,3,0,500,0.7,0 S,22,0,1000,0.2,0.4 T,HitSound,106838,106914 M,0,0,,360,100 F,3,0,500,0.7,0 S,22,0,1000,0.2,0.4
Sprite,Foreground,Centre,"sb\r2b.png",320,240 F,0,0,,0 P,0,0,118722,A T,HitSound,31761,31837 M,0,0,,476,136 F,3,0,1000,0.7,0 S,22,0,1000,0.2,0.4 T,HitSound,35915,35991 M,0,0,,432,68 F,3,0,1000,0.7,0 S,22,0,1000,0.2,0.4 T,HitSound,39453,39529 M,0,0,,424,132 F,3,0,1000,0.7,0 S,22,0,1000,0.2,0.4 T,HitSound,44069,44145 M,0,0,,424,64 F,3,0,1000,0.7,0 S,22,0,1000,0.2,0.4 T,HitSound,48069,48145 M,0,0,,368,216 F,3,0,1000,0.7,0 S,22,0,1000,0.2,0.4 T,HitSound,62838,62914 M,0,0,,308,107 F,3,0,1000,0.7,0 S,22,0,1000,0.2,0.4 T,HitSound,90069,90145 M,0,0,,352,284 F,3,0,1000,0.7,0 S,22,0,1000,0.2,0.4 T,HitSound,94530,94606 M,0,0,,316,188 F,3,0,1000,0.7,0 S,22,0,1000,0.2,0.4 T,HitSound,98223,98299 M,0,0,,224,228 F,3,0,1000,0.7,0 S,22,0,1000,0.2,0.4 T,HitSound,103453,103529 M,0,0,,88,328 F,3,0,1000,0.7,0 S,22,0,1000,0.2,0.4 T,HitSound,106838,106914 M,0,0,,360,100 F,3,0,1000,0.7,0 S,22,0,1000,0.2,0.4
Sprite,Foreground,Centre,"sb\r2.png",320,240 F,0,0,,0 P,0,0,118722,A T,HitSound,32223,32299 M,0,0,,260.1285,192.0686 F,3,0,500,0.7,0 S,22,0,1000,0.2,0.4 T,HitSound,36684,36760 M,0,0,,548,280 F,3,0,500,0.7,0 S,22,0,1000,0.2,0.4 T,HitSound,39607,39683 M,0,0,,456,228 F,3,0,500,0.7,0 S,22,0,1000,0.2,0.4 T,HitSound,44376,44452 M,0,0,,309,215 F,3,0,500,0.7,0 S,22,0,1000,0.2,0.4 T,HitSound,48376,48452 M,0,0,,280,256 F,3,0,500,0.7,0 S,22,0,1000,0.2,0.4 T,HitSound,64069,64145 M,0,0,,142,308 F,3,0,500,0.7,0 S,22,0,1000,0.2,0.4 T,HitSound,90838,90914 M,0,0,,460,252 F,3,0,500,0.7,0 S,22,0,1000,0.2,0.4 T,HitSound,94992,95068 M,0,0,,138,264 F,3,0,500,0.7,0 S,22,0,1000,0.2,0.4 T,HitSound,99453,99529 M,0,0,,512,380 F,3,0,500,0.7,0 S,22,0,1000,0.2,0.4 T,HitSound,103761,103837 M,0,0,,176,80 F,3,0,500,0.7,0 S,22,0,1000,0.2,0.4 T,HitSound,107146,107222 M,0,0,,256,56 F,3,0,500,0.7,0 S,22,0,1000,0.2,0.4
Sprite,Foreground,Centre,"sb\r2b.png",320,240 F,0,0,,0 P,0,0,118722,A T,HitSound,32223,32299 M,0,0,,260.1285,192.0686 F,3,0,1000,0.7,0 S,22,0,1000,0.2,0.4 T,HitSound,36684,36760 M,0,0,,548,280 F,3,0,1000,0.7,0 S,22,0,1000,0.2,0.4 T,HitSound,39607,39683 M,0,0,,456,228 F,3,0,1000,0.7,0 S,22,0,1000,0.2,0.4 T,HitSound,44376,44452 M,0,0,,309,215 F,3,0,1000,0.7,0 S,22,0,1000,0.2,0.4 T,HitSound,48376,48452 M,0,0,,280,256 F,3,0,1000,0.7,0 S,22,0,1000,0.2,0.4 T,HitSound,64069,64145 M,0,0,,142,308 F,3,0,1000,0.7,0 S,22,0,1000,0.2,0.4 T,HitSound,90838,90914 M,0,0,,460,252 F,3,0,1000,0.7,0 S,22,0,1000,0.2,0.4 T,HitSound,94992,95068 M,0,0,,138,264 F,3,0,1000,0.7,0 S,22,0,1000,0.2,0.4 T,HitSound,99453,99529 M,0,0,,512,380 F,3,0,1000,0.7,0 S,22,0,1000,0.2,0.4 T,HitSound,103761,103837 M,0,0,,176,80 F,3,0,1000,0.7,0 S,22,0,1000,0.2,0.4 T,HitSound,107146,107222 M,0,0,,256,56 F,3,0,1000,0.7,0 S,22,0,1000,0.2,0.4
Sprite,Foreground,Centre,"sb\r2.png",320,240 F,0,0,,0 P,0,0,118722,A T,HitSound,40069,40145 M,0,0,,208,98 F,3,0,1500,1,0 S,22,0,2000,0.6,1.2 T,HitSound,49915,49991 M,0,0,,417,93 F,3,0,1500,1,0 S,22,0,2000,0.6,1.2 T,HitSound,99146,99222 M,0,0,,413,151 F,3,0,1500,1,0 S,22,0,2000,0.6,1.2 T,HitSound,108992,109068 M,0,0,,340,276 F,3,0,1500,1,0 S,22,0,2000,0.6,1.2
Sprite,Foreground,Centre,"sb\r2b.png",320,240 F,0,0,,0 P,0,0,118722,A T,HitSound,40069,40145 M,0,0,,208,98 F,3,0,2000,1,0 S,22,0,2000,0.6,1.2 T,HitSound,49915,49991 M,0,0,,417,93 F,3,0,2000,1,0 S,22,0,2000,0.6,1.2 T,HitSound,99146,99222 M,0,0,,413,151 F,3,0,2000,1,0 S,22,0,2000,0.6,1.2 T,HitSound,108992,109068 M,0,0,,340,276 F,3,0,2000,1,0 S,22,0,2000,0.6,1.2
//Storyboard Sound Samples

[TimingPoints]
570,307.692307692308,4,2,1,45,1,0
570,-133.333333333333,4,2,1,45,0,0
10416,-117.647058823529,4,2,1,45,0,0
20262,-100,4,2,1,45,0,0
29031,307.692307692308,4,1,1,45,1,0
30261,307.692307692308,4,1,1,45,1,0
49953,-133.333333333333,4,2,1,45,0,0
69645,-100,4,2,1,45,0,0
86876,-100,4,1,1,45,0,0
89337,-100,4,1,1,45,0,1
107799,-83.3333333333333,4,1,1,45,0,1
109030,-133.333333333333,4,2,1,45,0,0

[Colours]
Combo1 : 100,189,255
Combo2 : 255,132,132
Combo3 : 192,192,192
Combo4 : 255,182,147

[HitObjects]
96,216,570,6,0,P|128:176|192:164,1,105.000004005432
178,162,954,1,0,0:0:0:0:
178,162,1031,1,0,0:0:0:0:
136,312,1339,1,0,0:0:0:0:
136,312,1493,2,0,L|196:272,1,52.5000020027161
264,220,1800,6,0,P|312:252|364:248,1,105.000004005432
432,208,2185,2,0,L|432:252,1,26.2500010013581
368,328,2570,2,0,L|368:384,2,52.5000020027161
332,176,3031,6,0,P|320:124|336:64,1,105.000004005432
330,74,3416,1,0,0:0:0:0:
330,74,3493,1,0,0:0:0:0:
464,104,3646,2,0,L|400:128,1,52.5000020027161
332,176,3954,2,0,L|256:164,1,52.5000020027161
176,128,4262,6,0,L|176:240,1,105.000004005432
124,284,4646,2,0,L|100:256,1,26.2500010013581
44,208,4877,2,0,L|44:148,2,52.5000020027161
40,316,5339,1,0,0:0:0:0:
188,348,5493,6,0,P|212:296|196:232,1,105.000004005432
205,250,5877,1,0,0:0:0:0:
205,250,5954,1,0,0:0:0:0:
320,308,6262,1,0,0:0:0:0:
320,308,6416,2,0,L|391:309,1,52.5000020027161
460,276,6723,6,0,P|420:236|360:224,1,105.000004005432
292,232,7108,2,0,L|304:200,1,26.2500010013581
347,83,7493,2,0,L|368:28,2,52.5000020027161
264,128,7954,6,0,P|204:124|160:96,1,105.000004005432
166,101,8339,1,0,0:0:0:0:
166,101,8416,1,0,0:0:0:0:
176,204,8570,2,0,L|136:256,1,52.5000020027161
40,224,8877,2,0,L|80:180,1,52.5000020027161
224,128,9185,6,0,P|260:168|264:228,1,105.000004005432
240,296,9570,2,0,L|272:288,1,26.2500010013581
376,264,9800,2,0,L|428:284,2,52.5000020027161
340,152,10262,1,0,0:0:0:0:
176,204,10416,6,0,P|108:200|56:148,1,119.000002269745,2|0,0:0|0:0,0:0:0:0:
48,60,10877,2,0,L|40:200,1,119.000002269745,2|0,0:0|0:0,0:0:0:0:
72,320,11339,2,0,L|80:248,1,59.5000011348725
69,170,11646,5,0,0:0:0:0:
248,168,11954,1,0,0:0:0:0:
248,168,12031,1,0,0:0:0:0:
248,168,12108,1,0,0:0:0:0:
204,56,12416,1,0,0:0:0:0:
148,124,12570,1,0,0:0:0:0:
168,216,12723,1,0,0:0:0:0:
104,284,12877,6,0,P|176:308|232:284,1,119.000002269745,2|0,0:0|0:0,0:0:0:0:
296,204,13339,2,0,P|332:264|328:336,1,119.000002269745,2|0,0:0|0:0,0:0:0:0:
284,384,13800,1,0,0:0:0:0:
214,296,13954,1,0,0:0:0:0:
352,252,14108,6,0,L|428:256,1,59.5000011348725
496,304,14416,2,0,L|516:336,2,29.7500005674362
420,180,14723,2,0,P|412:144|416:108,1,59.5000011348725
488,36,15031,2,0,L|444:64,1,29.7500005674362,2|2,0:0|0:0,0:0:0:0:
336,128,15185,1,8,0:0:0:0:
336,128,15339,6,0,L|196:104,1,119.000002269745,2|0,0:0|0:0,0:0:0:0:
132,24,15800,2,0,P|141:87|113:149,1,119.000002269745,2|0,0:0|0:0,0:0:0:0:
20,232,16262,2,0,P|24:200|36:168,1,59.5000011348725
56,80,16570,5,0,0:0:0:0:
108,224,16877,1,0,0:0:0:0:
108,224,16954,1,0,0:0:0:0:
108,224,17031,1,0,0:0:0:0:
268,156,17339,1,0,0:0:0:0:
224,280,17493,2,0,L|224:216,1,59.5000011348725
292,72,17800,6,0,P|348:120|348:188,1,119.000002269745,2|0,0:0|0:0,0:0:0:0:
340,272,18262,2,0,L|376:184,1,89.2500017023087,2|0,0:0|0:0,0:0:0:0:
428,56,18570,1,8,0:0:0:0:
292,72,18723,2,0,P|248:80|184:56,1,89.2500017023087,2|0,0:0|0:0,0:0:0:0:
88,8,19031,6,0,P|108:48|112:112,1,89.2500017023087,2|0,0:0|0:0,0:0:0:0:
108,132,19339,1,2,0:0:0:0:
8,240,19493,2,0,L|112:252,1,89.2500017023087,2|0,0:0|0:0,0:0:0:0:
264,264,19800,1,8,0:0:0:0:
216,136,19954,1,2,0:0:0:0:
216,156,20030,1,2,0:0:0:0:
216,176,20107,1,2,0:0:0:0:
340,368,20262,6,0,B|348:332|348:332|344:280,1,70,12|0,0:0|0:0,0:0:0:0:
56,140,29031,38,0,P|92:136|128:108,1,70
172,16,29338,1,0,0:0:0:0:
220,192,29492,2,0,L|232:244,2,35
244,108,29800,1,0,0:0:0:0:
132,284,29954,1,0,3:0:0:0:
154,310,30030,1,0,3:0:0:0:
184,328,30107,1,0,3:0:0:0:
218,335,30184,1,0,3:0:0:0:
253,332,30261,6,0,P|292:320|336:324,1,70,2|2,3:1|3:1,3:0:0:0:
436,356,30568,1,8,0:0:0:0:
468,192,30722,1,0,0:0:0:0:
468,192,30799,1,0,0:0:0:0:
468,192,30876,2,0,B|444:235|413:244,1,70,2|8,0:0|0:0,0:0:0:0:
268,252,31184,2,0,L|212:248,2,35,0|0|2,0:0|0:0|0:0,0:0:0:0:
420,242,31491,5,4,0:0:0:0:
280,156,31645,1,2,0:0:0:0:
412,80,31799,2,0,L|332:92,1,70,8|0,0:0|0:0,0:0:0:0:
236,80,32030,1,0,0:0:0:0:
236,80,32107,2,0,P|210:107|194:144,1,70,2|8,0:0|0:0,0:0:0:0:
208,288,32414,2,0,P|220:252|220:208,1,70,0|2,0:0|0:0,0:0:0:0:
86,97,32722,5,4,0:0:0:0:
38,177,32876,1,2,0:0:0:0:
138,173,33030,2,0,P|168:128|168:56,1,105,8|0,0:0|0:0,0:0:0:0:
132,16,33337,1,2,0:0:0:0:
264,108,33491,2,0,P|324:120|384:108,1,105,8|0,0:0|0:0,0:0:0:0:
440,64,33799,1,2,0:0:0:0:
440,64,33953,6,0,L|440:148,1,70,4|2,0:0|0:0,0:0:0:0:
436,292,34261,1,8,0:0:0:0:
332,188,34414,1,2,0:0:0:0:
318,176,34490,1,2,0:0:0:0:
305,165,34568,1,8,0:0:0:0:
168,264,34722,2,0,L|124:260,2,35,2|2|8,0:0|0:0|0:0,0:0:0:0:
320,284,35030,1,2,0:0:0:0:
320,284,35184,5,4,0:0:0:0:
176,160,35337,1,2,0:0:0:0:
280,72,35491,2,0,P|329:76|392:133,1,105,8|0,0:0|0:0,0:0:0:0:
404,188,35799,1,2,0:0:0:0:
368,12,35953,1,8,0:0:0:0:
305,165,36107,2,0,L|304:212,2,35,0|0|2,0:0|0:0|0:0,0:0:0:0:
236,268,36414,6,0,P|276:288|305:291,1,70,4|2,0:0|0:0,0:0:0:0:
484,224,36722,1,8,0:0:0:0:
440,316,36876,1,0,0:0:0:0:
440,337,36952,1,0,0:0:0:0:
440,358,37029,1,2,0:0:0:0:
408,188,37184,1,8,0:0:0:0:
304,199,37337,2,0,L|228:160,1,70,0|2,0:0|0:0,0:0:0:0:
168,40,37645,6,0,B|204:68|204:68|238:78,1,70,4|2,0:0|0:0,0:0:0:0:
376,16,37953,1,8,0:0:0:0:
241,167,38107,1,2,0:0:0:0:
241,167,38183,1,2,0:0:0:0:
241,167,38261,2,0,L|176:240,1,70,8|2,0:0|0:0,0:0:0:0:
96,352,38568,1,8,0:0:0:0:
212,320,38722,1,2,0:0:0:0:
120,128,38876,5,8,0:0:0:0:
116,240,39030,1,2,0:0:0:0:
324,268,39184,1,8,0:0:0:0:
241,167,39338,1,2,0:0:0:0:
360,76,39491,6,0,L|392:60,1,35,2|0,0:0|0:0,0:0:0:0:
392,172,39645,2,0,L|358:188,1,35,8|0,0:0|0:0,0:0:0:0:
208,155,39799,1,4,3:0:0:0:
179,136,39876,1,0,3:0:0:0:
157,110,39953,1,4,3:0:0:0:
144,76,40030,1,0,3:0:0:0:
144,42,40107,6,0,L|88:95,1,70,6|2,3:1|3:0,3:0:0:0:
24,216,40414,1,8,0:0:0:0:
108,284,40568,1,0,0:0:0:0:
108,284,40645,1,0,0:0:0:0:
108,284,40722,2,0,B|123:239|123:239|124:200,1,70,2|8,0:0|0:0,0:0:0:0:
208,324,41030,2,0,L|220:364,2,35,0|0|2,0:0|0:0|0:0,0:0:0:0:
212,200,41337,5,4,0:0:0:0:
288,264,41491,1,2,0:0:0:0:
440,179,41645,2,0,P|460:224|448:296,1,105,8|0,0:0|0:0,0:0:0:0:
416,348,41953,1,2,0:0:0:0:
348,184,42107,2,0,L|372:112,2,70,8|0|2,0:0|0:0|0:0,0:0:0:0:
212,200,42568,5,4,0:0:0:0:
118,200,42722,1,2,0:0:0:0:
170,119,42876,2,0,P|227:112|281:145,1,105,8|0,0:0|0:0,0:0:0:0:
288,240,43184,1,2,0:0:0:0:
118,200,43337,2,0,P|76:152|72:88,1,105,8|0,0:0|0:0,0:0:0:0:
96,28,43645,1,2,0:0:0:0:
96,28,43799,6,0,B|136:44|136:44|172:44,1,70,4|2,0:0|0:0,0:0:0:0:
360,8,44107,1,8,0:0:0:0:
268,132,44261,1,2,0:0:0:0:
256,145,44337,1,2,0:0:0:0:
245,159,44414,1,8,0:0:0:0:
384,280,44568,2,0,L|400:324,2,35,2|2|8,0:0|0:0|0:0,0:0:0:0:
348,156,44876,1,2,0:0:0:0:
348,156,45030,5,4,0:0:0:0:
436,88,45184,1,2,0:0:0:0:
420,228,45337,2,0,P|367:253|311:249,1,105,8|0,0:0|0:0,0:0:0:0:
245,159,45645,1,2,0:0:0:0:
216,292,45799,2,0,L|216:344,2,35,8|0|0,0:0|0:0|0:0,0:0:0:0:
144,192,46107,1,2,0:0:0:0:
128,215,46183,1,0,0:0:0:0:
113,239,46261,6,0,L|34:247,1,70,4|2,0:0|0:0,0:0:0:0:
184,116,46568,2,0,P|220:156|220:224,1,105,8|0,0:0|0:0,0:0:0:0:
216,292,46876,1,2,0:0:0:0:
144,192,47030,1,8,0:0:0:0:
304,160,47184,1,0,0:0:0:0:
248,56,47337,1,2,0:0:0:0:
356,20,47491,6,0,L|272:44,1,70,4|2,0:0|0:0,0:0:0:0:
118,92,47799,2,0,L|195:120,1,70,8|2,0:0|0:0,0:0:0:0:
304,160,48030,1,2,0:0:0:0:
304,160,48107,1,8,0:0:0:0:
332,60,48261,1,2,0:0:0:0:
216,200,48414,1,8,0:0:0:0:
356,240,48568,1,2,0:0:0:0:
256,88,48722,5,12,0:0:0:0:
244,284,48876,1,2,0:0:0:0:
432,264,49030,1,8,0:0:0:0:
460,144,49184,1,2,0:0:0:0:
428,132,49260,1,2,0:0:0:0:
400,132,49337,6,0,L|372:164,1,35,8|0,0:0|0:0,0:0:0:0:
432,264,49491,2,0,L|468:224,1,35,2|0,0:0|0:0,0:0:0:0:
484,68,49645,1,4,3:0:0:0:
455,47,49722,1,0,3:0:0:0:
422,35,49798,1,4,3:0:0:0:
388,32,49875,1,0,3:0:0:0:
353,37,49953,6,0,P|308:64|240:56,1,105.000004005432,2|0,3:1|3:0,3:0:0:0:
164,16,50414,2,0,P|180:76|164:132,1,105.000004005432
100,172,50876,2,0,P|80:120|96:64,1,105.000004005432
184,200,51337,2,0,P|150:242|95:261,1,105.000004005432
32,224,51799,1,0,0:0:0:0:
216,296,52107,1,0,0:0:0:0:
215,295,52414,6,0,P|267:296|312:270,1,105.000004005432
392,308,52876,2,0,P|400:256|384:206,1,105.000004005432
456,168,53337,2,0,P|415:134|364:126,1,105.000004005432
272,160,53799,2,0,L|277:55,1,105.000004005432
352,8,54260,1,0,0:0:0:0:
156,64,54568,1,0,0:0:0:0:
272,160,54876,6,0,P|227:187|159:179,1,105.000004005432
112,128,55337,2,0,P|128:188|112:244,1,105.000004005432
40,292,55799,2,0,L|152:312,1,105.000004005432
236,352,56260,2,0,P|220:312|228:240,1,105.000004005432
272,192,56722,1,0,0:0:0:0:
408,280,57030,1,0,0:0:0:0:
408,280,57337,6,0,L|406:208,1,52.5000020027161
409,131,57645,2,0,P|419:104|444:74,2,52.5000020027161
494,148,58107,1,0,0:0:0:0:
360,59,58261,2,0,L|287:61,1,52.5000020027161
188,116,58568,2,0,L|261:118,1,52.5000020027161
360,173,58876,2,0,L|287:175,1,52.5000020027161
174,217,59184,1,0,0:0:0:0:
94,169,59337,1,0,0:0:0:0:
87,76,59491,1,0,0:0:0:0:
158,18,59645,1,0,0:0:0:0:
94,169,59799,6,0,L|62:218,1,52.5000020027161,2|0,0:0|0:0,0:0:0:0:
36,299,60107,2,0,L|21:321,2,26.2500010013581
153,242,60414,2,0,P|197:269|238:267,1,78.7500030040742,8|0,0:0|0:0,0:0:0:0:
300,258,60722,1,2,0:0:0:0:
219,187,60876,1,0,0:0:0:0:
249,351,61030,6,0,L|318:352,1,52.5000020027161,2|0,0:0|0:0,0:0:0:0:
417,350,61337,2,0,L|376:302,1,52.5000020027161
355,178,61645,1,8,0:0:0:0:
392,103,61799,1,0,0:0:0:0:
491,92,61953,1,0,0:0:0:0:
454,167,62107,1,0,0:0:0:0:
311,108,62261,6,0,P|314:78|338:38,1,52.5000020027161,2|0,0:0|0:0,0:0:0:0:
399,12,62568,1,0,0:0:0:0:
399,12,62645,1,0,0:0:0:0:
399,12,62722,1,0,0:0:0:0:
244,51,62876,2,0,P|203:56|160:49,1,78.7500030040742,8|0,0:0|0:0,0:0:0:0:
93,20,63184,1,2,0:0:0:0:
18,75,63337,1,0,0:0:0:0:
94,240,63491,6,0,P|114:218|124:183,1,52.5000020027161,2|0,0:0|0:0,0:0:0:0:
99,108,63799,1,0,0:0:0:0:
34,174,63953,1,0,0:0:0:0:
78,252,64107,2,0,L|141:294,1,52.5000020027161,8|0,0:0|0:0,0:0:0:0:
244,310,64414,2,0,L|181:273,1,52.5000020027161
131,187,64722,5,2,0:0:0:0:
99,108,64876,1,0,0:0:0:0:
164,42,65030,2,0,L|166:15,2,26.2500010013581
257,158,65337,2,0,P|307:157|348:131,1,78.7500030040742,8|0,0:0|0:0,0:0:0:0:
383,79,65645,1,2,0:0:0:0:
279,70,65799,1,0,0:0:0:0:
311,235,65953,6,0,L|373:260,1,52.5000020027161,2|0,0:0|0:0,0:0:0:0:
467,295,66261,2,0,L|403:335,1,52.5000020027161
313,366,66568,1,8,0:0:0:0:
234,318,66722,1,0,0:0:0:0:
155,366,66876,1,0,0:0:0:0:
76,318,67030,1,0,0:0:0:0:
159,206,67184,6,0,L|158:275,1,52.5000020027161,2|0,0:0|0:0,0:0:0:0:
68,168,67491,1,0,0:0:0:0:
80,145,67567,1,0,0:0:0:0:
99,126,67644,1,0,0:0:0:0:
122,113,67721,1,0,0:0:0:0:
147,106,67799,2,0,L|211:122,1,52.5000020027161,8|0,0:0|0:0,0:0:0:0:
300,201,68107,1,2,0:0:0:0:
300,201,68261,1,0,0:0:0:0:
323,87,68414,5,2,0:0:0:0:
323,87,68568,1,0,0:0:0:0:
429,170,68722,2,0,L|449:130,1,26.2500010013581
414,53,68876,2,0,L|395:92,1,26.2500010013581
411,275,69030,2,0,L|481:272,1,52.5000020027161,8|0,0:0|0:0,0:0:0:0:
300,201,69337,2,0,L|238:201,1,52.5000020027161,8|2,0:0|0:0,0:0:0:0:
117,264,69645,6,0,B|160:282|179:301|179:301|254:284|254:284|288:293|335:289,1,210,6|0,0:0|0:0,0:0:0:0:
314,290,70261,2,0,P|377:238|371:179,1,140
320,66,70722,1,0,0:0:0:0:
320,66,70876,2,0,P|234:99|261:20,1,210
250,23,71491,2,0,P|189:57|105:59,1,140
25,13,71953,1,0,0:0:0:0:
120,61,72107,6,0,B|128:117|128:117|106:142|106:142|124:240|24:256,1,210
63,244,72722,2,0,B|136:223|128:278|228:239,1,140
278,156,73184,1,0,0:0:0:0:
278,156,73337,2,0,B|316:177|329:205|326:239|310:271|310:271|328:310|328:310|299:358,1,210
311,337,73953,2,0,P|369:284|458:291,1,140
407,382,74414,1,0,0:0:0:0:
427,279,74568,6,0,B|450:219|416:166|416:166|444:116|440:67,1,210
440,78,75184,2,0,P|362:90|286:64,1,140
191,22,75645,1,0,0:0:0:0:
191,22,75799,2,0,P|123:72|206:113,1,210
205,114,76414,2,0,B|176:193|228:193|193:265,1,140
110,325,76876,1,0,0:0:0:0:
199,251,77030,6,0,B|237:231|277:250|277:250|330:223|330:223|374:230|415:214,1,210
398,219,77645,2,0,P|448:156|443:99,1,140
329,20,78107,1,0,0:0:0:0:
358,134,78261,2,0,B|378:188|378:188|337:176|291:174|291:174|263:188|263:188|238:183|210:183,1,210
230,183,78876,1,0,0:0:0:0:
141,64,79030,1,0,0:0:0:0:
121,95,79184,1,0,0:0:0:0:
102,126,79337,1,0,0:0:0:0:
57,212,79491,6,0,B|44:260|68:296|120:308|152:292|152:292|188:300|188:300|216:288,1,210
300,256,80107,1,0,0:0:0:0:
352,336,80261,1,0,0:0:0:0:
372,164,80414,1,0,0:0:0:0:
424,248,80568,1,0,0:0:0:0:
424,248,80722,6,0,P|464:140|388:68,1,210
320,92,81337,1,0,0:0:0:0:
372,164,81491,1,0,0:0:0:0:
356,12,81645,1,0,0:0:0:0:
264,24,81799,1,0,0:0:0:0:
264,24,81953,6,0,B|236:40|224:60|224:60|172:64|172:64|151:85|128:100,1,140
44,76,82414,1,0,0:0:0:0:
4,160,82568,2,0,P|16:200|40:232,1,70
108,260,82876,1,0,0:0:0:0:
96,156,83030,6,0,P|172:176|212:240,1,140
196,312,83491,1,0,0:0:0:0:
108,260,83645,1,0,0:0:0:0:
192,88,83799,1,0,0:0:0:0:
280,112,83953,1,0,0:0:0:0:
316,192,84107,2,0,L|344:268,1,70
412,368,84414,6,0,P|408:336|412:298,1,70
476,236,84722,1,0,0:0:0:0:
496,332,84876,1,0,0:0:0:0:
320,332,85030,2,0,L|236:332,2,70
411,298,85491,6,0,P|428:228|404:156,1,140
316,136,85953,2,0,P|312:174|324:208,1,70
440,88,86261,2,0,L|508:48,2,70
356,60,86722,1,0,0:0:0:0:
332,252,86876,6,0,B|272:248|272:248|216:208,1,105,10|0,3:1|3:1,3:1:0:0:
184,112,87184,1,8,3:3:0:0:
16,260,87414,1,8,3:3:0:0:
16,260,87491,1,2,3:1:0:0:
136,340,87645,2,0,B|164:288|164:288|164:232,1,105,8|2,3:3|3:3,3:1:0:0:
120,168,87953,1,0,3:1:0:0:
288,200,88107,22,0,L|412:208,1,105,8|4,3:3|3:1,3:1:0:0:
492,104,88414,2,0,L|400:96,1,70,8|4,3:3|3:1,3:1:0:0:
252,116,88645,2,0,L|321:122,1,70,2|4,3:3|3:1,3:1:0:0:
400,8,88876,2,0,L|360:4,1,35,2|2,3:1|3:1,3:1:0:0:
184,40,89030,1,10,3:1:0:0:
158,70,89106,1,10,3:1:0:0:
147,109,89183,1,10,3:1:0:0:
154,148,89260,1,10,3:1:0:0:
176,181,89337,5,6,3:1:0:0:
252,116,89491,1,2,0:0:0:0:
92,32,89645,2,0,P|64:80|60:140,1,105,8|0,0:0|0:0,0:0:0:0:
88,224,89953,1,2,0:0:0:0:
288,228,90107,1,8,0:0:0:0:
176,181,90261,1,0,0:0:0:0:
208,360,90414,6,0,P|216:304|200:248,1,105,2|0,0:0|0:0,0:0:0:0:
204,257,90722,1,2,0:0:0:0:
396,196,90876,1,8,0:0:0:0:
324,72,91030,1,0,0:0:0:0:
324,99,91106,1,0,0:0:0:0:
324,127,91183,1,2,0:0:0:0:
372,304,91337,1,8,0:0:0:0:
396,196,91491,1,4,0:0:0:0:
220,156,91645,6,0,P|220:96|252:48,1,105,2|0,0:0|0:0,0:0:0:0:
324,44,91953,1,2,0:0:0:0:
288,228,92107,1,8,0:0:0:0:
176,272,92261,1,0,0:0:0:0:
142,263,92337,1,0,0:0:0:0:
107,253,92414,2,0,L|39:236,1,70,2|8,0:0|0:0,0:0:0:0:
40,237,92645,1,0,0:0:0:0:
40,237,92722,1,0,0:0:0:0:
176,364,92876,6,0,P|220:356|260:312,1,105,2|0,0:0|0:0,0:0:0:0:
288,228,93184,2,0,L|320:264,1,35,2|0,0:0|0:0,0:0:0:0:
400,344,93337,1,8,3:1:0:0:
404,309,93413,1,0,3:0:0:0:
409,274,93490,1,2,3:1:0:0:
414,239,93567,1,0,3:0:0:0:
419,205,93645,2,0,L|416:156,2,35,8|0|2,3:1|0:0|0:0,0:0:0:0:
480,340,93953,1,8,0:0:0:0:
340,148,94107,6,0,B|328:104|340:64|340:64|376:80,1,105,2|0,0:0|0:0,0:0:0:0:
452,100,94414,1,2,0:0:0:0:
252,132,94568,2,0,L|216:116,2,35,8|0|0,0:0|0:0|0:0,0:0:0:0:
144,208,94876,2,0,L|64:208,1,70,2|8,0:0|0:0,0:0:0:0:
24,128,95184,1,0,0:0:0:0:
236,224,95337,6,0,P|216:272|156:304,1,105,2|0,0:0|0:0,0:0:0:0:
173,300,95645,1,2,0:0:0:0:
356,216,95799,1,8,0:0:0:0:
428,296,95953,1,0,0:0:0:0:
428,322,96029,1,0,0:0:0:0:
428,348,96106,1,2,0:0:0:0:
436,144,96261,1,8,0:0:0:0:
500,224,96414,1,4,0:0:0:0:
344,304,96568,6,0,L|220:304,1,105,2|0,0:0|0:0,0:0:0:0:
144,304,96876,1,2,0:0:0:0:
256,180,97030,1,8,0:0:0:0:
278,153,97106,1,0,0:0:0:0:
301,126,97184,2,0,L|308:80,2,35,2|2|8,0:0|0:0|0:0,0:0:0:0:
280,264,97491,1,2,0:0:0:0:
200,92,97645,1,8,0:0:0:0:
360,204,97799,1,2,0:0:0:0:
160,248,97953,6,0,L|108:248,1,35,8|0,0:0|0:0,0:0:0:0:
0,200,98107,2,0,L|52:200,1,35,2|0,0:0|0:0,0:0:0:0:
160,172,98261,2,0,L|160:208,1,35,8|0,0:0|0:0,0:0:0:0:
0,276,98414,2,0,L|0:240,1,35,2|0,0:0|0:0,0:0:0:0:
88,92,98568,5,8,3:0:0:0:
119,76,98644,1,8,3:0:0:0:
153,69,98721,1,2,3:0:0:0:
187,73,98798,1,2,3:0:0:0:
219,89,98875,1,4,3:0:0:0:
249,106,98952,1,0,3:0:0:0:
283,114,99029,1,4,3:0:0:0:
317,109,99106,1,0,3:0:0:0:
349,95,99184,6,0,L|364:180,1,70,2|2,0:0|0:3,0:0:0:0:
448,324,99491,2,0,P|456:268|428:204,1,105,8|0,0:0|0:0,0:0:0:0:
361,163,99799,1,2,0:0:0:0:
248,292,99953,1,8,0:0:0:0:
328,352,100107,1,0,0:0:0:0:
284,168,100261,6,0,P|231:159|176:179,1,105,2|0,0:0|0:0,0:0:0:0:
152,288,100568,2,0,L|152:244,1,35,2|0,0:0|0:0,0:0:0:0:
100,136,100722,2,0,L|100:180,1,35,8|0,0:0|0:0,0:0:0:0:
4,240,100876,2,0,L|4:180,1,35
4,96,101030,1,2,0:0:0:0:
196,12,101184,1,8,0:0:0:0:
96,0,101337,1,4,0:0:0:0:
196,96,101491,6,0,P|248:80|276:36,1,105,2|0,0:0|0:0,0:0:0:0:
274,39,101799,1,2,0:0:0:0:
272,180,101953,2,0,L|356:176,1,70,8|0,0:0|0:0,0:0:0:0:
468,172,102261,1,2,0:0:0:0:
416,60,102414,1,8,0:0:0:0:
416,83,102490,1,0,0:0:0:0:
416,107,102567,1,0,0:0:0:0:
304,264,102722,6,0,P|248:268|192:228,1,105,2|0,0:0|0:0,0:0:0:0:
136,176,103030,2,0,L|148:232,1,35,2|0,0:0|0:0,0:0:0:0:
172,332,103184,1,8,0:0:0:0:
24,272,103337,1,2,0:0:0:0:
24,272,103414,1,0,0:0:0:0:
24,272,103491,2,0,L|48:200,1,70,8|2,0:0|0:0,0:0:0:0:
112,24,103799,2,0,P|120:60|112:104,1,70,8|2,0:0|0:0,0:0:0:0:
115,92,104107,5,4,0:0:0:0:
145,110,104183,1,0,0:0:0:0:
179,119,104260,1,2,0:0:0:0:
214,118,104337,1,0,0:0:0:0:
248,100,104414,1,8,0:0:0:0:
270,73,104490,1,0,0:0:0:0:
302,59,104567,1,0,0:0:0:0:
336,60,104644,1,0,0:0:0:0:
367,75,104722,2,0,P|356:112|332:144,1,70,2|8,0:0|0:0,0:0:0:0:
148,224,105030,6,0,P|182:207|221:202,1,70,2|8,0:0|0:0,0:0:0:0:
328,316,105337,2,0,L|332:375,2,35,2|2|8,0:0|0:0|0:0,0:0:0:0:
404,176,105645,2,0,P|416:216|408:272,1,70,2|2,0:0|0:0,0:0:0:0:
320,136,105876,1,2,0:0:0:0:
320,136,105953,2,0,L|320:56,1,70,8|0,0:0|0:0,0:0:0:0:
168,132,106261,1,2,3:1:0:0:
133,133,106337,1,2,3:1:0:0:
99,125,106414,1,4,3:1:0:0:
68,107,106491,1,4,3:1:0:0:
45,82,106568,6,0,L|120:61,1,70,12|2,0:0|0:0,0:0:0:0:
296,44,106876,1,8,0:0:0:0:
256,188,107030,1,2,0:0:0:0:
192,0,107184,1,8,0:0:0:0:
388,80,107337,1,2,0:0:0:0:
407,87,107414,1,2,0:0:0:0:
427,95,107491,2,0,B|424:136|424:136|408:168,1,70,8|2,0:0|0:0,0:0:0:0:
276,348,107799,6,0,L|300:296,1,41.9999987182618,8|0,0:0|0:0,0:0:0:0:
428,244,107953,2,0,L|400:308,1,41.9999987182618,2|0,0:0|0:0,0:0:0:0:
268,288,108107,2,0,L|296:232,1,41.9999987182618,8|0,0:0|0:0,0:0:0:0:
428,308,108261,2,0,L|408:360,1,41.9999987182618,2|0,0:0|0:0,0:0:0:0:
192,300,108414,5,4,3:0:0:0:
154,283,108490,1,0,3:0:0:0:
131,249,108567,1,4,3:0:0:0:
130,207,108644,1,0,3:0:0:0:
151,171,108722,1,4,3:0:0:0:
187,152,108798,1,0,3:0:0:0:
229,156,108875,1,4,3:0:0:0:
262,181,108952,1,0,3:0:0:0:
276,220,109030,6,0,P|224:192|192:84,1,157.500006008148,8|0,3:0|0:0,0:0:0:0:
280,0,109799,1,0,0:0:0:0:
204,28,109953,2,0,P|180:32|152:28,1,52.5000020027161
60,0,110261,5,0,0:0:0:0:
60,0,110568,1,0,0:0:0:0:
80,128,110876,2,0,L|128:164,1,52.5000020027161
204,212,111184,2,0,L|148:252,1,52.5000020027161
72,320,111491,6,0,P|144:352|184:348,1,105.000004005432
168,351,111953,1,0,0:0:0:0:
328,312,112261,1,0,0:0:0:0:
328,312,112414,2,0,L|384:304,1,52.5000020027161
440,208,112722,6,0,B|424:124|368:164|356:76,1,157.500006008148
356,81,113491,1,0,0:0:0:0:
356,220,113645,2,0,P|324:220|288:212,1,52.5000020027161
208,168,113953,5,0,0:0:0:0:
208,168,114261,1,0,0:0:0:0:
248,56,114568,2,0,L|248:-4,2,52.5000020027161
300,140,115030,1,0,0:0:0:0:
140,96,115491,5,0,0:0:0:0:
72,192,115799,2,0,L|72:256,1,52.5000020027161
156,340,116107,2,0,L|156:288,1,52.5000020027161
184,176,116414,6,0,P|232:212|276:220,1,105.000004005432
275,219,116876,1,0,0:0:0:0:
392,104,117184,1,0,0:0:0:0:
392,104,117337,2,0,L|396:172,1,52.5000020027161
404,300,117645,6,0,L|376:244,1,52.5000020027161
460,208,117953,2,0,L|488:156,1,52.5000020027161
480,76,118261,1,0,0:0:0:0:
424,16,118414,1,0,0:0:0:0:
304,84,118568,1,0,0:0:0:0:
176,20,118722,1,0,0:0:0:0:
