osu file format v14

[General]
AudioFilename: audio.mp3
AudioLeadIn: 0
PreviewTime: 89054
Countdown: 1
SampleSet: Normal
StackLeniency: 0.7
Mode: 1
LetterboxInBreaks: 0
WidescreenStoryboard: 0

[Editor]
DistanceSpacing: 0.9
BeatDivisor: 4
GridSize: 32
TimelineZoom: 2.5

[Metadata]
Title:Flashback
TitleUnicode:Flashback
Artist:ARForest
ArtistUnicode:ARForest
Creator:GOLAITHCHAN
Version:Inner Oni
Source:Arcaea
Tags:ARForest, Arcaea
BeatmapID:1314108
BeatmapSetID:623474

[Difficulty]
HPDrainRate:5
CircleSize:2
OverallDifficulty:6.5
ApproachRate:10
SliderMultiplier:1.4
SliderTickRate:1

[Events]
//Background and Video events
0,0,"space-hd-wallpaper5.jpg",0,0
//Break Periods
2,22484,27858
//Storyboard Layer 0 (Background)
//Storyboard Layer 1 (Fail)
//Storyboard Layer 2 (Pass)
//Storyboard Layer 3 (Foreground)
//Storyboard Sound Samples

[TimingPoints]
439,307.692307692308,4,1,0,70,1,0
10439,-100,4,1,0,80,0,0
29054,307.692307692308,4,1,0,70,1,0
50130,-100,4,1,0,75,0,0
59823,-100,4,1,0,85,0,0
62277,-100,4,1,0,90,0,0
64746,-100,4,1,0,95,0,0
69823,-133.333333333333,4,1,0,70,0,0
79361,-133.333333333333,4,1,0,75,0,0
86900,-100,4,1,0,100,0,0
87054,-100,4,1,0,75,0,0
87515,-100,4,1,0,80,0,0
87977,-100,4,1,0,85,0,0
88438,-100,4,1,0,90,0,0
88900,-100,4,1,0,95,0,0
89361,-100,4,1,0,100,0,1
109054,-111.111111111111,4,1,0,100,0,0
109207,-125,4,1,0,80,0,0
114284,-125,4,1,0,90,0,0
118746,-100,4,1,0,90,0,0
118900,-100,4,1,0,100,0,0

[HitObjects]
256,224,592,5,0,0:0:0:0:
256,224,899,1,0,0:0:0:0:
256,192,976,1,0,0:0:0:0:
256,224,1053,1,8,0:0:0:0:
256,224,1361,1,0,0:0:0:0:
256,224,1515,1,8,0:0:0:0:
256,224,1822,1,0,0:0:0:0:
256,224,2130,1,0,0:0:0:0:
256,224,2207,1,0,0:0:0:0:
256,224,2284,1,8,0:0:0:0:
256,224,2592,1,8,0:0:0:0:
288,192,2745,1,0,0:0:0:0:
288,192,2899,1,8,0:0:0:0:
288,192,3053,1,0,0:0:0:0:
224,96,3361,1,0,0:0:0:0:
256,224,3438,1,0,0:0:0:0:
256,224,3515,1,8,0:0:0:0:
256,224,3669,1,8,0:0:0:0:
224,160,3822,1,0,0:0:0:0:
256,224,3976,1,0,0:0:0:0:
224,224,4130,1,8,0:0:0:0:
224,192,4284,1,0,0:0:0:0:
256,224,4592,1,0,0:0:0:0:
256,224,4669,1,8,0:0:0:0:
256,224,4745,1,8,0:0:0:0:
256,224,4899,1,0,0:0:0:0:
224,160,5053,1,8,0:0:0:0:
256,224,5207,1,0,0:0:0:0:
256,192,5284,1,0,0:0:0:0:
256,192,5361,1,8,0:0:0:0:
256,192,5438,1,8,0:0:0:0:
256,224,5515,1,0,0:0:0:0:
256,224,5822,1,8,0:0:0:0:
256,224,5899,1,0,0:0:0:0:
256,224,5976,1,8,0:0:0:0:
224,192,6130,1,8,0:0:0:0:
256,224,6284,1,0,0:0:0:0:
224,192,6361,1,0,0:0:0:0:
192,160,6438,1,8,0:0:0:0:
256,224,6592,1,8,0:0:0:0:
256,192,6745,1,0,0:0:0:0:
256,224,7053,1,0,0:0:0:0:
256,224,7130,1,8,0:0:0:0:
256,224,7207,1,8,0:0:0:0:
224,160,7361,1,0,0:0:0:0:
256,224,7515,1,8,0:0:0:0:
256,224,7669,1,8,0:0:0:0:
256,224,7745,1,0,0:0:0:0:
256,192,7822,1,8,0:0:0:0:
256,192,7899,1,0,0:0:0:0:
256,192,7976,1,0,0:0:0:0:
256,224,8284,1,0,0:0:0:0:
256,224,8361,1,0,0:0:0:0:
256,224,8438,1,8,0:0:0:0:
224,192,8515,1,0,0:0:0:0:
224,160,8592,1,8,0:0:0:0:
256,224,8745,1,0,0:0:0:0:
224,192,8899,1,0,0:0:0:0:
256,224,9053,1,8,0:0:0:0:
256,128,9130,1,8,0:0:0:0:
256,192,9207,1,0,0:0:0:0:
192,160,9361,1,8,0:0:0:0:
256,224,9515,1,0,0:0:0:0:
256,224,9592,1,0,0:0:0:0:
256,224,9669,1,8,0:0:0:0:
192,192,9822,1,0,0:0:0:0:
256,224,9976,1,8,0:0:0:0:
256,224,10130,1,8,0:0:0:0:
256,192,10207,1,0,0:0:0:0:
256,224,10284,1,8,0:0:0:0:
256,192,10438,1,12,0:0:0:0:
192,192,10592,1,0,0:0:0:0:
256,192,10669,1,0,0:0:0:0:
224,192,10745,1,8,0:0:0:0:
192,96,10899,1,12,0:0:0:0:
160,64,11053,1,0,0:0:0:0:
128,64,11130,1,0,0:0:0:0:
128,32,11207,1,8,0:0:0:0:
160,32,11284,1,0,0:0:0:0:
128,32,11361,1,8,0:0:0:0:
192,0,11515,1,8,0:0:0:0:
256,192,11669,1,0,0:0:0:0:
256,128,11822,1,0,0:0:0:0:
256,64,11976,1,0,0:0:0:0:
256,64,12130,1,8,0:0:0:0:
256,64,12207,1,8,0:0:0:0:
256,64,12284,1,0,0:0:0:0:
256,64,12361,1,0,0:0:0:0:
256,64,12438,1,8,0:0:0:0:
224,64,12515,1,0,0:0:0:0:
192,96,12592,1,8,0:0:0:0:
160,96,12669,1,0,0:0:0:0:
192,96,12745,1,8,0:0:0:0:
256,192,12899,1,12,0:0:0:0:
192,160,13053,1,8,0:0:0:0:
160,160,13130,1,8,0:0:0:0:
160,160,13207,1,0,0:0:0:0:
192,160,13361,1,12,0:0:0:0:
224,128,13515,1,0,0:0:0:0:
192,96,13592,1,0,0:0:0:0:
256,64,13669,1,8,0:0:0:0:
192,64,13822,1,0,0:0:0:0:
128,96,13976,1,8,0:0:0:0:
160,64,14053,1,8,0:0:0:0:
256,192,14130,1,0,0:0:0:0:
192,224,14284,1,0,0:0:0:0:
128,224,14438,1,0,0:0:0:0:
160,224,14515,1,0,0:0:0:0:
192,224,14592,1,8,0:0:0:0:
192,192,14669,1,0,0:0:0:0:
128,224,14745,1,8,0:0:0:0:
192,224,14899,1,8,0:0:0:0:
192,160,14976,1,8,0:0:0:0:
128,224,15053,1,0,0:0:0:0:
160,224,15105,1,0,0:0:0:0:
160,224,15156,1,0,0:0:0:0:
192,224,15207,1,8,0:0:0:0:
256,192,15361,1,12,0:0:0:0:
224,160,15515,1,0,0:0:0:0:
192,160,15592,1,0,0:0:0:0:
192,96,15669,1,8,0:0:0:0:
288,32,15822,1,4,0:0:0:0:
224,32,15976,1,0,0:0:0:0:
192,32,16053,1,0,0:0:0:0:
160,32,16130,1,8,0:0:0:0:
160,32,16207,1,0,0:0:0:0:
160,32,16284,1,8,0:0:0:0:
128,96,16438,1,8,0:0:0:0:
256,192,16592,1,0,0:0:0:0:
256,160,16669,1,8,0:0:0:0:
224,128,16745,1,0,0:0:0:0:
224,96,16822,1,0,0:0:0:0:
224,96,16899,1,8,0:0:0:0:
224,96,17053,1,0,0:0:0:0:
192,128,17207,1,8,0:0:0:0:
192,128,17284,1,0,0:0:0:0:
192,128,17361,1,0,0:0:0:0:
192,128,17438,1,0,0:0:0:0:
192,128,17515,1,8,0:0:0:0:
192,128,17669,1,8,0:0:0:0:
256,192,17822,1,4,0:0:0:0:
256,128,17976,1,0,0:0:0:0:
256,160,18053,1,0,0:0:0:0:
256,160,18130,1,8,0:0:0:0:
256,160,18284,1,12,0:0:0:0:
224,128,18438,1,0,0:0:0:0:
192,128,18515,1,8,0:0:0:0:
192,96,18592,1,8,0:0:0:0:
192,96,18669,1,8,0:0:0:0:
192,96,18745,1,0,0:0:0:0:
192,96,18822,1,0,0:0:0:0:
192,96,18899,1,8,0:0:0:0:
192,96,18976,1,8,0:0:0:0:
256,192,19053,1,0,0:0:0:0:
256,128,19207,1,0,0:0:0:0:
288,64,19361,1,0,0:0:0:0:
256,64,19438,1,0,0:0:0:0:
256,96,19515,1,8,0:0:0:0:
224,96,19592,1,8,0:0:0:0:
288,64,19669,1,0,0:0:0:0:
288,96,19745,1,8,0:0:0:0:
256,96,19822,1,8,0:0:0:0:
256,128,19899,1,8,0:0:0:0:
288,64,19976,1,0,0:0:0:0:
256,64,20053,1,0,0:0:0:0:
288,128,20130,1,8,0:0:0:0:
256,96,20284,1,12,0:0:0:0:
256,192,20438,12,0,22284,0:0:0:0:
288,64,29053,5,12,0:0:0:0:
256,128,29207,1,0,0:0:0:0:
224,128,29284,1,0,0:0:0:0:
288,160,29361,1,8,0:0:0:0:
224,192,29515,1,0,0:0:0:0:
224,192,29592,1,8,0:0:0:0:
224,192,29669,1,0,0:0:0:0:
224,192,29745,1,0,0:0:0:0:
224,192,29822,1,8,0:0:0:0:
192,192,29899,1,0,0:0:0:0:
192,160,29976,1,8,0:0:0:0:
192,160,30053,1,8,0:0:0:0:
192,192,30130,1,0,0:0:0:0:
160,224,30284,1,4,0:0:0:0:
192,160,30438,1,0,0:0:0:0:
192,128,30515,1,0,0:0:0:0:
192,96,30592,1,8,0:0:0:0:
160,160,30745,1,8,0:0:0:0:
256,96,30899,1,0,0:0:0:0:
288,160,31053,1,8,0:0:0:0:
192,128,31130,1,0,0:0:0:0:
224,128,31207,1,0,0:0:0:0:
192,128,31284,1,0,0:0:0:0:
192,96,31361,1,8,0:0:0:0:
224,160,31515,1,8,0:0:0:0:
192,64,31669,1,0,0:0:0:0:
320,224,31822,1,0,0:0:0:0:
288,192,31899,1,0,0:0:0:0:
288,160,31976,1,8,0:0:0:0:
256,160,32053,1,0,0:0:0:0:
416,320,32130,1,8,0:0:0:0:
384,256,32284,1,0,0:0:0:0:
320,224,32438,1,8,0:0:0:0:
288,160,32515,1,8,0:0:0:0:
288,192,32592,1,0,0:0:0:0:
224,128,32745,1,0,0:0:0:0:
192,96,32899,1,0,0:0:0:0:
224,128,32976,1,8,0:0:0:0:
288,192,33053,1,0,0:0:0:0:
256,160,33130,1,0,0:0:0:0:
224,160,33207,1,8,0:0:0:0:
192,96,33361,1,0,0:0:0:0:
192,96,33515,1,8,0:0:0:0:
192,160,33669,1,0,0:0:0:0:
192,96,33822,1,8,0:0:0:0:
192,128,33899,1,0,0:0:0:0:
192,160,33976,1,0,0:0:0:0:
224,160,34053,1,0,0:0:0:0:
192,96,34130,1,8,0:0:0:0:
192,96,34284,1,12,0:0:0:0:
192,160,34438,1,0,0:0:0:0:
192,96,34592,1,12,0:0:0:0:
192,160,34745,1,0,0:0:0:0:
192,96,34899,1,8,0:0:0:0:
192,128,34976,1,8,0:0:0:0:
192,96,35053,1,0,0:0:0:0:
192,128,35207,1,0,0:0:0:0:
160,192,35361,1,0,0:0:0:0:
192,192,35438,1,8,0:0:0:0:
224,224,35515,1,0,0:0:0:0:
224,224,35592,1,0,0:0:0:0:
224,224,35669,1,8,0:0:0:0:
224,160,35822,1,8,0:0:0:0:
256,96,35976,1,8,0:0:0:0:
256,128,36053,1,0,0:0:0:0:
256,128,36130,1,8,0:0:0:0:
256,64,36284,1,0,0:0:0:0:
256,64,36438,1,8,0:0:0:0:
256,64,36515,1,8,0:0:0:0:
256,64,36592,1,0,0:0:0:0:
256,64,36669,1,8,0:0:0:0:
256,64,36745,1,8,0:0:0:0:
192,96,36899,1,12,0:0:0:0:
192,160,37053,1,0,0:0:0:0:
192,192,37130,1,0,0:0:0:0:
192,160,37207,1,0,0:0:0:0:
288,128,37361,1,12,0:0:0:0:
224,128,37515,1,0,0:0:0:0:
224,160,37592,1,8,0:0:0:0:
224,192,37669,1,0,0:0:0:0:
256,224,37745,1,0,0:0:0:0:
256,224,37822,1,8,0:0:0:0:
192,192,37976,1,0,0:0:0:0:
160,192,38053,1,0,0:0:0:0:
128,192,38130,1,8,0:0:0:0:
128,288,38284,1,12,0:0:0:0:
128,224,38438,1,0,0:0:0:0:
128,288,38592,1,12,0:0:0:0:
160,224,38745,1,8,0:0:0:0:
160,128,38899,1,12,0:0:0:0:
192,160,39053,1,0,0:0:0:0:
224,192,39130,1,0,0:0:0:0:
128,288,39207,1,8,0:0:0:0:
160,256,39284,1,0,0:0:0:0:
160,224,39361,1,0,0:0:0:0:
128,288,39515,1,8,0:0:0:0:
224,160,39592,1,8,0:0:0:0:
128,224,39669,1,0,0:0:0:0:
128,224,39745,1,0,0:0:0:0:
128,224,39822,1,0,0:0:0:0:
128,224,39899,1,8,0:0:0:0:
128,224,39976,1,8,0:0:0:0:
160,192,40053,1,8,0:0:0:0:
128,256,40130,1,0,0:0:0:0:
160,192,40284,1,8,0:0:0:0:
192,224,40361,1,0,0:0:0:0:
224,160,40438,1,0,0:0:0:0:
192,160,40515,1,0,0:0:0:0:
160,160,40592,1,8,0:0:0:0:
192,0,40745,1,0,0:0:0:0:
224,32,40822,1,0,0:0:0:0:
192,128,40899,1,8,0:0:0:0:
160,160,41053,1,0,0:0:0:0:
288,192,41207,1,12,0:0:0:0:
224,160,41361,1,0,0:0:0:0:
192,128,41438,1,0,0:0:0:0:
160,160,41515,1,0,0:0:0:0:
192,160,41592,1,8,0:0:0:0:
352,192,41669,1,0,0:0:0:0:
320,192,41745,1,0,0:0:0:0:
288,160,41822,1,8,0:0:0:0:
288,160,41976,1,8,0:0:0:0:
256,192,42053,1,8,0:0:0:0:
288,96,42130,1,0,0:0:0:0:
224,160,42207,1,0,0:0:0:0:
256,32,42284,1,8,0:0:0:0:
288,96,42438,1,4,0:0:0:0:
256,160,42592,1,0,0:0:0:0:
256,160,42669,1,8,0:0:0:0:
256,160,42745,1,0,0:0:0:0:
256,160,42822,1,0,0:0:0:0:
256,160,42899,1,8,0:0:0:0:
288,160,42976,1,0,0:0:0:0:
288,160,43053,1,8,0:0:0:0:
256,160,43207,1,0,0:0:0:0:
256,160,43284,1,0,0:0:0:0:
256,160,43361,1,8,0:0:0:0:
224,128,43438,1,8,0:0:0:0:
256,160,43515,1,8,0:0:0:0:
192,160,43669,1,12,0:0:0:0:
224,128,43822,1,8,0:0:0:0:
192,160,43899,1,0,0:0:0:0:
192,160,43976,1,0,0:0:0:0:
192,128,44053,1,0,0:0:0:0:
192,160,44130,1,8,0:0:0:0:
192,128,44207,1,0,0:0:0:0:
192,160,44284,1,0,0:0:0:0:
192,160,44361,1,0,0:0:0:0:
192,160,44438,1,8,0:0:0:0:
192,128,44515,1,8,0:0:0:0:
192,160,44592,1,0,0:0:0:0:
192,128,44669,1,0,0:0:0:0:
192,160,44745,1,8,0:0:0:0:
192,160,44899,1,12,0:0:0:0:
192,160,45053,1,0,0:0:0:0:
192,160,45130,1,0,0:0:0:0:
224,160,45207,1,8,0:0:0:0:
192,160,45284,1,0,0:0:0:0:
224,160,45361,1,8,0:0:0:0:
192,192,45515,1,8,0:0:0:0:
160,224,45592,1,0,0:0:0:0:
192,224,45669,1,8,0:0:0:0:
160,224,45745,1,0,0:0:0:0:
128,224,45822,1,0,0:0:0:0:
192,224,45899,1,8,0:0:0:0:
160,224,45976,1,8,0:0:0:0:
192,224,46130,1,4,0:0:0:0:
192,288,46284,1,0,0:0:0:0:
192,288,46361,1,8,0:0:0:0:
320,160,46438,1,0,0:0:0:0:
288,192,46515,1,0,0:0:0:0:
224,160,46592,1,8,0:0:0:0:
256,192,46669,1,0,0:0:0:0:
288,192,46745,1,8,0:0:0:0:
224,160,46899,1,8,0:0:0:0:
256,192,46976,1,8,0:0:0:0:
224,160,47053,1,8,0:0:0:0:
224,192,47130,1,0,0:0:0:0:
224,224,47207,1,8,0:0:0:0:
224,160,47361,1,12,0:0:0:0:
160,160,47515,1,0,0:0:0:0:
160,128,47592,1,8,0:0:0:0:
224,160,47669,1,0,0:0:0:0:
224,128,47822,1,8,0:0:0:0:
192,128,47899,1,0,0:0:0:0:
224,160,47976,1,0,0:0:0:0:
224,160,48053,1,8,0:0:0:0:
256,192,48130,1,8,0:0:0:0:
224,160,48208,1,8,0:0:0:0:
256,192,48284,1,0,0:0:0:0:
192,128,48361,1,0,0:0:0:0:
256,192,48438,1,8,0:0:0:0:
192,128,48515,1,8,0:0:0:0:
192,160,48592,1,0,0:0:0:0:
192,128,48669,1,8,0:0:0:0:
256,192,48745,1,0,0:0:0:0:
192,128,48822,1,0,0:0:0:0:
256,192,48899,1,8,0:0:0:0:
192,128,48976,1,0,0:0:0:0:
96,192,49053,1,8,0:0:0:0:
96,192,49130,1,8,0:0:0:0:
128,224,49207,1,0,0:0:0:0:
160,224,49284,1,0,0:0:0:0:
96,192,49361,1,8,0:0:0:0:
96,192,49438,1,8,0:0:0:0:
160,224,49515,1,0,0:0:0:0:
160,224,49592,1,0,0:0:0:0:
192,224,49669,1,8,0:0:0:0:
192,224,49721,1,8,0:0:0:0:
224,224,49772,1,8,0:0:0:0:
192,224,49822,1,8,0:0:0:0:
192,192,49874,1,8,0:0:0:0:
192,224,49926,1,8,0:0:0:0:
192,224,49976,1,0,0:0:0:0:
192,224,50130,1,0,0:0:0:0:
256,192,50284,1,0,0:0:0:0:
224,192,50438,1,8,0:0:0:0:
256,192,50592,1,0,0:0:0:0:
256,192,50745,1,0,0:0:0:0:
256,160,50899,1,8,0:0:0:0:
256,160,51053,1,0,0:0:0:0:
224,96,51207,1,0,0:0:0:0:
256,160,51361,1,8,0:0:0:0:
256,160,51515,1,0,0:0:0:0:
256,160,51669,1,0,0:0:0:0:
192,160,51822,1,8,0:0:0:0:
128,160,51976,1,0,0:0:0:0:
160,160,52053,1,0,0:0:0:0:
256,160,52130,1,8,0:0:0:0:
256,160,52284,1,0,0:0:0:0:
256,160,52438,1,8,0:0:0:0:
256,160,52592,1,8,0:0:0:0:
256,160,52745,1,0,0:0:0:0:
288,224,52899,1,8,0:0:0:0:
256,160,53053,1,0,0:0:0:0:
256,160,53207,1,0,0:0:0:0:
256,160,53361,1,8,0:0:0:0:
256,160,53515,1,8,0:0:0:0:
256,160,53669,1,0,0:0:0:0:
320,160,53822,1,8,0:0:0:0:
256,160,53976,1,0,0:0:0:0:
256,160,54130,1,0,0:0:0:0:
256,160,54284,1,8,0:0:0:0:
256,160,54438,1,8,0:0:0:0:
256,160,54515,1,0,0:0:0:0:
256,160,54592,1,8,0:0:0:0:
224,160,54669,1,0,0:0:0:0:
256,160,54745,1,0,0:0:0:0:
256,160,54899,1,8,0:0:0:0:
192,160,55053,1,8,0:0:0:0:
256,160,55207,1,0,0:0:0:0:
256,160,55361,1,8,0:0:0:0:
192,160,55515,1,8,0:0:0:0:
256,160,55669,1,0,0:0:0:0:
256,160,55822,1,8,0:0:0:0:
256,160,55976,1,0,0:0:0:0:
256,160,56130,1,0,0:0:0:0:
256,160,56284,1,8,0:0:0:0:
256,160,56438,1,0,0:0:0:0:
256,160,56592,1,0,0:0:0:0:
256,160,56745,1,0,0:0:0:0:
256,160,56822,1,8,0:0:0:0:
256,160,56899,1,0,0:0:0:0:
256,160,56976,1,0,0:0:0:0:
256,160,57053,1,8,0:0:0:0:
256,160,57130,1,0,0:0:0:0:
256,160,57207,1,8,0:0:0:0:
256,192,57361,1,4,0:0:0:0:
224,160,57515,1,4,0:0:0:0:
224,160,57669,1,0,0:0:0:0:
224,160,57745,1,0,0:0:0:0:
224,160,57822,1,0,0:0:0:0:
224,160,57899,1,8,0:0:0:0:
224,160,57976,1,0,0:0:0:0:
224,160,58053,1,0,0:0:0:0:
224,96,58130,1,8,0:0:0:0:
256,160,58284,1,12,0:0:0:0:
320,128,58438,1,12,0:0:0:0:
224,160,58592,1,8,0:0:0:0:
224,160,58669,1,0,0:0:0:0:
224,160,58745,1,0,0:0:0:0:
224,160,58822,1,0,0:0:0:0:
224,160,58899,1,8,0:0:0:0:
224,160,59053,1,0,0:0:0:0:
256,160,59207,1,0,0:0:0:0:
256,160,59284,1,8,0:0:0:0:
256,160,59361,1,0,0:0:0:0:
256,160,59438,1,0,0:0:0:0:
256,160,59515,1,8,0:0:0:0:
256,160,59592,1,0,0:0:0:0:
256,160,59669,1,8,0:0:0:0:
256,160,59822,1,12,0:0:0:0:
256,160,59976,1,0,0:0:0:0:
256,160,60053,1,0,0:0:0:0:
256,160,60130,1,8,0:0:0:0:
256,160,60284,1,8,0:0:0:0:
256,160,60361,1,8,0:0:0:0:
256,160,60438,1,0,0:0:0:0:
256,160,60515,1,8,0:0:0:0:
256,160,60592,1,0,0:0:0:0:
224,160,60669,1,0,0:0:0:0:
256,128,60745,1,8,0:0:0:0:
192,160,60899,1,0,0:0:0:0:
224,128,61053,1,8,0:0:0:0:
224,128,61130,1,0,0:0:0:0:
224,128,61207,1,8,0:0:0:0:
224,160,61361,1,0,0:0:0:0:
192,160,61515,1,0,0:0:0:0:
224,128,61592,1,8,0:0:0:0:
224,128,61669,1,0,0:0:0:0:
224,160,61745,1,0,0:0:0:0:
224,128,61822,1,8,0:0:0:0:
224,160,61899,1,0,0:0:0:0:
224,128,61976,1,8,0:0:0:0:
224,128,62130,1,0,0:0:0:0:
224,128,62284,1,12,0:0:0:0:
224,128,62438,1,0,0:0:0:0:
224,128,62515,1,8,0:0:0:0:
224,128,62592,1,0,0:0:0:0:
256,192,62669,1,0,0:0:0:0:
256,192,62746,1,8,0:0:0:0:
256,192,62899,1,8,0:0:0:0:
256,192,62976,1,8,0:0:0:0:
256,192,63053,1,0,0:0:0:0:
256,192,63130,1,8,0:0:0:0:
256,192,63207,1,8,0:0:0:0:
256,192,63284,1,0,0:0:0:0:
256,192,63361,1,8,0:0:0:0:
256,192,63515,1,8,0:0:0:0:
256,192,63669,1,8,0:0:0:0:
256,192,63745,1,0,0:0:0:0:
256,192,63822,1,8,0:0:0:0:
256,192,63899,1,0,0:0:0:0:
256,192,63976,1,0,0:0:0:0:
256,192,64053,1,0,0:0:0:0:
256,192,64130,1,8,0:0:0:0:
256,192,64284,1,0,0:0:0:0:
256,192,64361,1,0,0:0:0:0:
256,192,64438,1,8,0:0:0:0:
256,192,64515,1,8,0:0:0:0:
256,192,64592,1,0,0:0:0:0:
256,192,64745,1,12,0:0:0:0:
256,192,64899,1,0,0:0:0:0:
256,192,64976,1,0,0:0:0:0:
256,192,65053,1,0,0:0:0:0:
256,192,65130,1,0,0:0:0:0:
256,192,65207,1,8,0:0:0:0:
256,192,65361,1,0,0:0:0:0:
256,192,65438,1,8,0:0:0:0:
256,192,65515,1,0,0:0:0:0:
256,192,65669,1,8,0:0:0:0:
256,192,65822,1,8,0:0:0:0:
256,192,65899,1,8,0:0:0:0:
256,192,65976,1,0,0:0:0:0:
256,192,66053,1,8,0:0:0:0:
256,192,66130,1,0,0:0:0:0:
256,192,66207,1,8,0:0:0:0:
256,192,66284,1,0,0:0:0:0:
256,192,66438,1,0,0:0:0:0:
256,192,66592,1,8,0:0:0:0:
256,192,66669,1,8,0:0:0:0:
256,192,66745,1,0,0:0:0:0:
256,192,66822,1,8,0:0:0:0:
256,192,66899,1,0,0:0:0:0:
256,192,66976,1,0,0:0:0:0:
256,192,67053,1,8,0:0:0:0:
224,160,67207,1,4,0:0:0:0:
224,160,67361,1,0,0:0:0:0:
224,160,67438,1,8,0:0:0:0:
224,160,67515,1,0,0:0:0:0:
224,160,67592,1,8,0:0:0:0:
224,160,67669,1,0,0:0:0:0:
224,160,67745,1,0,0:0:0:0:
224,160,67822,1,8,0:0:0:0:
224,160,67976,1,0,0:0:0:0:
224,160,68130,1,12,0:0:0:0:
224,160,68284,1,8,0:0:0:0:
224,160,68361,1,0,0:0:0:0:
224,160,68438,1,8,0:0:0:0:
224,160,68515,1,0,0:0:0:0:
224,160,68592,1,8,0:0:0:0:
224,160,68669,1,8,0:0:0:0:
224,160,68745,1,0,0:0:0:0:
224,160,68899,1,8,0:0:0:0:
224,160,69053,1,8,0:0:0:0:
224,160,69130,1,0,0:0:0:0:
224,160,69207,1,0,0:0:0:0:
224,160,69284,1,8,0:0:0:0:
224,160,69361,1,0,0:0:0:0:
224,160,69438,1,0,0:0:0:0:
224,160,69515,1,8,0:0:0:0:
224,160,69592,1,0,0:0:0:0:
256,192,69669,1,8,0:0:0:0:
256,192,69976,1,0,0:0:0:0:
256,192,70130,1,8,0:0:0:0:
256,192,70438,1,0,0:0:0:0:
256,192,70592,1,8,0:0:0:0:
256,192,70745,1,0,0:0:0:0:
256,192,70899,1,0,0:0:0:0:
256,192,71053,1,8,0:0:0:0:
256,128,71361,1,0,0:0:0:0:
256,192,71515,1,8,0:0:0:0:
256,192,71669,1,0,0:0:0:0:
256,192,71822,1,8,0:0:0:0:
256,192,71976,1,0,0:0:0:0:
256,192,72130,1,8,0:0:0:0:
256,192,72438,1,0,0:0:0:0:
256,192,72515,1,0,0:0:0:0:
256,192,72592,1,8,0:0:0:0:
256,192,72899,1,0,0:0:0:0:
256,192,73053,1,8,0:0:0:0:
256,192,73361,1,0,0:0:0:0:
256,192,73438,1,8,0:0:0:0:
256,192,73515,1,8,0:0:0:0:
256,128,73822,1,0,0:0:0:0:
256,192,73976,1,8,0:0:0:0:
256,192,74053,1,0,0:0:0:0:
256,192,74130,1,0,0:0:0:0:
256,192,74207,1,8,0:0:0:0:
256,192,74284,1,8,0:0:0:0:
256,192,74438,1,0,0:0:0:0:
256,192,74592,1,8,0:0:0:0:
256,192,74745,1,0,0:0:0:0:
256,192,74822,1,0,0:0:0:0:
256,192,74899,1,0,0:0:0:0:
256,192,74976,1,0,0:0:0:0:
256,192,75053,1,8,0:0:0:0:
256,192,75361,1,0,0:0:0:0:
256,192,75438,1,0,0:0:0:0:
256,192,75515,1,8,0:0:0:0:
256,192,75822,1,0,0:0:0:0:
256,192,75976,1,8,0:0:0:0:
256,128,76130,1,0,0:0:0:0:
256,128,76284,1,0,0:0:0:0:
256,192,76361,1,0,0:0:0:0:
256,192,76438,1,8,0:0:0:0:
256,192,76592,1,0,0:0:0:0:
256,192,76745,1,8,0:0:0:0:
256,192,76822,1,0,0:0:0:0:
256,192,76899,1,0,0:0:0:0:
256,192,76976,1,0,0:0:0:0:
256,192,77053,1,8,0:0:0:0:
256,192,77361,1,0,0:0:0:0:
256,192,77515,1,8,0:0:0:0:
256,192,77823,1,0,0:0:0:0:
256,192,77900,1,0,0:0:0:0:
256,192,77977,1,8,0:0:0:0:
256,192,78131,1,8,0:0:0:0:
256,192,78285,1,8,0:0:0:0:
256,192,78439,1,0,0:0:0:0:
256,192,78515,1,0,0:0:0:0:
256,192,78592,1,0,0:0:0:0:
256,192,78669,1,0,0:0:0:0:
256,192,78746,1,8,0:0:0:0:
256,192,78900,1,0,0:0:0:0:
256,192,79054,1,8,0:0:0:0:
256,192,79131,1,0,0:0:0:0:
256,192,79208,1,8,0:0:0:0:
256,192,79362,1,8,0:0:0:0:
256,192,79515,1,8,0:0:0:0:
256,192,79592,1,8,0:0:0:0:
256,192,79669,1,0,0:0:0:0:
256,192,79745,1,0,0:0:0:0:
256,192,79822,1,0,0:0:0:0:
256,192,79899,1,0,0:0:0:0:
256,192,79976,1,8,0:0:0:0:
256,192,80130,1,8,0:0:0:0:
256,192,80284,1,0,0:0:0:0:
256,192,80438,1,8,0:0:0:0:
256,192,80515,1,8,0:0:0:0:
256,192,80592,1,0,0:0:0:0:
256,192,80745,1,0,0:0:0:0:
256,192,80899,1,0,0:0:0:0:
256,192,81053,1,8,0:0:0:0:
256,128,81207,1,0,0:0:0:0:
256,192,81284,1,0,0:0:0:0:
256,192,81361,1,8,0:0:0:0:
256,192,81438,1,0,0:0:0:0:
256,192,81515,1,0,0:0:0:0:
256,192,81592,1,0,0:0:0:0:
256,192,81669,1,8,0:0:0:0:
256,192,81822,1,0,0:0:0:0:
256,192,81976,1,8,0:0:0:0:
256,192,82130,1,8,0:0:0:0:
256,192,82284,1,0,0:0:0:0:
288,192,82361,1,0,0:0:0:0:
256,192,82438,1,8,0:0:0:0:
256,192,82592,1,0,0:0:0:0:
256,192,82745,1,8,0:0:0:0:
288,160,82822,1,0,0:0:0:0:
256,192,82899,1,8,0:0:0:0:
256,192,82976,1,0,0:0:0:0:
256,192,83053,1,0,0:0:0:0:
256,192,83207,1,0,0:0:0:0:
256,192,83361,1,0,0:0:0:0:
256,160,83438,1,0,0:0:0:0:
256,128,83515,1,8,0:0:0:0:
256,192,83669,1,8,0:0:0:0:
256,192,83822,1,0,0:0:0:0:
256,160,83899,1,0,0:0:0:0:
256,192,83976,1,0,0:0:0:0:
256,160,84053,1,0,0:0:0:0:
256,192,84130,1,8,0:0:0:0:
256,192,84284,1,0,0:0:0:0:
256,192,84438,1,8,0:0:0:0:
256,192,84515,1,0,0:0:0:0:
256,192,84592,1,8,0:0:0:0:
256,192,84745,1,0,0:0:0:0:
256,192,84899,1,0,0:0:0:0:
256,192,84976,1,8,0:0:0:0:
256,192,85053,1,0,0:0:0:0:
256,192,85130,1,8,0:0:0:0:
256,192,85207,1,0,0:0:0:0:
256,192,85361,1,8,0:0:0:0:
256,192,85515,1,0,0:0:0:0:
256,192,85669,1,0,0:0:0:0:
256,192,85745,1,0,0:0:0:0:
256,128,85822,1,0,0:0:0:0:
256,160,85899,1,8,0:0:0:0:
256,192,85976,1,0,0:0:0:0:
256,192,86130,1,8,0:0:0:0:
256,160,86207,1,0,0:0:0:0:
256,192,86284,1,0,0:0:0:0:
288,192,86361,1,0,0:0:0:0:
256,192,86438,1,8,0:0:0:0:
256,192,86592,1,8,0:0:0:0:
256,192,86745,1,0,0:0:0:0:
256,192,86899,5,12,0:0:0:0:
256,192,87053,1,0,0:0:0:0:
256,192,87130,1,0,0:0:0:0:
256,192,87207,1,8,0:0:0:0:
256,192,87284,1,0,0:0:0:0:
256,192,87361,1,0,0:0:0:0:
256,192,87438,1,0,0:0:0:0:
256,192,87515,1,8,0:0:0:0:
256,192,87592,1,0,0:0:0:0:
256,192,87669,1,8,0:0:0:0:
256,192,87745,1,0,0:0:0:0:
256,192,87822,1,0,0:0:0:0:
256,192,87899,1,8,0:0:0:0:
256,192,87976,1,0,0:0:0:0:
256,192,88053,1,0,0:0:0:0:
256,192,88130,1,8,0:0:0:0:
256,192,88207,1,8,0:0:0:0:
256,192,88284,1,0,0:0:0:0:
256,192,88361,1,8,0:0:0:0:
256,192,88438,1,8,0:0:0:0:
256,192,88515,1,0,0:0:0:0:
256,192,88592,1,0,0:0:0:0:
256,192,88669,1,8,0:0:0:0:
256,192,88745,1,0,0:0:0:0:
256,192,88822,1,0,0:0:0:0:
256,192,88899,1,8,0:0:0:0:
256,192,88976,1,8,0:0:0:0:
256,192,89053,1,8,0:0:0:0:
256,192,89130,1,0,0:0:0:0:
256,192,89207,1,0,0:0:0:0:
256,192,89284,1,8,0:0:0:0:
256,192,89361,1,0,0:0:0:0:
256,192,89515,1,0,0:0:0:0:
256,192,89592,1,0,0:0:0:0:
256,192,89669,1,8,0:0:0:0:
256,192,89822,1,0,0:0:0:0:
256,192,89976,1,8,0:0:0:0:
256,192,90053,1,8,0:0:0:0:
256,192,90130,1,0,0:0:0:0:
256,192,90207,1,0,0:0:0:0:
256,192,90284,1,8,0:0:0:0:
256,192,90361,1,8,0:0:0:0:
256,192,90438,1,0,0:0:0:0:
256,192,90515,1,0,0:0:0:0:
256,192,90592,1,0,0:0:0:0:
256,192,90745,1,8,0:0:0:0:
256,192,90822,1,0,0:0:0:0:
256,192,90899,1,0,0:0:0:0:
256,192,90976,1,0,0:0:0:0:
256,192,91053,1,8,0:0:0:0:
256,192,91130,1,8,0:0:0:0:
256,192,91207,1,0,0:0:0:0:
256,192,91284,1,0,0:0:0:0:
256,192,91361,1,0,0:0:0:0:
256,192,91438,1,0,0:0:0:0:
256,192,91515,1,8,0:0:0:0:
256,192,91592,1,8,0:0:0:0:
256,192,91669,1,0,0:0:0:0:
256,192,91822,1,0,0:0:0:0:
256,192,91899,1,0,0:0:0:0:
256,192,91976,1,8,0:0:0:0:
256,192,92130,1,0,0:0:0:0:
256,192,92207,1,8,0:0:0:0:
256,192,92284,1,8,0:0:0:0:
256,192,92361,1,8,0:0:0:0:
256,192,92438,1,0,0:0:0:0:
256,192,92515,1,0,0:0:0:0:
256,192,92592,1,8,0:0:0:0:
256,192,92669,1,0,0:0:0:0:
256,192,92745,1,8,0:0:0:0:
256,192,92822,1,0,0:0:0:0:
256,192,92899,1,0,0:0:0:0:
256,192,93053,1,8,0:0:0:0:
256,192,93207,1,0,0:0:0:0:
256,192,93284,1,0,0:0:0:0:
256,192,93361,1,8,0:0:0:0:
256,192,93438,1,0,0:0:0:0:
256,192,93515,1,0,0:0:0:0:
256,192,93567,1,0,0:0:0:0:
256,192,93618,1,0,0:0:0:0:
256,192,93669,1,8,0:0:0:0:
256,192,93745,1,0,0:0:0:0:
256,192,93822,1,0,0:0:0:0:
256,192,93976,1,0,0:0:0:0:
256,192,94053,1,0,0:0:0:0:
256,192,94130,1,8,0:0:0:0:
256,192,94284,1,0,0:0:0:0:
256,192,94438,1,8,0:0:0:0:
256,192,94515,1,8,0:0:0:0:
256,192,94592,1,0,0:0:0:0:
256,192,94669,1,0,0:0:0:0:
256,192,94745,1,0,0:0:0:0:
256,192,94822,1,8,0:0:0:0:
256,192,94899,1,8,0:0:0:0:
256,192,94976,1,0,0:0:0:0:
256,192,95053,1,8,0:0:0:0:
256,192,95130,1,0,0:0:0:0:
256,192,95207,1,8,0:0:0:0:
256,192,95284,1,0,0:0:0:0:
256,192,95361,1,0,0:0:0:0:
256,192,95515,1,8,0:0:0:0:
256,192,95669,1,0,0:0:0:0:
256,192,95745,1,0,0:0:0:0:
256,192,95822,1,8,0:0:0:0:
256,192,95899,1,0,0:0:0:0:
256,192,95976,1,8,0:0:0:0:
256,192,96053,1,8,0:0:0:0:
256,192,96130,1,8,0:0:0:0:
256,192,96207,1,0,0:0:0:0:
256,192,96284,1,0,0:0:0:0:
256,192,96361,1,0,0:0:0:0:
256,192,96438,1,8,0:0:0:0:
256,192,96515,1,8,0:0:0:0:
256,192,96592,1,0,0:0:0:0:
256,192,96745,1,0,0:0:0:0:
256,192,96899,5,0,0:0:0:0:
256,192,96976,1,0,0:0:0:0:
256,192,97053,5,8,0:0:0:0:
256,192,97130,1,0,0:0:0:0:
256,192,97207,1,8,0:0:0:0:
256,192,97284,1,8,0:0:0:0:
256,192,97361,1,8,0:0:0:0:
256,192,97438,1,0,0:0:0:0:
256,192,97515,1,8,0:0:0:0:
256,192,97592,1,8,0:0:0:0:
256,192,97669,1,0,0:0:0:0:
256,192,97745,1,8,0:0:0:0:
256,192,97822,5,0,0:0:0:0:
256,192,97899,1,8,0:0:0:0:
256,192,97976,1,8,0:0:0:0:
256,192,98053,1,8,0:0:0:0:
256,192,98130,5,0,0:0:0:0:
256,192,98207,1,0,0:0:0:0:
256,192,98284,1,8,0:0:0:0:
256,192,98361,1,8,0:0:0:0:
256,192,98438,1,8,0:0:0:0:
256,192,98515,1,0,0:0:0:0:
256,192,98592,1,8,0:0:0:0:
256,192,98669,1,8,0:0:0:0:
256,192,98745,1,0,0:0:0:0:
256,192,98797,1,0,0:0:0:0:
256,192,98849,1,0,0:0:0:0:
256,192,98899,1,8,0:0:0:0:
256,192,99053,1,12,0:0:0:0:
256,192,99207,1,8,0:0:0:0:
256,192,99361,1,0,0:0:0:0:
256,192,99438,1,8,0:0:0:0:
256,192,99515,1,0,0:0:0:0:
256,192,99592,1,0,0:0:0:0:
256,192,99669,1,0,0:0:0:0:
256,192,99745,1,8,0:0:0:0:
256,192,99822,1,8,0:0:0:0:
256,192,99899,1,0,0:0:0:0:
256,192,99976,1,0,0:0:0:0:
256,192,100053,1,0,0:0:0:0:
256,192,100130,1,8,0:0:0:0:
256,192,100207,1,8,0:0:0:0:
256,192,100284,1,0,0:0:0:0:
256,192,100438,1,8,0:0:0:0:
256,192,100592,1,0,0:0:0:0:
256,192,100644,1,0,0:0:0:0:
256,192,100695,1,8,0:0:0:0:
256,192,100745,1,8,0:0:0:0:
256,192,100822,1,0,0:0:0:0:
256,192,100899,1,8,0:0:0:0:
256,192,100976,1,8,0:0:0:0:
256,192,101053,1,8,0:0:0:0:
256,192,101207,1,8,0:0:0:0:
256,192,101284,1,0,0:0:0:0:
256,192,101361,1,8,0:0:0:0:
256,192,101413,1,8,0:0:0:0:
256,192,101464,1,0,0:0:0:0:
256,192,101515,1,0,0:0:0:0:
256,192,101592,1,8,0:0:0:0:
256,192,101669,1,0,0:0:0:0:
256,192,101822,1,0,0:0:0:0:
256,192,101899,1,0,0:0:0:0:
256,192,101976,1,8,0:0:0:0:
256,192,102130,1,8,0:0:0:0:
256,192,102207,1,8,0:0:0:0:
256,192,102284,1,0,0:0:0:0:
256,192,102438,1,0,0:0:0:0:
256,192,102515,1,0,0:0:0:0:
256,192,102592,1,8,0:0:0:0:
256,192,102669,1,0,0:0:0:0:
256,192,102745,1,8,0:0:0:0:
256,192,102822,1,8,0:0:0:0:
256,192,102899,1,0,0:0:0:0:
256,192,102976,1,8,0:0:0:0:
256,192,103053,5,0,0:0:0:0:
256,192,103130,1,0,0:0:0:0:
256,192,103207,5,8,0:0:0:0:
256,192,103284,1,0,0:0:0:0:
256,192,103361,5,8,0:0:0:0:
256,192,103438,1,0,0:0:0:0:
256,192,103515,5,0,0:0:0:0:
256,192,103592,1,8,0:0:0:0:
256,192,103669,5,8,0:0:0:0:
256,192,103745,1,0,0:0:0:0:
256,192,103822,5,8,0:0:0:0:
256,192,103976,5,0,0:0:0:0:
256,192,104130,5,8,0:0:0:0:
256,192,104207,1,8,0:0:0:0:
256,192,104284,1,8,0:0:0:0:
256,192,104361,1,0,0:0:0:0:
256,192,104438,1,8,0:0:0:0:
256,192,104515,1,0,0:0:0:0:
256,192,104592,1,8,0:0:0:0:
256,192,104669,1,8,0:0:0:0:
256,192,104745,1,0,0:0:0:0:
256,192,104822,1,8,0:0:0:0:
256,192,104899,1,0,0:0:0:0:
256,192,104976,1,8,0:0:0:0:
256,192,105053,1,8,0:0:0:0:
256,192,105130,1,0,0:0:0:0:
256,192,105207,1,0,0:0:0:0:
256,192,105284,1,0,0:0:0:0:
256,192,105361,1,8,0:0:0:0:
256,192,105438,1,0,0:0:0:0:
256,192,105515,1,8,0:0:0:0:
256,192,105592,1,8,0:0:0:0:
256,192,105669,1,0,0:0:0:0:
256,192,105745,1,0,0:0:0:0:
256,192,105822,1,8,0:0:0:0:
256,192,105899,1,0,0:0:0:0:
256,192,105976,1,8,0:0:0:0:
256,192,106053,1,8,0:0:0:0:
256,192,106130,1,0,0:0:0:0:
256,192,106207,1,8,0:0:0:0:
256,192,106284,1,8,0:0:0:0:
256,192,106361,1,0,0:0:0:0:
256,192,106438,1,8,0:0:0:0:
256,192,106515,1,0,0:0:0:0:
256,192,106592,1,8,0:0:0:0:
256,192,106669,1,0,0:0:0:0:
256,192,106745,1,8,0:0:0:0:
256,224,106822,1,8,0:0:0:0:
256,224,106899,1,8,0:0:0:0:
256,224,106976,1,0,0:0:0:0:
256,224,107053,1,8,0:0:0:0:
256,224,107130,1,8,0:0:0:0:
256,224,107207,1,0,0:0:0:0:
256,224,107284,1,8,0:0:0:0:
256,224,107361,1,8,0:0:0:0:
256,224,107438,1,0,0:0:0:0:
256,224,107515,1,8,0:0:0:0:
256,224,107592,1,0,0:0:0:0:
256,224,107669,1,8,0:0:0:0:
256,224,107745,1,8,0:0:0:0:
256,224,107822,1,0,0:0:0:0:
256,224,107899,1,8,0:0:0:0:
256,224,107976,1,0,0:0:0:0:
256,224,108028,1,0,0:0:0:0:
256,224,108080,1,0,0:0:0:0:
256,224,108130,1,8,0:0:0:0:
256,224,108207,1,8,0:0:0:0:
256,224,108284,1,0,0:0:0:0:
256,224,108336,1,0,0:0:0:0:
256,224,108387,1,0,0:0:0:0:
256,224,108438,1,8,0:0:0:0:
256,224,108515,1,8,0:0:0:0:
256,224,108592,1,0,0:0:0:0:
256,224,108644,1,0,0:0:0:0:
256,224,108695,1,0,0:0:0:0:
256,224,108745,1,8,0:0:0:0:
256,224,108797,1,8,0:0:0:0:
256,224,108849,1,8,0:0:0:0:
256,224,108899,1,8,0:0:0:0:
256,192,108951,1,8,0:0:0:0:
288,192,109003,1,8,0:0:0:0:
256,192,109053,1,0,0:0:0:0:
256,192,109207,1,0,0:0:0:0:
256,192,109361,1,0,0:0:0:0:
256,192,109438,1,8,0:0:0:0:
256,192,109515,1,0,0:0:0:0:
256,192,109592,1,0,0:0:0:0:
256,192,109669,1,8,0:0:0:0:
256,192,109745,1,0,0:0:0:0:
256,192,109822,1,8,0:0:0:0:
256,192,109899,1,8,0:0:0:0:
224,192,109976,1,0,0:0:0:0:
288,192,110053,1,0,0:0:0:0:
256,192,110130,1,8,0:0:0:0:
256,192,110438,1,0,0:0:0:0:
256,192,110515,1,0,0:0:0:0:
256,192,110592,1,8,0:0:0:0:
256,192,110745,1,8,0:0:0:0:
256,192,110822,1,0,0:0:0:0:
256,192,110899,1,8,0:0:0:0:
256,192,110976,1,0,0:0:0:0:
256,192,111053,1,0,0:0:0:0:
256,192,111130,1,0,0:0:0:0:
256,192,111207,1,8,0:0:0:0:
256,192,111284,1,0,0:0:0:0:
256,192,111361,1,8,0:0:0:0:
256,192,111669,1,8,0:0:0:0:
256,192,111745,1,8,0:0:0:0:
256,192,111822,1,0,0:0:0:0:
256,192,111976,1,8,0:0:0:0:
256,192,112053,1,0,0:0:0:0:
256,192,112130,1,0,0:0:0:0:
256,192,112207,1,0,0:0:0:0:
256,192,112284,1,8,0:0:0:0:
256,192,112438,1,0,0:0:0:0:
256,192,112515,1,0,0:0:0:0:
256,192,112592,1,8,0:0:0:0:
256,192,112669,1,8,0:0:0:0:
256,192,112745,1,0,0:0:0:0:
256,192,112899,1,0,0:0:0:0:
256,192,112976,1,0,0:0:0:0:
256,192,113053,1,8,0:0:0:0:
256,192,113130,1,0,0:0:0:0:
256,192,113207,1,0,0:0:0:0:
256,192,113284,1,8,0:0:0:0:
256,192,113361,1,8,0:0:0:0:
256,192,113515,1,0,0:0:0:0:
256,192,113592,1,8,0:0:0:0:
256,192,113669,1,0,0:0:0:0:
256,160,113721,1,0,0:0:0:0:
256,160,113772,1,0,0:0:0:0:
256,192,113822,1,8,0:0:0:0:
256,192,114130,1,0,0:0:0:0:
256,192,114207,1,0,0:0:0:0:
256,192,114284,1,8,0:0:0:0:
256,192,114438,1,0,0:0:0:0:
256,192,114515,1,0,0:0:0:0:
256,192,114592,5,8,0:0:0:0:
256,192,114669,1,8,0:0:0:0:
256,192,114745,1,0,0:0:0:0:
256,192,114822,1,0,0:0:0:0:
256,192,114899,1,8,0:0:0:0:
256,192,114976,1,0,0:0:0:0:
256,192,115053,1,8,0:0:0:0:
256,192,115361,1,0,0:0:0:0:
256,224,115413,1,0,0:0:0:0:
256,192,115464,1,0,0:0:0:0:
256,192,115515,1,8,0:0:0:0:
256,192,115592,1,0,0:0:0:0:
256,192,115669,1,0,0:0:0:0:
256,192,115745,1,0,0:0:0:0:
256,192,115822,1,8,0:0:0:0:
288,192,115899,1,8,0:0:0:0:
256,192,115976,1,0,0:0:0:0:
256,192,116053,1,0,0:0:0:0:
256,192,116130,1,8,0:0:0:0:
256,192,116207,1,0,0:0:0:0:
256,192,116284,1,8,0:0:0:0:
256,192,116592,5,0,0:0:0:0:
256,192,116669,1,8,0:0:0:0:
256,192,116745,5,0,0:0:0:0:
256,192,116822,1,0,0:0:0:0:
256,192,116899,1,8,0:0:0:0:
256,192,116976,1,0,0:0:0:0:
256,192,117053,5,8,0:0:0:0:
256,192,117130,5,8,0:0:0:0:
256,192,117207,1,0,0:0:0:0:
256,192,117284,5,0,0:0:0:0:
256,192,117361,1,8,0:0:0:0:
256,192,117438,1,0,0:0:0:0:
256,192,117515,5,8,0:0:0:0:
256,192,117822,5,0,0:0:0:0:
256,192,117899,1,0,0:0:0:0:
256,192,117976,5,8,0:0:0:0:
256,192,118053,1,0,0:0:0:0:
256,192,118130,5,0,0:0:0:0:
256,192,118207,1,0,0:0:0:0:
256,192,118284,5,8,0:0:0:0:
256,192,118361,1,8,0:0:0:0:
256,192,118438,1,0,0:0:0:0:
256,192,118490,5,0,0:0:0:0:
256,192,118541,1,8,0:0:0:0:
256,192,118592,5,8,0:0:0:0:
256,192,118745,1,8,0:0:0:0:
256,192,118899,12,0,121976,0:0:0:0:
