osu file format v14

[General]
AudioFilename: audio.mp3
AudioLeadIn: 0
PreviewTime: 58814
Countdown: 0
SampleSet: Soft
StackLeniency: 0.7
Mode: 3
LetterboxInBreaks: 0
SpecialStyle: 0
WidescreenStoryboard: 0

[Editor]
DistanceSpacing: 0.8
BeatDivisor: 8
GridSize: 4
TimelineZoom: 3.1

[Metadata]
Title:Colors
TitleUnicode:Colors
Artist:ARForest
ArtistUnicode:ARForest
Creator:Angki
Version:Colorful
Source:
Tags:FA Featured Artist MPG Mappers Guild Future Bass Electronic Instrumental Famoss
BeatmapID:2594144
BeatmapSetID:1248173

[Difficulty]
HPDrainRate:8
CircleSize:4
OverallDifficulty:8
ApproachRate:5
SliderMultiplier:1.4
SliderTickRate:1

[Events]
//Background and Video events
0,0,"Colorful.jpg",0,0
//Break Periods
//Storyboard Layer 0 (Background)
//Storyboard Layer 1 (Fail)
//Storyboard Layer 2 (Pass)
//Storyboard Layer 3 (Foreground)
//Storyboard Layer 4 (Overlay)
//Storyboard Sound Samples

[TimingPoints]
5491,333.333333333333,4,2,1,70,1,0
5491,-100,4,2,1,70,0,0
37490,-100,4,2,1,70,0,1
45490,-100,4,2,1,70,0,0
48157,-100,4,2,1,70,0,1
56157,-100,4,2,1,70,0,0
58824,-100,4,2,1,70,0,1
66824,-100,4,2,1,70,0,0
69490,-100,4,2,1,70,0,1
74824,-100,4,2,1,50,0,0
78824,-100,4,2,1,40,0,0
82824,-100,4,2,1,30,0,0
90490,344.827586206896,4,2,1,30,1,0
90490,-96.6667,4,2,1,30,0,0
90834,369.230769230769,4,2,1,30,1,0
90834,-90.2778,4,2,1,30,0,0
91203,446.096654275093,4,2,1,30,1,0
91203,-74.7222,4,2,1,30,0,0
91649,495.867768595041,4,2,1,30,1,0
91649,-67.2222,4,2,1,30,0,0
92144,731.70731707317,4,2,1,30,1,0
92144,-45.5556,4,2,1,30,0,0
92875,902.255639097742,4,2,1,30,1,0
92875,-36.9444,4,2,1,30,0,0
94679,857.142857142855,4,2,1,30,1,0
94679,-38.8889,4,2,1,30,0,0
97250,365.853658536585,4,2,1,30,1,0
97250,-91.1111,4,2,1,30,0,0
97615,409.556313993174,4,2,1,30,1,0
97615,-81.3889,4,2,1,30,0,0
98024,416.666666666667,4,2,1,30,1,0
98024,-80,4,2,1,30,0,0
98440,535.714285714286,4,2,1,30,1,0
98440,-62.2222,4,2,1,30,0,0

[HitObjects]
64,192,5490,128,0,5574:0:0:0:70:Trambolined_Short.wav
448,192,5490,128,0,5574:0:0:0:0:
320,192,5824,128,0,5907:0:0:0:0:
192,192,6157,128,0,6240:0:0:0:0:
64,192,6490,128,0,6574:0:0:0:0:
448,192,6490,1,0,0:0:0:0:
320,192,6824,128,0,6907:0:0:0:0:
64,192,7490,1,0,0:0:0:0:
192,192,7824,1,0,0:0:0:0:
320,192,8157,1,0,0:0:0:0:
448,192,8157,1,0,0:0:0:0:
64,192,8824,1,0,0:0:0:0:
192,192,9157,1,0,0:0:0:0:
448,192,9157,1,0,0:0:0:0:
192,192,9490,1,0,0:0:0:0:
64,192,9532,1,0,0:0:0:0:
320,192,9574,128,0,10157:0:0:0:0:
64,192,10157,128,0,10824:0:0:0:0:
448,192,10157,1,0,0:0:0:0:
320,192,10824,1,0,0:0:0:0:
448,192,10824,128,0,13490:0:0:0:0:
64,192,11157,1,0,0:0:0:0:
192,192,11324,1,0,0:0:0:0:
320,192,11490,1,0,0:0:0:0:
64,192,11824,1,0,0:0:0:0:
320,192,11824,1,0,0:0:0:0:
192,192,11990,1,0,0:0:0:0:
64,192,12157,1,0,0:0:0:0:
320,192,12490,1,0,0:0:0:0:
192,192,12657,1,0,0:0:0:0:
64,192,12824,1,0,0:0:0:0:
64,192,13157,1,0,0:0:0:0:
192,192,13324,1,0,0:0:0:0:
64,192,13490,1,0,0:0:0:0:
320,192,13490,1,0,0:0:0:0:
448,192,13824,1,0,0:0:0:0:
192,192,13990,1,0,0:0:0:0:
320,192,14157,1,0,0:0:0:0:
64,192,14490,1,0,0:0:0:0:
448,192,14490,1,0,0:0:0:0:
192,192,14657,1,0,0:0:0:0:
320,192,14824,1,0,0:0:0:0:
64,192,14990,1,0,0:0:0:0:
192,192,15157,1,0,0:0:0:0:
448,192,15324,1,0,0:0:0:0:
64,192,15490,128,0,15657:0:0:0:0:
320,192,15490,1,0,0:0:0:0:
192,192,15574,128,0,15740:0:0:0:0:
320,192,15657,128,0,15824:0:0:0:0:
448,192,15740,128,0,15907:0:0:0:0:
64,192,15824,128,0,15990:0:0:0:0:
192,192,15907,128,0,16074:0:0:0:0:
320,192,15990,128,0,16157:0:0:0:0:
448,192,16074,128,0,16157:0:0:0:0:
64,192,16157,1,0,0:0:0:70:Trambolined_Short.wav
192,192,16157,1,0,0:0:0:0:
320,192,16490,1,0,0:0:0:0:
192,192,16574,1,0,0:0:0:0:
320,192,16657,1,0,0:0:0:0:
192,192,16740,1,0,0:0:0:0:
64,192,16824,1,0,0:0:0:70:default-n.wav
448,192,16824,1,0,0:0:0:0:
320,192,16879,1,0,0:0:0:0:
192,192,16928,1,0,0:0:0:0:
64,192,17157,1,0,0:0:0:0:
192,192,17157,1,0,0:0:0:0:
448,192,17490,1,0,0:0:0:0:
64,192,18157,1,0,0:0:0:70:default-n.wav
320,192,18157,1,0,0:0:0:0:
192,192,18213,1,0,0:0:0:0:
448,192,18261,1,0,0:0:0:0:
320,192,18490,1,0,0:0:0:0:
448,192,18574,1,0,0:0:0:0:
320,192,18657,1,0,0:0:0:0:
448,192,18740,1,0,0:0:0:0:
64,192,18824,1,0,0:0:0:0:
192,192,18824,1,0,0:0:0:0:
320,192,19157,1,0,0:0:0:0:
64,192,19240,1,0,0:0:0:0:
320,192,19324,1,0,0:0:0:0:
64,192,19407,1,0,0:0:0:0:
192,192,19490,1,0,0:0:0:70:default-n.wav
448,192,19490,1,0,0:0:0:0:
320,192,19546,1,0,0:0:0:0:
64,192,19595,1,0,0:0:0:0:
64,192,19824,1,0,0:0:0:0:
448,192,19824,1,0,0:0:0:0:
192,192,20157,1,0,0:0:0:0:
320,192,20213,1,0,0:0:0:0:
64,192,20268,1,0,0:0:0:0:
192,192,20324,1,0,0:0:0:0:
320,192,20490,1,0,0:0:0:0:
448,192,20657,1,0,0:0:0:0:
64,192,20824,1,0,0:0:0:70:default-n.wav
192,192,20824,1,0,0:0:0:0:
448,192,20879,1,0,0:0:0:0:
320,192,20928,1,0,0:0:0:0:
64,192,21157,1,0,0:0:0:0:
192,192,21490,1,0,0:0:0:0:
448,192,21490,1,0,0:0:0:0:
64,192,21657,1,0,0:0:0:0:
320,192,21824,1,0,0:0:0:0:
192,192,21990,1,0,0:0:0:0:
64,192,22157,1,0,0:0:0:70:default-n.wav
448,192,22157,1,0,0:0:0:0:
192,192,22213,1,0,0:0:0:0:
320,192,22261,1,0,0:0:0:0:
448,192,22324,1,0,0:0:0:0:
64,192,22490,1,0,0:0:0:0:
192,192,22490,1,0,0:0:0:0:
448,192,22657,1,0,0:0:0:0:
192,192,22824,1,0,0:0:0:0:
320,192,22990,1,0,0:0:0:0:
64,192,23157,1,0,0:0:0:0:
448,192,23324,1,0,0:0:0:0:
64,192,23490,1,0,0:0:0:70:default-n.wav
192,192,23490,1,0,0:0:0:0:
448,192,23546,1,0,0:0:0:0:
320,192,23595,1,0,0:0:0:0:
192,192,23657,1,0,0:0:0:0:
64,192,23824,1,0,0:0:0:0:
448,192,23907,1,0,0:0:0:0:
64,192,23990,1,0,0:0:0:0:
448,192,24074,1,0,0:0:0:0:
192,192,24157,1,0,0:0:0:0:
320,192,24157,1,0,0:0:0:0:
64,192,24324,1,0,0:0:0:0:
320,192,24490,1,0,0:0:0:0:
448,192,24657,1,0,0:0:0:0:
64,192,24824,1,0,0:0:0:70:default-n.wav
320,192,24824,1,0,0:0:0:0:
192,192,24879,1,0,0:0:0:0:
448,192,24928,1,0,0:0:0:0:
64,192,24990,1,0,0:0:0:0:
320,192,25157,1,0,0:0:0:0:
448,192,25157,1,0,0:0:0:0:
192,192,25324,1,0,0:0:0:0:
448,192,25490,1,0,0:0:0:0:
64,192,25657,1,0,0:0:0:0:
192,192,25824,1,0,0:0:0:0:
448,192,25990,1,0,0:0:0:0:
64,192,26157,1,0,0:0:0:70:default-n.wav
320,192,26157,1,0,0:0:0:0:
192,192,26213,1,0,0:0:0:0:
448,192,26261,1,0,0:0:0:0:
320,192,26324,1,0,0:0:0:0:
192,192,26407,1,0,0:0:0:0:
64,192,26490,1,0,0:0:0:0:
192,192,26546,1,0,0:0:0:0:
320,192,26602,1,0,0:0:0:0:
448,192,26657,1,0,0:0:0:0:
64,192,26699,1,0,0:0:0:0:
192,192,26740,1,0,0:0:0:0:
320,192,26782,1,0,0:0:0:0:
64,192,26824,1,4,0:0:0:0:
192,192,26824,1,0,0:0:0:50:LR_Kick-bass.wav
448,192,26824,1,0,0:0:0:70:LR_Drum Rim Fast.wav
192,192,26990,1,0,0:0:0:0:
64,192,27157,1,0,0:0:0:0:
320,192,27324,1,0,0:0:0:70:LR_Drum Rim Fast.wav
448,192,27324,1,0,0:0:0:0:
320,192,27490,1,0,0:0:0:70:LR_Drum Rim Fast.wav
448,192,27490,1,0,0:0:0:0:
192,192,27657,1,0,0:0:0:0:
320,192,27824,1,0,0:0:0:70:LR_Drum Rim Fast.wav
448,192,27824,1,0,0:0:0:0:
64,192,27990,1,0,0:0:0:0:
192,192,28157,1,0,0:0:0:0:
320,192,28324,1,0,0:0:0:70:LR_Drum Rim Fast.wav
448,192,28324,1,0,0:0:0:0:
320,192,28490,1,0,0:0:0:70:LR_Drum Rim Fast.wav
448,192,28490,1,0,0:0:0:0:
64,192,28657,1,0,0:0:0:0:
320,192,28824,1,0,0:0:0:70:LR_Drum Rim Fast.wav
448,192,28824,1,0,0:0:0:0:
192,192,28990,1,0,0:0:0:0:
64,192,29157,1,0,0:0:0:0:
320,192,29324,1,0,0:0:0:0:
64,192,29490,1,0,0:0:0:50:LR_Kick-bass.wav
192,192,29490,1,0,0:0:0:70:LR_Drum Rim Fast.wav
320,192,29657,1,0,0:0:0:0:
448,192,29824,1,0,0:0:0:0:
64,192,29990,1,0,0:0:0:70:LR_Drum Rim Fast.wav
192,192,29990,1,0,0:0:0:0:
64,192,30157,1,0,0:0:0:70:LR_Drum Rim Fast.wav
192,192,30157,1,0,0:0:0:0:
320,192,30324,1,0,0:0:0:0:
64,192,30490,1,0,0:0:0:70:LR_Drum Rim Fast.wav
192,192,30490,1,0,0:0:0:0:
448,192,30657,1,0,0:0:0:0:
320,192,30824,1,0,0:0:0:0:
64,192,30990,1,0,0:0:0:70:LR_Drum Rim Fast.wav
192,192,30990,1,0,0:0:0:0:
64,192,31157,1,0,0:0:0:70:LR_Drum Rim Fast.wav
192,192,31157,1,0,0:0:0:0:
64,192,31324,1,0,0:0:0:70:LR_Drum Rim Fast.wav
192,192,31324,1,0,0:0:0:0:
64,192,31490,1,0,0:0:0:70:LR_Drum Rim Fast.wav
192,192,31490,1,0,0:0:0:0:
448,192,31657,1,0,0:0:0:0:
64,192,31824,1,0,0:0:0:0:
192,192,31865,1,0,0:0:0:0:
320,192,31907,1,0,0:0:0:0:
192,192,31990,1,0,0:0:0:0:
320,192,32074,1,0,0:0:0:0:
64,192,32157,1,0,0:0:0:50:LR_Kick-bass.wav
448,192,32157,1,0,0:0:0:70:LR_Drum Rim Fast.wav
64,192,32324,1,0,0:0:0:70:LR_Drum Rim Fast.wav
448,192,32324,1,0,0:0:0:0:
64,192,32490,1,0,0:0:0:70:LR_Drum Rim Fast.wav
448,192,32490,1,0,0:0:0:0:
320,192,32657,1,0,0:0:0:0:
64,192,32824,1,0,0:0:0:70:LR_Drum Rim Fast.wav
448,192,32824,1,0,0:0:0:0:
192,192,32990,1,0,0:0:0:0:
64,192,33157,1,0,0:0:0:70:LR_Drum Rim Fast.wav
448,192,33157,1,0,0:0:0:0:
64,192,33324,1,0,0:0:0:70:LR_Drum Rim Fast.wav
448,192,33324,1,0,0:0:0:0:
320,192,33490,1,0,0:0:0:0:
64,192,33657,1,0,0:0:0:70:LR_Drum Rim Fast.wav
448,192,33657,1,0,0:0:0:0:
64,192,33824,1,0,0:0:0:70:LR_Drum Rim Fast.wav
448,192,33824,1,0,0:0:0:0:
64,192,33990,1,0,0:0:0:70:LR_Drum Rim Fast.wav
448,192,33990,1,0,0:0:0:0:
64,192,34157,1,0,0:0:0:70:LR_Drum Rim Fast.wav
448,192,34157,1,0,0:0:0:0:
192,192,34324,1,0,0:0:0:0:
320,192,34407,1,0,0:0:0:0:
192,192,34490,1,0,0:0:0:0:
448,192,34657,1,0,0:0:0:0:
64,192,34824,1,0,0:0:0:50:LR_Kick-bass.wav
448,192,34824,1,0,0:0:0:0:
320,192,34907,1,0,0:0:0:0:
192,192,34949,1,0,0:0:0:0:
64,192,34990,1,0,0:0:0:0:
320,192,35074,1,0,0:0:0:0:
448,192,35157,1,0,0:0:0:0:
192,192,35240,1,0,0:0:0:0:
320,192,35324,1,0,0:0:0:0:
64,192,35407,1,0,0:0:0:0:
192,192,35449,1,0,0:0:0:0:
448,192,35490,1,0,0:0:0:0:
320,192,35532,1,0,0:0:0:0:
192,192,35574,1,0,0:0:0:0:
448,192,35657,1,0,0:0:0:0:
320,192,35699,1,0,0:0:0:0:
64,192,35740,1,0,0:0:0:0:
448,192,35824,1,0,0:0:0:0:
192,192,35865,1,0,0:0:0:0:
64,192,35907,1,0,0:0:0:0:
320,192,35990,1,0,0:0:0:0:
192,192,36032,1,0,0:0:0:0:
64,192,36074,1,0,0:0:0:100:AnimeSample21.wav
448,192,36157,128,0,36240:0:0:0:70:LR_Chm J Whistle.wav
192,192,36324,1,0,0:0:0:0:
448,192,36490,1,0,0:0:0:0:
64,192,36574,1,0,0:0:0:0:
448,192,36657,1,0,0:0:0:0:
448,192,36740,1,0,0:0:0:0:
64,192,36824,1,0,0:0:0:0:
320,192,36824,1,0,0:0:0:0:
64,192,36990,1,0,0:0:0:70:tom02.wav
192,192,36990,1,0,0:0:0:0:
320,192,37074,1,0,0:0:0:70:tom02.wav
448,192,37074,1,0,0:0:0:0:
64,192,37157,1,0,0:0:0:70:tom03.wav
192,192,37157,1,0,0:0:0:0:
192,192,37324,1,0,0:0:0:70:tom04.wav
320,192,37324,1,0,0:0:0:0:
64,192,37490,128,2,37740:0:0:0:0:
320,192,37490,128,4,37782:0:0:0:0:
448,192,37490,128,0,37824:0:0:0:0:
64,192,37824,1,0,0:0:0:0:
320,192,37990,1,2,0:0:0:0:
448,192,37990,1,0,0:0:0:0:
192,192,38074,1,0,0:0:0:0:
64,192,38157,1,8,0:0:0:0:
320,192,38157,1,0,0:0:0:0:
448,192,38157,1,0,0:0:0:0:
64,192,38324,1,0,0:0:0:70:Cowbell00.wav
192,192,38490,128,2,38824:0:0:0:0:
448,192,38490,128,0,38657:0:0:0:0:
320,192,38657,1,0,0:0:0:0:
64,192,38740,1,0,0:0:0:0:
320,192,38824,1,0,0:0:0:0:
448,192,38824,128,0,38907:0:0:0:0:
192,192,38990,1,0,0:0:0:0:
448,192,38990,128,0,39074:0:0:0:0:
64,192,39157,1,2,0:0:0:0:
448,192,39157,128,0,39240:0:0:0:0:
192,192,39240,1,0,0:0:0:0:
320,192,39324,1,0,0:0:0:0:
448,192,39324,128,0,39407:0:0:0:0:
192,192,39407,1,0,0:0:0:0:
64,192,39490,1,8,0:0:0:0:
320,192,39490,1,0,0:0:0:0:
448,192,39490,128,0,39574:0:0:0:0:
64,192,39657,1,0,0:0:0:0:
448,192,39657,128,0,39740:0:0:0:0:
320,192,39824,128,2,39907:0:0:0:0:
448,192,39845,128,0,39907:0:0:0:0:
320,192,39990,128,0,40074:0:0:0:0:
448,192,40011,128,0,40074:0:0:0:0:
64,192,40157,128,2,40490:0:0:0:0:
192,192,40157,128,0,40449:0:0:0:0:
320,192,40157,128,0,40407:0:0:0:0:
448,192,40490,1,0,0:0:0:0:
192,192,40657,1,2,0:0:0:0:
448,192,40657,1,0,0:0:0:0:
64,192,40740,1,0,0:0:0:0:
192,192,40824,1,8,0:0:0:0:
320,192,40824,1,0,0:0:0:0:
448,192,40824,1,0,0:0:0:0:
320,192,40990,1,0,0:0:0:0:
320,192,41074,1,0,0:0:0:0:
64,192,41157,1,2,0:0:0:0:
192,192,41157,128,0,41324:0:0:0:0:
448,192,41240,128,0,41490:0:0:0:0:
320,192,41324,1,0,0:0:0:0:
192,192,41407,1,0,0:0:0:0:
64,192,41490,128,0,41657:0:0:0:0:
320,192,41657,1,0,0:0:0:0:
192,192,41699,1,0,0:0:0:0:
448,192,41740,1,0,0:0:0:0:
320,192,41782,1,0,0:0:0:0:
64,192,41824,1,2,0:0:0:0:
192,192,41824,128,0,41990:0:0:0:0:
448,192,41907,128,0,42157:0:0:0:0:
320,192,41990,1,0,0:0:0:0:
192,192,42074,1,0,0:0:0:0:
64,192,42157,1,8,0:0:0:0:
320,192,42157,1,0,0:0:0:0:
320,192,42324,128,2,42386:0:0:0:0:
448,192,42345,128,0,42407:0:0:0:0:
192,192,42490,128,0,42553:0:0:0:0:
320,192,42511,128,0,42574:0:0:0:0:
64,192,42657,128,0,42720:0:0:0:0:
192,192,42678,128,0,42740:0:0:0:0:
192,192,42824,128,2,43074:0:0:0:0:
320,192,42824,128,0,43115:0:0:0:0:
448,192,42824,128,0,43157:0:0:0:0:
192,192,43157,1,0,0:0:0:100:AnimeSample5.wav
64,192,43240,1,0,0:0:0:0:
320,192,43324,1,0,0:0:0:0:
192,192,43407,1,0,0:0:0:0:
64,192,43490,1,8,0:0:0:0:
320,192,43490,1,0,0:0:0:0:
448,192,43490,1,0,0:0:0:0:
448,192,43574,1,0,0:0:0:0:
192,192,43657,1,0,0:0:0:0:
192,192,43740,1,0,0:0:0:0:
64,192,43824,1,0,0:0:0:0:
320,192,43824,1,0,0:0:0:0:
448,192,43865,1,0,0:0:0:0:
64,192,43990,128,2,44074:0:0:0:0:
192,192,43990,1,0,0:0:0:0:
320,192,44074,1,0,0:0:0:0:
64,192,44157,128,0,44240:0:0:0:0:
448,192,44157,1,0,0:0:0:0:
64,192,44324,128,0,44407:0:0:0:0:
192,192,44324,1,0,0:0:0:0:
64,192,44490,128,2,44574:0:0:0:0:
448,192,44490,1,0,0:0:0:0:
320,192,44574,1,0,0:0:0:0:
64,192,44657,128,0,44740:0:0:0:0:
192,192,44657,1,0,0:0:0:0:
448,192,44740,1,0,0:0:0:0:
64,192,44824,128,8,44907:0:0:0:0:
192,192,44824,1,0,0:0:0:0:
320,192,44824,1,0,0:0:0:0:
64,192,44990,128,0,45074:0:0:0:0:
448,192,44990,128,0,45157:0:0:0:0:
320,192,45074,128,0,45240:0:0:0:0:
64,192,45157,128,2,45324:0:0:0:0:
192,192,45157,128,0,45240:0:0:0:0:
448,192,45240,128,0,45407:0:0:0:0:
320,192,45324,128,0,45490:0:0:0:0:
192,192,45407,128,0,45490:0:0:0:0:
64,192,45490,128,2,45824:0:0:0:0:
448,192,45490,1,0,0:0:0:0:
192,192,45657,1,0,0:0:0:0:
320,192,45740,1,0,0:0:0:0:
192,192,45824,1,2,0:0:0:0:
448,192,45824,1,0,0:0:0:0:
64,192,45907,128,0,45990:0:0:0:0:
448,192,45990,128,0,46490:0:0:0:0:
320,192,46074,1,0,0:0:0:0:
64,192,46157,1,8,0:0:0:0:
192,192,46157,1,0,0:0:0:0:
64,192,46324,128,2,46657:0:0:0:0:
320,192,46324,1,0,0:0:0:0:
192,192,46490,128,0,46657:0:0:0:0:
320,192,46657,1,2,0:0:0:0:
448,192,46657,1,0,0:0:0:0:
192,192,46740,1,0,0:0:0:0:
64,192,46824,1,0,0:0:0:0:
448,192,46907,1,0,0:0:0:0:
192,192,46990,1,0,0:0:0:0:
64,192,47074,1,0,0:0:0:0:
320,192,47157,1,2,0:0:0:0:
448,192,47157,1,0,0:0:0:0:
192,192,47240,1,0,0:0:0:0:
64,192,47324,1,0,0:0:0:0:
192,192,47407,1,0,0:0:0:0:
64,192,47490,1,0,0:0:0:70:Cowbell00.wav
448,192,47490,1,0,0:0:0:0:
320,192,47574,1,0,0:0:0:0:
64,192,47657,1,2,0:0:0:0:
192,192,47657,1,0,0:0:0:0:
320,192,47740,1,0,0:0:0:70:tom01.wav
448,192,47740,1,0,0:0:0:0:
64,192,47824,1,0,0:0:0:70:tom01.wav
192,192,47824,1,0,0:0:0:0:
320,192,47907,1,0,0:0:0:70:tom01.wav
448,192,47907,1,0,0:0:0:0:
64,192,47990,1,0,0:0:0:70:tom02.wav
192,192,47990,1,0,0:0:0:0:
448,192,48074,1,0,0:0:0:0:
64,192,48157,128,4,48490:0:0:0:0:
192,192,48157,128,2,48449:0:0:0:0:
320,192,48157,128,0,48407:0:0:0:0:
448,192,48490,128,0,48657:0:0:0:0:
192,192,48657,128,0,48824:0:0:0:0:
64,192,48740,1,0,0:0:0:0:
320,192,48824,128,8,48990:0:0:0:0:
448,192,48824,1,0,0:0:0:0:
64,192,48990,128,0,49157:0:0:0:0:
448,192,49157,1,0,0:0:0:0:
320,192,49240,1,0,0:0:0:0:
192,192,49324,1,2,0:0:0:0:
448,192,49324,128,0,49824:0:0:0:0:
64,192,49407,1,0,0:0:0:0:
320,192,49490,1,0,0:0:0:0:
192,192,49574,1,0,0:0:0:0:
64,192,49657,1,0,0:0:0:0:
320,192,49740,1,0,0:0:0:0:
64,192,49824,128,2,49907:0:0:0:0:
192,192,49824,1,0,0:0:0:0:
448,192,49907,1,0,0:0:0:0:
64,192,49990,128,0,50074:0:0:0:0:
320,192,49990,1,0,0:0:0:0:
192,192,50074,1,0,0:0:0:0:
64,192,50157,128,8,50240:0:0:0:0:
320,192,50157,1,0,0:0:0:0:
448,192,50157,1,0,0:0:0:0:
64,192,50324,128,0,50407:0:0:0:0:
448,192,50324,1,0,0:0:0:0:
192,192,50490,128,0,50574:0:0:0:0:
64,192,50511,128,0,50574:0:0:0:0:
192,192,50657,128,0,50740:0:0:0:0:
64,192,50678,128,0,50740:0:0:0:0:
192,192,50824,128,2,51157:0:0:0:0:
320,192,50824,128,0,51115:0:0:0:0:
448,192,50824,128,0,51074:0:0:0:0:
448,192,51157,1,0,0:0:0:0:
320,192,51199,1,0,0:0:0:0:
64,192,51324,128,0,51365:0:0:0:0:
192,192,51365,128,0,51407:0:0:0:0:
448,192,51490,128,8,51574:0:0:0:0:
320,192,51532,128,0,51615:0:0:0:0:
64,192,51657,128,0,51782:0:0:0:0:
192,192,51699,128,0,51824:0:0:0:0:
448,192,51824,128,0,51990:0:0:0:0:
320,192,51907,128,0,52074:0:0:0:0:
64,192,51990,128,2,52157:0:0:0:0:
192,192,51990,128,0,52157:0:0:0:0:
448,192,52074,1,0,0:0:0:0:
320,192,52157,1,0,0:0:0:0:
192,192,52324,128,0,52407:0:0:0:0:
320,192,52407,128,0,52490:0:0:0:0:
64,192,52490,1,2,0:0:0:0:
192,192,52490,1,0,0:0:0:0:
320,192,52574,128,0,52657:0:0:0:0:
192,192,52657,128,0,52740:0:0:0:0:
64,192,52740,1,0,0:0:0:0:
320,192,52824,128,8,52886:0:0:0:0:
448,192,52845,128,0,52907:0:0:0:0:
192,192,52990,128,0,53053:0:0:0:0:
320,192,53011,128,0,53074:0:0:0:0:
64,192,53157,128,2,53220:0:0:0:0:
192,192,53178,128,0,53240:0:0:0:0:
320,192,53324,128,0,53386:0:0:0:0:
448,192,53345,128,0,53407:0:0:0:0:
64,192,53490,128,2,53824:0:0:0:0:
192,192,53490,128,0,53782:0:0:0:0:
320,192,53490,128,0,53740:0:0:0:0:
448,192,53824,128,0,53907:0:0:0:100:AnimeSample6.wav
192,192,53907,1,0,0:0:0:0:
320,192,53990,128,0,54074:0:0:0:0:
64,192,54074,1,0,0:0:0:0:
192,192,54157,128,8,54240:0:0:0:0:
448,192,54157,1,0,0:0:0:0:
320,192,54324,128,0,54407:0:0:0:0:
448,192,54490,128,0,54574:0:0:0:0:
64,192,54657,128,2,54824:0:0:0:0:
192,192,54657,128,0,54740:0:0:0:0:
448,192,54657,1,0,0:0:0:0:
320,192,54740,1,0,0:0:0:0:
192,192,54824,1,0,0:0:0:0:
64,192,54907,1,0,0:0:0:0:
320,192,54990,1,0,0:0:0:0:
192,192,55074,1,0,0:0:0:0:
64,192,55157,1,2,0:0:0:0:
320,192,55157,128,0,55240:0:0:0:0:
448,192,55157,128,0,55324:0:0:0:0:
192,192,55240,1,0,0:0:0:0:
320,192,55324,1,0,0:0:0:0:
448,192,55407,1,0,0:0:0:0:
64,192,55490,1,8,0:0:0:0:
192,192,55490,1,0,0:0:0:0:
320,192,55657,128,2,55713:0:0:0:0:
448,192,55657,128,0,55740:0:0:0:0:
64,192,55824,128,0,55907:0:0:0:0:
192,192,55852,128,0,55935:0:0:0:0:
320,192,55879,128,0,55963:0:0:0:0:
448,192,55907,128,0,55990:0:0:0:0:
64,192,55990,128,0,56157:0:0:0:0:
192,192,56157,128,0,56240:0:0:0:70:LR_Chm High Long.wav
448,192,56157,1,0,0:0:0:0:
320,192,56324,128,0,56407:0:0:0:0:
448,192,56490,128,0,56574:0:0:0:0:
192,192,56657,128,0,56740:0:0:0:0:
320,192,56824,128,0,56907:0:0:0:0:
448,192,56990,128,0,57074:0:0:0:0:
320,192,57157,1,0,0:0:0:100:AnimeSample12.wav
320,192,57240,1,0,0:0:0:0:
192,192,57324,1,0,0:0:0:0:
192,192,57407,1,0,0:0:0:0:
64,192,57490,1,8,0:0:0:0:
320,192,57490,128,0,57657:0:0:0:0:
448,192,57490,128,0,57824:0:0:0:0:
64,192,57657,1,2,0:0:0:0:
192,192,57657,1,4,0:0:0:0:
320,192,57740,1,0,0:0:0:0:
64,192,57824,1,2,0:0:0:0:
192,192,57824,1,0,0:0:0:0:
320,192,57907,1,0,0:0:0:0:
64,192,57990,128,8,58324:0:0:0:0:
192,192,57990,128,0,58157:0:0:0:0:
448,192,57990,1,0,0:0:0:0:
320,192,58157,1,2,0:0:0:0:
448,192,58157,1,0,0:0:0:0:
192,192,58240,1,0,0:0:0:0:
320,192,58324,1,2,0:0:0:0:
448,192,58324,1,0,0:0:0:0:
192,192,58407,1,0,0:0:0:0:
64,192,58490,1,8,0:0:0:0:
320,192,58490,128,0,58574:0:0:0:0:
448,192,58490,128,0,58574:0:0:0:0:
64,192,58657,1,8,0:0:0:0:
320,192,58657,128,0,58740:0:0:0:0:
448,192,58657,128,0,58740:0:0:0:0:
64,192,58824,128,4,59157:0:0:0:0:
192,192,58824,128,2,59115:0:0:0:0:
320,192,58824,128,0,59074:0:0:0:0:
320,192,59157,1,0,0:0:0:0:
448,192,59157,128,0,59240:0:0:0:0:
64,192,59324,1,2,0:0:0:0:
448,192,59324,128,0,59407:0:0:0:0:
192,192,59407,1,0,0:0:0:0:
64,192,59490,1,8,0:0:0:0:
320,192,59490,1,0,0:0:0:0:
448,192,59490,128,0,59574:0:0:0:0:
192,192,59657,1,0,0:0:0:0:
448,192,59657,128,0,59740:0:0:0:0:
64,192,59824,1,2,0:0:0:0:
448,192,59824,128,0,59907:0:0:0:0:
448,192,59990,128,0,60157:0:0:0:0:
320,192,60032,128,0,60157:0:0:0:0:
64,192,60157,1,0,0:0:0:0:
192,192,60157,1,0,0:0:0:0:
320,192,60240,1,0,0:0:0:0:
64,192,60324,128,0,60407:0:0:0:0:
192,192,60324,1,0,0:0:0:0:
448,192,60407,1,0,0:0:0:0:
64,192,60490,128,2,60574:0:0:0:0:
320,192,60490,1,0,0:0:0:0:
192,192,60574,1,0,0:0:0:0:
64,192,60657,128,0,60740:0:0:0:0:
448,192,60657,1,0,0:0:0:0:
320,192,60740,1,0,0:0:0:0:
64,192,60824,128,8,60907:0:0:0:0:
192,192,60824,1,0,0:0:0:0:
448,192,60824,1,0,0:0:0:0:
64,192,60990,128,0,61074:0:0:0:0:
320,192,60990,1,0,0:0:0:0:
192,192,61157,128,2,61240:0:0:0:0:
448,192,61157,1,0,0:0:0:0:
64,192,61178,128,0,61240:0:0:0:0:
192,192,61324,128,0,61407:0:0:0:0:
64,192,61345,128,0,61407:0:0:0:0:
192,192,61490,128,2,61657:0:0:0:0:
320,192,61490,128,0,61699:0:0:0:0:
448,192,61490,128,0,61740:0:0:0:0:
64,192,61657,1,0,0:0:0:0:
192,192,61824,1,0,0:0:0:0:
448,192,61824,128,0,61907:0:0:0:0:
64,192,61990,1,2,0:0:0:0:
448,192,61990,128,0,62074:0:0:0:0:
192,192,62074,1,0,0:0:0:0:
64,192,62157,1,8,0:0:0:0:
320,192,62157,1,0,0:0:0:0:
448,192,62157,128,0,62240:0:0:0:0:
192,192,62324,1,0,0:0:0:0:
448,192,62324,128,0,62407:0:0:0:0:
64,192,62407,1,0,0:0:0:0:
320,192,62490,1,2,0:0:0:0:
448,192,62490,128,0,62574:0:0:0:0:
448,192,62657,128,0,62740:0:0:0:0:
320,192,62699,128,0,62782:0:0:0:0:
192,192,62740,128,0,62824:0:0:0:0:
64,192,62824,1,0,0:0:0:0:
448,192,62824,1,0,0:0:0:0:
64,192,62990,128,0,63074:0:0:0:0:
192,192,62990,1,0,0:0:0:0:
64,192,63157,128,2,63240:0:0:0:0:
448,192,63157,1,0,0:0:0:0:
320,192,63240,1,0,0:0:0:0:
64,192,63324,128,0,63407:0:0:0:0:
192,192,63324,1,0,0:0:0:0:
448,192,63407,1,0,0:0:0:0:
64,192,63490,1,8,0:0:0:0:
192,192,63490,1,0,0:0:0:0:
320,192,63490,1,0,0:0:0:0:
192,192,63657,128,2,63720:0:0:0:0:
448,192,63657,1,0,0:0:0:0:
64,192,63678,128,0,63740:0:0:0:0:
320,192,63824,128,0,63886:0:0:0:0:
192,192,63845,128,0,63907:0:0:0:0:
448,192,63990,128,0,64053:0:0:0:0:
320,192,64011,128,0,64074:0:0:0:0:
64,192,64157,128,2,64213:0:0:0:0:
192,192,64157,128,0,64213:0:0:0:0:
448,192,64490,1,0,0:0:0:50:AnimeSample20.wav
448,192,64657,1,0,0:0:0:0:
448,192,64740,1,0,0:0:0:0:
64,192,64824,1,8,0:0:0:0:
192,192,64824,1,0,0:0:0:0:
192,192,64990,1,2,0:0:0:0:
448,192,64990,1,0,0:0:0:0:
64,192,65074,128,0,65157:0:0:0:0:
320,192,65157,128,0,65240:0:0:0:0:
448,192,65157,128,0,65240:0:0:0:0:
64,192,65324,128,0,65490:0:0:0:0:
320,192,65324,128,0,65407:0:0:0:0:
192,192,65407,1,0,0:0:0:0:
448,192,65490,1,0,0:0:0:0:
320,192,65574,1,0,0:0:0:0:
64,192,65657,1,0,0:0:0:0:
192,192,65657,1,0,0:0:0:0:
448,192,65740,1,0,0:0:0:0:
64,192,65824,1,2,0:0:0:0:
320,192,65824,1,0,0:0:0:0:
192,192,65907,1,0,0:0:0:0:
320,192,65990,1,0,0:0:0:0:
448,192,65990,1,0,0:0:0:0:
64,192,66074,1,0,0:0:0:0:
192,192,66157,1,8,0:0:0:0:
448,192,66157,1,0,0:0:0:0:
320,192,66240,1,0,0:0:0:0:
64,192,66324,1,0,0:0:0:0:
448,192,66324,1,0,0:0:0:0:
192,192,66407,1,0,0:0:0:0:
320,192,66490,1,2,0:0:0:0:
448,192,66490,1,0,0:0:0:0:
64,192,66657,1,0,0:0:0:0:
192,192,66657,1,0,0:0:0:0:
64,192,66824,1,2,0:0:0:0:
320,192,66824,128,4,66907:0:0:0:0:
448,192,66824,128,0,66990:0:0:0:0:
192,192,66907,1,0,0:0:0:0:
320,192,66990,1,0,0:0:0:0:
448,192,67074,1,0,0:0:0:0:
320,192,67115,1,0,0:0:0:0:
64,192,67157,1,0,0:0:0:70:Cowbell00.wav
192,192,67157,1,0,0:0:0:0:
448,192,67240,1,0,0:0:0:0:
320,192,67324,1,0,0:0:0:0:
192,192,67407,1,0,0:0:0:0:
64,192,67490,1,8,0:0:0:0:
448,192,67490,1,0,0:0:0:0:
320,192,67574,1,0,0:0:0:0:
64,192,67657,1,0,0:0:0:0:
192,192,67699,1,0,0:0:0:0:
320,192,67740,1,0,0:0:0:0:
64,192,67824,128,4,67990:0:0:0:0:
192,192,67824,128,2,67907:0:0:0:0:
448,192,67824,1,0,0:0:0:70:Cowbell00.wav
320,192,67907,1,0,0:0:0:0:
192,192,67990,1,0,0:0:0:0:
448,192,68032,1,0,0:0:0:0:
320,192,68074,1,0,0:0:0:0:
192,192,68115,1,0,0:0:0:0:
64,192,68157,1,8,0:0:0:0:
448,192,68240,1,0,0:0:0:0:
64,192,68324,1,0,0:0:0:0:
192,192,68407,1,0,0:0:0:0:
64,192,68490,1,2,0:0:0:0:
448,192,68490,1,4,0:0:0:0:
320,192,68532,1,0,0:0:0:0:
192,192,68574,1,0,0:0:0:0:
448,192,68657,1,0,0:0:0:0:
320,192,68740,1,0,0:0:0:0:
64,192,68824,1,0,0:0:0:70:Cowbell00.wav
192,192,68824,1,0,0:0:0:0:
448,192,68907,1,0,0:0:0:0:
320,192,68949,1,0,0:0:0:0:
64,192,68990,1,6,0:0:0:0:
192,192,68990,1,0,0:0:0:70:AnimeSample7.wav
448,192,69074,1,0,0:0:0:0:
320,192,69157,1,8,0:0:0:0:
192,192,69199,1,0,0:0:0:0:
64,192,69240,1,0,0:0:0:0:
192,192,69324,1,0,0:0:0:0:
320,192,69365,1,0,0:0:0:0:
448,192,69407,1,0,0:0:0:0:
64,192,69490,128,2,69824:0:0:0:0:
192,192,69490,128,4,69782:0:0:0:0:
320,192,69490,128,0,69740:0:0:0:0:
320,192,69824,1,0,0:0:0:0:
448,192,69824,128,0,69907:0:0:0:0:
64,192,69990,1,2,0:0:0:0:
448,192,69990,128,0,70074:0:0:0:0:
192,192,70074,1,0,0:0:0:0:
64,192,70157,1,8,0:0:0:0:
320,192,70157,1,0,0:0:0:0:
448,192,70157,128,0,70240:0:0:0:0:
192,192,70324,1,0,0:0:0:0:
448,192,70324,128,0,70407:0:0:0:0:
64,192,70490,1,2,0:0:0:0:
448,192,70490,128,0,70574:0:0:0:0:
448,192,70657,128,0,70824:0:0:0:0:
320,192,70699,128,0,70824:0:0:0:0:
64,192,70824,1,0,0:0:0:0:
192,192,70824,1,0,0:0:0:0:
448,192,70907,1,0,0:0:0:0:
64,192,70990,128,0,71074:0:0:0:0:
192,192,70990,1,0,0:0:0:0:
320,192,71074,1,0,0:0:0:0:
64,192,71157,128,2,71240:0:0:0:0:
448,192,71157,1,0,0:0:0:0:
192,192,71240,1,0,0:0:0:0:
64,192,71324,128,0,71407:0:0:0:0:
320,192,71324,1,0,0:0:0:0:
448,192,71407,1,0,0:0:0:0:
64,192,71490,128,8,71574:0:0:0:0:
192,192,71490,1,0,0:0:0:0:
320,192,71490,1,0,0:0:0:0:
64,192,71657,128,0,71740:0:0:0:0:
448,192,71657,1,0,0:0:0:0:
192,192,71824,128,2,71907:0:0:0:0:
320,192,71824,1,0,0:0:0:0:
64,192,71845,128,0,71907:0:0:0:0:
192,192,71990,128,0,72074:0:0:0:0:
64,192,72011,128,0,72074:0:0:0:0:
192,192,72157,128,2,72324:0:0:0:0:
320,192,72157,128,0,72365:0:0:0:0:
448,192,72157,128,0,72407:0:0:0:0:
64,192,72324,1,0,0:0:0:0:
64,192,72490,128,0,72574:0:0:0:0:
320,192,72490,1,0,0:0:0:0:
64,192,72657,128,2,72740:0:0:0:0:
192,192,72657,1,0,0:0:0:0:
320,192,72740,1,0,0:0:0:0:
64,192,72824,128,8,72907:0:0:0:0:
192,192,72824,1,0,0:0:0:0:
448,192,72824,1,0,0:0:0:0:
64,192,72990,128,0,73074:0:0:0:0:
448,192,72990,1,0,0:0:0:0:
320,192,73074,1,0,0:0:0:0:
64,192,73157,128,2,73240:0:0:0:0:
192,192,73157,1,0,0:0:0:0:
64,192,73324,128,0,73407:0:0:0:0:
192,192,73365,128,0,73449:0:0:0:0:
320,192,73407,128,0,73490:0:0:0:0:
64,192,73490,1,0,0:0:0:0:
448,192,73490,1,0,0:0:0:0:
320,192,73657,1,0,0:0:0:0:
448,192,73657,128,0,73740:0:0:0:0:
192,192,73824,1,2,0:0:0:0:
448,192,73824,128,0,73907:0:0:0:0:
64,192,73907,1,0,0:0:0:0:
320,192,73990,1,0,0:0:0:0:
448,192,73990,128,0,74074:0:0:0:0:
192,192,74074,1,0,0:0:0:0:
64,192,74157,1,8,0:0:0:0:
320,192,74157,1,0,0:0:0:0:
448,192,74157,1,0,0:0:0:0:
320,192,74324,128,2,74386:0:0:0:0:
448,192,74345,128,0,74407:0:0:0:0:
192,192,74490,128,0,74553:0:0:0:0:
320,192,74511,128,0,74574:0:0:0:0:
64,192,74657,128,0,74720:0:0:0:0:
192,192,74678,128,0,74740:0:0:0:0:
64,192,74824,1,0,0:0:0:70:Trambolined_Short.wav
448,192,74824,1,0,0:0:0:0:
192,192,74990,1,0,0:0:0:0:
320,192,75157,1,0,0:0:0:0:
192,192,75490,128,0,75574:0:0:0:0:
448,192,75490,128,0,75574:0:0:0:0:
320,192,75657,1,0,0:0:0:0:
64,192,75824,128,0,75907:0:0:0:0:
448,192,75824,128,0,75907:0:0:0:0:
192,192,75990,1,0,0:0:0:0:
320,192,76157,128,0,76240:0:0:0:0:
448,192,76157,128,0,76240:0:0:0:0:
64,192,76324,1,0,0:0:0:0:
192,192,76490,128,0,76574:0:0:0:0:
320,192,76490,128,0,76574:0:0:0:0:
448,192,76657,1,0,0:0:0:0:
64,192,76824,128,0,76907:0:0:0:0:
192,192,76824,128,0,76907:0:0:0:0:
320,192,76990,1,0,0:0:0:0:
192,192,77157,128,0,77240:0:0:0:0:
448,192,77157,128,0,77240:0:0:0:0:
64,192,77324,1,0,0:0:0:0:
320,192,77490,128,0,77574:0:0:0:0:
448,192,77490,128,0,77574:0:0:0:0:
192,192,77657,1,0,0:0:0:0:
64,192,77824,128,0,77907:0:0:0:0:
320,192,77824,128,0,77907:0:0:0:0:
448,192,77990,1,0,0:0:0:0:
192,192,78157,128,0,78240:0:0:0:0:
320,192,78157,128,0,78240:0:0:0:0:
64,192,78324,1,0,0:0:0:0:
320,192,78490,128,0,78574:0:0:0:0:
448,192,78490,128,0,78574:0:0:0:0:
192,192,78657,128,0,78740:0:0:0:0:
320,192,78657,128,0,78740:0:0:0:0:
64,192,78824,128,0,78907:0:0:0:0:
192,192,78824,128,0,78907:0:0:0:0:
320,192,78990,1,0,0:0:0:0:
64,192,79157,128,0,79240:0:0:0:0:
448,192,79157,128,0,79240:0:0:0:0:
192,192,79324,1,0,0:0:0:0:
320,192,79490,128,0,79574:0:0:0:0:
448,192,79490,128,0,79574:0:0:0:0:
64,192,79657,1,0,0:0:0:0:
192,192,79824,128,0,79907:0:0:0:0:
448,192,79824,128,0,79907:0:0:0:0:
320,192,79990,1,0,0:0:0:0:
64,192,80157,128,0,81490:0:0:0:0:
192,192,84157,1,0,0:0:0:0:
448,192,84157,1,0,0:0:0:0:
320,192,84657,1,0,0:0:0:0:
64,192,84824,1,0,0:0:0:0:
448,192,85157,1,0,0:0:0:0:
192,192,85824,1,0,0:0:0:0:
320,192,86157,1,0,0:0:0:0:
448,192,86490,1,0,0:0:0:0:
64,192,86824,1,0,0:0:0:0:
192,192,86824,1,0,0:0:0:0:
320,192,87157,1,0,0:0:0:0:
64,192,87324,1,0,0:0:0:0:
192,192,87490,1,0,0:0:0:0:
448,192,87490,1,0,0:0:0:0:
320,192,87824,1,0,0:0:0:0:
448,192,87824,1,0,0:0:0:0:
64,192,88490,1,0,0:0:0:0:
192,192,88824,1,0,0:0:0:0:
448,192,88824,1,0,0:0:0:0:
320,192,89157,1,0,0:0:0:0:
448,192,89157,1,0,0:0:0:0:
64,192,89490,1,0,0:0:0:0:
192,192,89490,1,0,0:0:0:0:
448,192,89824,1,0,0:0:0:0:
320,192,90157,1,0,0:0:0:0:
192,192,90490,1,0,0:0:0:0:
64,192,90834,1,0,0:0:0:0:
192,192,91203,1,0,0:0:0:0:
320,192,91649,1,0,0:0:0:0:
448,192,92144,1,0,0:0:0:0:
64,192,92829,1,0,0:0:0:0:
192,192,92875,1,0,0:0:0:0:
448,192,92931,1,0,0:0:0:0:
448,192,94679,1,0,0:0:0:0:
320,192,94732,1,0,0:0:0:0:
64,192,94786,1,0,0:0:0:0:
320,192,97250,1,0,0:0:0:0:
192,192,97615,1,0,0:0:0:0:
64,192,98024,1,0,0:0:0:0:
320,192,98440,1,0,0:0:0:0:
448,192,100582,1,0,0:0:0:0:
320,192,100649,1,0,0:0:0:0:
192,192,100716,1,0,0:0:0:0:
