osu file format v14

[General]
AudioFilename: audio.mp3
AudioLeadIn: 0
PreviewTime: 58814
Countdown: 0
SampleSet: Normal
StackLeniency: 0.7
Mode: 1
LetterboxInBreaks: 0
WidescreenStoryboard: 0

[Editor]
DistanceSpacing: 0.9
BeatDivisor: 4
GridSize: 4
TimelineZoom: 3.099999

[Metadata]
Title:Colors
TitleUnicode:Colors
Artist:ARForest
ArtistUnicode:ARForest
Creator:Yasuho
Version:Palette
Source:
Tags:future bass fa osu! featured artist electronic instrumental
BeatmapID:2654149
BeatmapSetID:1277476

[Difficulty]
HPDrainRate:5
CircleSize:7
OverallDifficulty:6
ApproachRate:10
SliderMultiplier:1.4
SliderTickRate:1

[Events]
//Background and Video events
0,0,"84614358_p0.jpg",0,0
//Break Periods
2,80480,83697
//Storyboard Layer 0 (Background)
//Storyboard Layer 1 (Fail)
//Storyboard Layer 2 (Pass)
//Storyboard Layer 3 (Foreground)
//Storyboard Layer 4 (Overlay)
//Storyboard Sound Samples

[TimingPoints]
5481,333.333333333333,4,1,0,40,1,0
5481,-100,4,1,0,40,0,0
37480,-100,4,1,0,60,0,0
58814,-100,4,1,0,80,0,1
64147,-100,4,1,0,80,0,0
69480,-100,4,1,0,80,0,1
74814,-100,4,1,0,40,0,0
80147,-100,4,1,0,30,0,0
90480,344.827586206896,4,1,0,30,1,8
90480,-97.0873786407767,4,1,0,30,0,0
90824,369.230769230769,4,1,0,30,1,0
90824,-90.0900900900901,4,1,0,30,0,0
91193,446.096654275093,4,1,0,30,1,8
91193,-74.6268656716418,4,1,0,30,0,0
91639,495.867768595041,4,1,0,30,1,8
91639,-67.1140939597315,4,1,0,30,0,0
92134,731.70731707317,4,1,0,30,1,8
92134,-45.662100456621,4,1,0,30,0,0
92865,902.255639097742,4,1,0,30,1,8
92865,-37.037037037037,4,1,0,30,0,0
94669,857.142857142855,4,1,0,30,1,8
94669,-48.6381322957198,4,1,0,30,0,0
97240,365.853658536585,4,1,0,30,1,0
97240,-139.86013986014,4,1,0,30,0,0
97609,409.556313993174,4,1,0,30,1,8
97609,-126.103404791929,4,1,0,30,0,0
98014,416.666666666667,4,1,0,30,1,8
98014,-123.076923076923,4,1,0,30,0,0
98430,535.714285714286,4,1,0,30,1,8
98430,-95.5566172957477,4,1,0,30,0,0
100572,-124.223602484472,4,1,0,30,0,0

[HitObjects]
258,189,5480,5,8,0:0:0:0:
249,194,5814,1,0,0:0:0:0:
269,195,6147,1,8,0:0:0:0:
210,187,6480,1,0,0:0:0:0:
211,186,6814,1,0,0:0:0:0:
216,188,7480,1,0,0:0:0:0:
216,188,7814,1,8,0:0:0:0:
163,210,8147,1,8,0:0:0:0:
194,209,8814,1,0,0:0:0:0:
187,197,9147,1,8,0:0:0:0:
187,197,9480,1,0,0:0:0:0:
187,197,10147,1,0,0:0:0:0:
170,231,10814,1,8,0:0:0:0:
169,223,11814,1,0,0:0:0:0:
168,218,13480,1,8,0:0:0:0:
256,181,14480,1,0,0:0:0:0:
166,195,15480,1,8,0:0:0:0:
183,198,16147,1,8,0:0:0:0:
183,198,16480,1,8,0:0:0:0:
183,198,16814,1,8,0:0:0:0:
210,194,17147,1,0,0:0:0:0:
201,197,17480,1,0,0:0:0:0:
201,195,18147,1,8,0:0:0:0:
201,195,18480,1,0,0:0:0:0:
201,195,18814,1,8,0:0:0:0:
201,195,19480,1,0,0:0:0:0:
151,195,19814,1,8,0:0:0:0:
165,193,20147,1,8,0:0:0:0:
165,193,20480,1,0,0:0:0:0:
165,193,20814,1,8,0:0:0:0:
165,193,21147,1,8,0:0:0:0:
165,193,21480,1,0,0:0:0:0:
165,193,22147,1,8,0:0:0:0:
165,193,22480,1,0,0:0:0:0:
165,193,23480,1,8,0:0:0:0:
135,176,24147,1,0,0:0:0:0:
168,187,24814,1,8,0:0:0:0:
168,187,25147,1,0,0:0:0:0:
242,191,26147,1,8,0:0:0:0:
235,185,26814,1,4,0:0:0:0:
178,215,27314,1,8,0:0:0:0:
170,193,27480,1,0,0:0:0:0:
170,193,27814,1,8,0:0:0:0:
170,193,28314,1,8,0:0:0:0:
170,193,28480,1,0,0:0:0:0:
170,193,28814,1,0,0:0:0:0:
170,193,29480,1,4,0:0:0:0:
170,193,29980,1,8,0:0:0:0:
170,193,30147,1,0,0:0:0:0:
170,193,30480,1,8,0:0:0:0:
170,193,30980,1,8,0:0:0:0:
170,193,31147,1,0,0:0:0:0:
170,193,31314,1,0,0:0:0:0:
170,193,31480,1,8,0:0:0:0:
170,193,31814,1,8,0:0:0:0:
136,209,31897,1,8,0:0:0:0:
187,194,31980,1,8,0:0:0:0:
200,167,32064,1,8,0:0:0:0:
187,194,32147,1,0,0:0:0:0:
206,173,32314,1,0,0:0:0:0:
212,198,32480,1,0,0:0:0:0:
212,198,32814,1,8,0:0:0:0:
212,198,33147,1,0,0:0:0:0:
212,198,33314,1,8,0:0:0:0:
212,198,33647,1,8,0:0:0:0:
212,198,33814,1,0,0:0:0:0:
212,198,33980,1,0,0:0:0:0:
212,198,34147,1,8,0:0:0:0:
256,192,34814,12,0,35980,0:0:0:0:
171,187,36147,5,8,0:0:0:0:
189,177,36480,1,0,0:0:0:0:
189,177,36647,1,0,0:0:0:0:
189,177,36730,1,0,0:0:0:0:
189,177,36814,1,8,0:0:0:0:
189,177,36980,1,8,0:0:0:0:
189,177,37064,1,8,0:0:0:0:
189,177,37147,1,0,0:0:0:0:
189,177,37314,1,0,0:0:0:0:
189,177,37397,1,0,0:0:0:0:
189,177,37480,1,12,0:0:0:0:
125,195,37814,1,8,0:0:0:0:
125,195,37980,1,0,0:0:0:0:
125,195,38147,1,8,0:0:0:0:
125,195,38314,1,0,0:0:0:0:
125,195,38480,1,12,0:0:0:0:
121,178,38814,1,8,0:0:0:0:
120,182,38980,1,0,0:0:0:0:
140,181,39147,1,8,0:0:0:0:
171,202,39314,1,0,0:0:0:0:
171,202,39397,1,0,0:0:0:0:
171,202,39480,1,8,0:0:0:0:
158,204,39647,1,0,0:0:0:0:
171,202,39814,1,8,0:0:0:0:
89,186,39980,1,8,0:0:0:0:
94,188,40064,1,0,0:0:0:0:
93,188,40147,1,0,0:0:0:0:
157,126,40480,1,8,0:0:0:0:
173,189,40647,1,0,0:0:0:0:
173,189,40814,1,8,0:0:0:0:
173,189,40980,1,8,0:0:0:0:
173,189,41064,1,8,0:0:0:0:
173,189,41147,1,0,0:0:0:0:
173,189,41647,1,0,0:0:0:0:
173,189,41730,1,0,0:0:0:0:
173,189,41814,1,12,0:0:0:0:
146,188,42147,1,0,0:0:0:0:
150,184,42314,1,8,0:0:0:0:
150,184,42480,1,8,0:0:0:0:
150,184,42647,1,0,0:0:0:0:
150,184,42814,1,12,0:0:0:0:
151,184,43147,1,8,0:0:0:0:
151,184,43314,1,0,0:0:0:0:
144,177,43480,1,8,0:0:0:0:
194,234,43647,1,8,0:0:0:0:
194,234,43814,1,8,0:0:0:0:
194,234,43980,1,0,0:0:0:0:
137,230,44147,1,8,0:0:0:0:
137,230,44230,1,8,0:0:0:0:
137,230,44314,1,0,0:0:0:0:
137,230,44480,1,8,0:0:0:0:
140,236,44647,1,0,0:0:0:0:
145,239,44730,1,8,0:0:0:0:
145,238,44814,1,8,0:0:0:0:
145,238,44980,1,0,0:0:0:0:
145,241,45147,1,8,0:0:0:0:
161,200,45230,1,0,0:0:0:0:
154,203,45314,1,0,0:0:0:0:
154,203,45397,1,0,0:0:0:0:
154,203,45480,1,12,0:0:0:0:
148,224,45814,1,0,0:0:0:0:
152,226,45897,1,8,0:0:0:0:
152,226,45980,1,8,0:0:0:0:
152,226,46147,1,8,0:0:0:0:
152,226,46314,1,4,0:0:0:0:
160,207,46647,1,8,0:0:0:0:
170,216,47147,1,0,0:0:0:0:
177,213,47480,1,0,0:0:0:0:
177,213,47647,1,8,0:0:0:0:
177,213,47980,1,8,0:0:0:0:
125,204,48147,1,4,0:0:0:0:
184,195,48480,1,8,0:0:0:0:
171,214,48647,1,0,0:0:0:0:
171,214,48814,1,8,0:0:0:0:
171,214,48980,1,8,0:0:0:0:
171,214,49147,1,0,0:0:0:0:
156,198,49230,1,8,0:0:0:0:
156,198,49314,1,4,0:0:0:0:
124,179,49814,1,0,0:0:0:0:
156,193,49980,1,8,0:0:0:0:
156,193,50147,1,8,0:0:0:0:
156,193,50314,1,8,0:0:0:0:
165,223,50480,1,0,0:0:0:0:
154,212,50647,1,8,0:0:0:0:
154,212,50730,1,8,0:0:0:0:
154,212,50814,1,4,0:0:0:0:
144,205,51147,1,8,0:0:0:0:
145,199,51314,1,0,0:0:0:0:
145,199,51480,1,0,0:0:0:0:
46,207,51647,1,8,0:0:0:0:
102,202,51814,1,8,0:0:0:0:
102,202,51980,1,4,0:0:0:0:
68,179,52314,1,8,0:0:0:0:
68,179,52397,1,8,0:0:0:0:
68,179,52480,1,0,0:0:0:0:
117,187,52647,1,8,0:0:0:0:
117,187,52814,1,8,0:0:0:0:
66,201,52980,1,8,0:0:0:0:
81,200,53147,1,4,0:0:0:0:
41,188,53480,1,12,0:0:0:0:
134,192,53814,1,8,0:0:0:0:
181,212,53980,1,0,0:0:0:0:
172,212,54147,1,0,0:0:0:0:
172,212,54314,1,0,0:0:0:0:
172,212,54480,1,8,0:0:0:0:
164,210,54647,1,4,0:0:0:0:
96,200,54980,1,8,0:0:0:0:
96,200,55147,1,0,0:0:0:0:
109,191,55647,1,0,0:0:0:0:
137,187,55814,1,8,0:0:0:0:
109,186,56147,1,0,0:0:0:0:
109,186,56314,1,0,0:0:0:0:
109,186,56480,1,8,0:0:0:0:
109,186,56647,1,0,0:0:0:0:
109,186,56814,1,8,0:0:0:0:
109,186,56980,1,8,0:0:0:0:
109,186,57147,1,0,0:0:0:0:
109,186,57230,1,0,0:0:0:0:
109,186,57314,1,0,0:0:0:0:
109,186,57397,1,0,0:0:0:0:
109,186,57480,1,12,0:0:0:0:
164,217,57647,1,0,0:0:0:0:
164,217,57814,1,0,0:0:0:0:
163,202,57980,1,12,0:0:0:0:
166,202,58147,1,0,0:0:0:0:
87,201,58314,1,0,0:0:0:0:
116,202,58480,1,12,0:0:0:0:
128,202,58647,1,12,0:0:0:0:
128,202,58814,1,4,0:0:0:0:
125,204,59147,1,0,0:0:0:0:
134,208,59314,1,8,0:0:0:0:
134,208,59480,1,8,0:0:0:0:
155,197,59647,1,8,0:0:0:0:
135,208,59814,1,0,0:0:0:0:
135,208,59980,1,8,0:0:0:0:
135,208,60064,1,0,0:0:0:0:
135,208,60147,1,0,0:0:0:0:
166,247,60314,1,8,0:0:0:0:
181,190,60480,1,8,0:0:0:0:
152,204,60647,1,0,0:0:0:0:
123,187,60814,1,8,0:0:0:0:
123,187,60980,1,8,0:0:0:0:
123,187,61147,1,8,0:0:0:0:
123,187,61314,1,8,0:0:0:0:
123,187,61397,1,8,0:0:0:0:
123,187,61480,1,4,0:0:0:0:
124,192,61814,1,0,0:0:0:0:
124,192,61980,1,8,0:0:0:0:
124,192,62147,1,8,0:0:0:0:
124,192,62314,1,8,0:0:0:0:
124,192,62397,1,8,0:0:0:0:
124,192,62480,1,0,0:0:0:0:
124,192,62647,1,8,0:0:0:0:
124,192,62814,1,0,0:0:0:0:
202,192,62980,1,8,0:0:0:0:
202,192,63147,1,0,0:0:0:0:
150,223,63230,1,8,0:0:0:0:
133,245,63314,1,8,0:0:0:0:
167,199,63480,1,8,0:0:0:0:
62,194,63647,1,0,0:0:0:0:
94,194,63814,1,8,0:0:0:0:
94,194,63980,1,8,0:0:0:0:
94,194,64147,1,4,0:0:0:0:
194,220,64814,1,8,0:0:0:0:
185,192,64980,1,0,0:0:0:0:
167,208,65314,1,0,0:0:0:0:
141,207,65480,1,8,0:0:0:0:
173,225,65647,1,8,0:0:0:0:
173,225,65730,1,8,0:0:0:0:
173,225,65814,1,0,0:0:0:0:
173,225,65980,1,8,0:0:0:0:
173,225,66147,1,8,0:0:0:0:
173,225,66314,1,0,0:0:0:0:
173,225,66397,1,0,0:0:0:0:
173,225,66480,1,8,0:0:0:0:
173,225,66647,1,0,0:0:0:0:
173,225,66814,1,12,0:0:0:0:
173,237,66980,1,0,0:0:0:0:
173,237,67064,1,0,0:0:0:0:
173,237,67147,1,8,0:0:0:0:
173,237,67314,1,8,0:0:0:0:
173,237,67480,1,0,0:0:0:0:
173,237,67647,1,8,0:0:0:0:
270,267,67730,1,8,0:0:0:0:
149,193,67814,1,4,0:0:0:0:
280,296,68147,1,8,0:0:0:0:
280,296,68230,1,8,0:0:0:0:
185,209,68314,1,8,0:0:0:0:
185,209,68480,1,0,0:0:0:0:
280,293,68647,1,8,0:0:0:0:
280,293,68730,1,0,0:0:0:0:
280,293,68814,1,0,0:0:0:0:
101,206,68980,1,8,0:0:0:0:
119,212,69147,1,0,0:0:0:0:
119,212,69230,1,0,0:0:0:0:
119,212,69314,1,0,0:0:0:0:
119,212,69397,1,0,0:0:0:0:
124,215,69480,1,12,0:0:0:0:
133,223,69814,1,0,0:0:0:0:
133,223,69980,1,8,0:0:0:0:
133,223,70147,1,8,0:0:0:0:
133,223,70314,1,8,0:0:0:0:
133,223,70397,1,8,0:0:0:0:
133,223,70480,1,0,0:0:0:0:
133,223,70647,1,0,0:0:0:0:
133,223,70814,1,8,0:0:0:0:
179,183,70980,1,0,0:0:0:0:
179,183,71064,1,0,0:0:0:0:
179,183,71147,1,8,0:0:0:0:
179,183,71314,1,0,0:0:0:0:
179,183,71480,1,8,0:0:0:0:
88,201,71647,1,0,0:0:0:0:
88,201,71814,1,8,0:0:0:0:
102,190,71980,1,8,0:0:0:0:
102,190,72147,1,4,0:0:0:0:
246,266,72480,1,0,0:0:0:0:
246,266,72647,1,8,0:0:0:0:
246,266,72814,1,8,0:0:0:0:
246,266,72980,1,8,0:0:0:0:
246,266,73064,1,8,0:0:0:0:
246,266,73147,1,0,0:0:0:0:
246,266,73314,1,0,0:0:0:0:
246,266,73480,1,8,0:0:0:0:
241,266,73647,1,8,0:0:0:0:
232,266,73814,1,0,0:0:0:0:
232,266,73980,1,0,0:0:0:0:
232,266,74064,1,0,0:0:0:0:
232,266,74147,1,8,0:0:0:0:
232,266,74314,1,0,0:0:0:0:
232,266,74480,1,8,0:0:0:0:
155,235,74647,1,8,0:0:0:0:
155,235,74814,1,4,0:0:0:0:
128,266,75480,1,0,0:0:0:0:
141,273,76480,1,8,0:0:0:0:
115,213,76814,1,8,0:0:0:0:
132,241,77147,1,0,0:0:0:0:
132,241,77314,1,8,0:0:0:0:
132,241,77480,1,0,0:0:0:0:
132,241,77814,1,0,0:0:0:0:
132,241,78147,1,8,0:0:0:0:
130,207,78480,1,0,0:0:0:0:
130,207,78647,1,0,0:0:0:0:
137,206,78814,1,8,0:0:0:0:
135,205,79147,1,0,0:0:0:0:
137,204,79480,1,8,0:0:0:0:
204,220,79814,1,8,0:0:0:0:
204,220,80147,1,0,0:0:0:0:
259,193,84147,5,8,0:0:0:0:
105,197,84647,1,0,0:0:0:0:
105,197,84814,1,0,0:0:0:0:
106,197,85147,1,8,0:0:0:0:
106,197,85814,1,0,0:0:0:0:
119,205,86147,1,8,0:0:0:0:
119,205,86480,1,8,0:0:0:0:
119,205,86814,1,0,0:0:0:0:
119,205,87147,1,0,0:0:0:0:
119,205,87314,1,0,0:0:0:0:
119,205,87480,1,8,0:0:0:0:
119,205,87814,1,8,0:0:0:0:
119,204,88480,1,0,0:0:0:0:
165,206,88814,1,0,0:0:0:0:
165,206,89147,1,8,0:0:0:0:
165,206,89480,1,0,0:0:0:0:
165,206,89814,1,8,0:0:0:0:
166,213,90147,1,8,0:0:0:0:
166,213,90480,1,0,0:0:0:0:
166,213,90824,1,8,0:0:0:0:
166,213,91193,1,0,0:0:0:0:
166,213,91639,1,0,0:0:0:0:
166,213,92134,1,8,0:0:0:0:
166,244,92865,1,0,0:0:0:0:
170,246,94669,1,0,0:0:0:0:
192,102,97240,1,0,0:0:0:0:
194,102,97609,1,8,0:0:0:0:
194,102,98014,1,0,0:0:0:0:
194,102,98430,1,8,0:0:0:0:
236,194,100572,1,8,0:0:0:0:
