osu file format v14

[General]
AudioFilename: audio.mp3
AudioLeadIn: 0
PreviewTime: 37480
Countdown: 0
SampleSet: Soft
StackLeniency: 0.7
Mode: 3
LetterboxInBreaks: 0
SpecialStyle: 0
WidescreenStoryboard: 1

[Editor]
Bookmarks: 26814,37480,54147,64814
DistanceSpacing: 0.8
BeatDivisor: 8
GridSize: 4
TimelineZoom: 1.6

[Metadata]
Title:Colors
TitleUnicode:Colors
Artist:ARForest
ArtistUnicode:ARForest
Creator:Umo-
Version:Achromatopsia
Source:osu!
Tags:electronic instrumental featured artist fa mappers' guild future bass colours
BeatmapID:2832683
BeatmapSetID:1369976

[Difficulty]
HPDrainRate:8.6
CircleSize:7
OverallDifficulty:8
ApproachRate:5
SliderMultiplier:1.4
SliderTickRate:1

[Events]
//Background and Video events
0,0,"arforest-bg.jpg",0,0
//Break Periods
//Storyboard Layer 0 (Background)
//Storyboard Layer 1 (Fail)
//Storyboard Layer 2 (Pass)
//Storyboard Layer 3 (Foreground)
//Storyboard Layer 4 (Overlay)
//Storyboard Sound Samples

[TimingPoints]
5481,333.333333333333,4,2,1,50,1,0
5481,-100,4,2,1,50,0,0
15480,-100,4,2,1,50,0,1
16147,-100,4,2,1,50,0,0
37480,-100,4,2,1,70,0,1
37564,-100,4,2,1,70,0,0
57480,-100,4,2,1,70,0,1
58814,-100,4,2,1,70,0,0
66814,-100,4,2,1,70,0,1
69480,-100,4,2,1,70,0,0
74814,-100,4,2,1,40,0,0
90480,344.827586206896,4,2,1,50,1,0
90480,-97.0873786407767,4,2,1,50,0,0
90824,369.230769230769,4,2,1,50,1,0
90824,-90.0900900900901,4,2,1,50,0,0
91193,446.096654275093,4,2,1,50,1,0
91193,-74.6268656716418,4,2,1,50,0,0
91639,495.867768595041,4,2,1,50,1,0
91639,-67.1140939597315,4,2,1,50,0,0
92134,731.70731707317,4,2,1,50,1,0
92134,-45.4545454545455,4,2,1,50,0,0
92865,902.255639097742,4,2,1,50,1,0
92865,-36.90036900369,4,2,1,50,0,0
94669,857.142857142855,4,2,1,50,1,0
94669,-38.9105058365759,4,2,1,50,0,0
97240,365.853658536585,4,2,1,50,1,0
97240,-90.9090909090909,4,2,1,50,0,0
97605,409.556313993174,4,2,1,50,1,0
97605,-81.3008130081301,4,2,1,50,0,0
98014,416.666666666667,4,2,1,50,1,0
98014,-80,4,2,1,50,0,0
98430,535.714285714286,4,2,1,50,1,0
98430,-62.111801242236,4,2,1,50,0,0

[HitObjects]
402,192,5480,128,0,5814:0:0:0:0:
475,192,5480,128,0,5814:0:0:0:0:
182,192,5564,128,0,5647:0:0:0:0:
329,192,5814,128,0,5897:0:0:0:0:
182,192,5897,128,0,5980:0:0:0:0:
36,192,6147,128,0,6230:0:0:0:0:
182,192,6230,128,0,6314:0:0:0:0:
329,192,6480,128,0,6814:0:0:0:0:
475,192,6480,128,0,6814:0:0:0:0:
256,192,6564,128,0,6814:0:0:0:0:
182,192,6814,128,0,6897:0:0:0:0:
36,192,6897,128,0,6980:0:0:0:0:
36,192,7480,128,0,7564:0:0:0:0:
182,192,7814,128,0,7897:0:0:0:0:
256,192,8147,128,0,8814:0:0:0:0:
475,192,8147,128,0,8814:0:0:0:0:
36,192,8814,128,0,8897:0:0:0:0:
109,192,9147,128,0,9480:0:0:0:0:
182,192,9147,128,0,9480:0:0:0:0:
329,192,9480,128,0,10147:0:0:0:0:
475,192,9564,128,0,10814:0:0:0:0:
36,192,10147,128,0,10814:0:0:0:0:
256,192,10147,128,0,10814:0:0:0:0:
182,192,10814,128,0,10897:0:0:0:0:
329,192,10814,128,0,13480:0:0:0:0:
109,192,11147,1,0,0:0:0:0:
182,192,11314,1,0,0:0:0:0:
256,192,11480,1,0,0:0:0:0:
109,192,11814,1,0,0:0:0:0:
402,192,11814,1,0,0:0:0:0:
182,192,11980,1,0,0:0:0:0:
256,192,12147,1,0,0:0:0:0:
36,192,12480,1,0,0:0:0:0:
109,192,12647,1,0,0:0:0:0:
182,192,12814,1,0,0:0:0:0:
36,192,13147,1,0,0:0:0:0:
256,192,13314,1,0,0:0:0:0:
109,192,13480,1,0,0:0:0:0:
475,192,13480,1,0,0:0:0:0:
182,192,13814,1,0,0:0:0:0:
109,192,13980,1,0,0:0:0:0:
36,192,14147,1,0,0:0:0:0:
182,192,14480,1,0,0:0:0:0:
329,192,14480,1,0,0:0:0:0:
109,192,14647,1,0,0:0:0:0:
36,192,14814,1,0,0:0:0:0:
109,192,14980,1,0,0:0:0:0:
182,192,15147,1,0,0:0:0:0:
109,192,15314,1,0,0:0:0:0:
36,192,15480,1,0,0:0:0:0:
256,192,15480,1,0,0:0:0:0:
182,192,15564,1,0,0:0:0:0:
109,192,15647,1,0,0:0:0:0:
256,192,15730,1,0,0:0:0:0:
182,192,15814,1,0,0:0:0:0:
329,192,15897,1,0,0:0:0:0:
256,192,15980,1,0,0:0:0:0:
402,192,16064,1,0,0:0:0:0:
109,192,16147,128,0,16480:0:0:0:0:
329,192,16147,128,0,16480:0:0:0:0:
256,192,16230,128,0,16480:0:0:0:0:
182,192,16480,128,0,16564:0:0:0:0:
329,192,16564,128,0,16647:0:0:0:0:
36,192,16814,1,0,0:0:0:50:LR_J Hit Hollow.wav
475,192,16814,128,0,16897:0:0:0:0:
329,192,16897,128,0,16980:0:0:0:0:
182,192,16918,1,0,0:0:0:0:
36,192,17147,128,0,17480:0:0:0:0:
182,192,17147,128,0,17480:0:0:0:0:
402,192,17230,128,0,17480:0:0:0:0:
329,192,17480,128,0,17564:0:0:0:0:
182,192,17564,128,0,17647:0:0:0:0:
475,192,17814,1,0,0:0:0:0:
182,192,18147,1,0,0:0:0:50:LR_J Hit Hollow.wav
475,192,18147,128,0,18230:0:0:0:0:
329,192,18230,1,0,0:0:0:0:
109,192,18251,1,0,0:0:0:0:
329,192,18480,128,0,18564:0:0:0:0:
256,192,18814,128,0,19480:0:0:0:0:
402,192,18814,128,0,19480:0:0:0:0:
36,192,19147,1,0,0:0:0:0:
109,192,19480,1,0,0:0:0:50:LR_J Hit Hollow.wav
475,192,19480,1,0,0:0:0:0:
182,192,19564,1,0,0:0:0:0:
402,192,19585,1,0,0:0:0:0:
256,192,19814,128,0,20147:0:0:0:0:
329,192,19814,128,0,20147:0:0:0:0:
182,192,20147,128,0,20480:0:0:0:0:
36,192,20230,128,0,20480:0:0:0:0:
256,192,20480,128,0,20814:0:0:0:0:
109,192,20814,1,0,0:0:0:50:LR_J Hit Hollow.wav
475,192,20814,128,0,21147:0:0:0:0:
329,192,20897,1,0,0:0:0:0:
182,192,20918,1,0,0:0:0:0:
36,192,21147,128,0,21480:0:0:0:0:
329,192,21480,1,0,0:0:0:0:
182,192,21564,1,0,0:0:0:0:
475,192,21647,1,0,0:0:0:0:
402,192,21814,1,0,0:0:0:0:
329,192,21980,1,0,0:0:0:0:
256,192,22147,1,0,0:0:0:50:LR_J Hit Hollow.wav
402,192,22147,1,0,0:0:0:0:
36,192,22230,1,0,0:0:0:0:
329,192,22251,1,0,0:0:0:0:
475,192,22314,1,0,0:0:0:0:
182,192,22480,1,0,0:0:0:0:
402,192,22480,1,0,0:0:0:0:
329,192,22647,1,0,0:0:0:0:
256,192,22814,1,0,0:0:0:0:
402,192,22980,1,0,0:0:0:0:
475,192,23147,1,0,0:0:0:0:
329,192,23314,1,0,0:0:0:0:
36,192,23480,1,0,0:0:0:50:LR_J Hit Hollow.wav
256,192,23480,1,0,0:0:0:0:
402,192,23564,1,0,0:0:0:0:
475,192,23585,1,0,0:0:0:0:
182,192,23647,1,0,0:0:0:0:
402,192,23814,1,0,0:0:0:0:
256,192,23980,1,0,0:0:0:0:
109,192,24147,1,0,0:0:0:0:
402,192,24147,1,0,0:0:0:0:
36,192,24314,1,0,0:0:0:0:
329,192,24480,1,0,0:0:0:0:
402,192,24647,1,0,0:0:0:0:
256,192,24814,1,0,0:0:0:50:LR_J Hit Hollow.wav
475,192,24814,1,0,0:0:0:0:
182,192,24897,1,0,0:0:0:0:
329,192,24918,1,0,0:0:0:0:
109,192,24980,1,0,0:0:0:0:
36,192,25147,128,0,25814:0:0:0:0:
329,192,25147,1,0,0:0:0:0:
402,192,25314,1,0,0:0:0:0:
475,192,25480,1,0,0:0:0:0:
402,192,25647,1,0,0:0:0:0:
256,192,25814,1,0,0:0:0:0:
329,192,25980,1,0,0:0:0:0:
109,192,26147,128,0,26314:0:0:0:50:LR_J Hit Hollow.wav
402,192,26147,1,0,0:0:0:0:
475,192,26230,1,0,0:0:0:0:
329,192,26251,1,0,0:0:0:0:
182,192,26314,1,0,0:0:0:0:
256,192,26397,1,0,0:0:0:0:
329,192,26480,128,0,26647:0:0:0:0:
36,192,26564,1,0,0:0:0:0:
182,192,26647,1,0,0:0:0:0:
329,192,26730,1,0,0:0:0:0:
36,192,26814,1,2,0:0:0:0:
182,192,26814,1,0,0:0:0:70:LR_Drum J Hit Med Bass.wav
475,192,26814,128,0,26980:0:0:0:0:
329,192,26980,128,0,27147:0:0:0:0:
475,192,27147,128,0,27314:0:0:0:0:
36,192,27314,1,2,0:0:0:0:
182,192,27314,1,0,0:0:0:0:
36,192,27480,1,2,0:0:0:0:
182,192,27480,128,0,27647:0:0:0:0:
109,192,27647,128,0,27814:0:0:0:0:
182,192,27814,128,2,27980:0:0:0:0:
329,192,27814,1,0,0:0:0:0:
36,192,27980,128,0,28147:0:0:0:0:
256,192,28147,1,0,0:0:0:0:
182,192,28314,1,2,0:0:0:0:
402,192,28314,128,0,28480:0:0:0:0:
182,192,28480,1,2,0:0:0:0:
329,192,28480,128,0,28647:0:0:0:0:
475,192,28647,128,0,28814:0:0:0:0:
182,192,28814,1,2,0:0:0:0:
329,192,28814,128,0,28980:0:0:0:0:
402,192,28980,128,0,29147:0:0:0:0:
475,192,29147,128,0,29314:0:0:0:0:
256,192,29314,128,0,29480:0:0:0:0:
36,192,29480,1,2,0:0:0:0:
475,192,29480,128,0,29647:0:0:0:70:LR_Drum J Hit Med Bass.wav
329,192,29647,128,0,29814:0:0:0:0:
475,192,29814,128,0,29980:0:0:0:0:
36,192,29980,1,2,0:0:0:0:
182,192,29980,1,0,0:0:0:0:
36,192,30147,1,2,0:0:0:0:
182,192,30147,128,0,30314:0:0:0:0:
109,192,30314,128,0,30480:0:0:0:0:
182,192,30480,128,2,30647:0:0:0:0:
329,192,30480,1,0,0:0:0:0:
36,192,30647,128,0,30814:0:0:0:0:
256,192,30814,1,0,0:0:0:0:
182,192,30980,1,2,0:0:0:0:
402,192,30980,128,0,31147:0:0:0:0:
182,192,31147,1,2,0:0:0:0:
329,192,31147,128,0,31314:0:0:0:0:
182,192,31314,1,2,0:0:0:0:
475,192,31314,128,0,31480:0:0:0:0:
182,192,31480,1,2,0:0:0:0:
329,192,31480,128,0,31647:0:0:0:0:
402,192,31647,128,0,31814:0:0:0:0:
36,192,31814,1,2,0:0:0:70:LR_HiHat SClick 2.wav
475,192,31814,128,0,31980:0:0:0:0:
109,192,31855,1,0,0:0:0:70:LR_HiHat SClick 2.wav
182,192,31897,1,0,0:0:0:70:LR_HiHat SClick 2.wav
329,192,31980,1,0,0:0:0:70:LR_HiHat SClick 2.wav
256,192,32064,1,0,0:0:0:70:LR_HiHat SClick 2.wav
182,192,32147,1,2,0:0:0:0:
402,192,32147,128,0,32314:0:0:0:70:LR_Drum J Hit Med Bass.wav
182,192,32314,1,2,0:0:0:0:
475,192,32314,128,0,32480:0:0:0:0:
182,192,32480,1,2,0:0:0:0:
329,192,32480,128,0,32647:0:0:0:0:
256,192,32647,1,0,0:0:0:0:
182,192,32814,128,2,32980:0:0:0:0:
329,192,32814,1,0,0:0:0:0:
36,192,32980,128,0,33147:0:0:0:0:
109,192,33147,128,2,33314:0:0:0:0:
329,192,33147,1,0,0:0:0:0:
182,192,33314,128,2,33480:0:0:0:0:
329,192,33314,1,0,0:0:0:0:
256,192,33480,1,0,0:0:0:0:
109,192,33647,1,2,0:0:0:0:
402,192,33647,128,0,33814:0:0:0:0:
109,192,33814,1,2,0:0:0:0:
329,192,33814,128,0,33980:0:0:0:0:
109,192,33980,1,2,0:0:0:0:
475,192,33980,128,0,34147:0:0:0:0:
109,192,34147,1,2,0:0:0:0:
329,192,34147,128,0,34314:0:0:0:0:
402,192,34314,128,0,34480:0:0:0:0:
182,192,34397,1,0,0:0:0:0:
109,192,34480,128,0,34647:0:0:0:0:
36,192,34647,128,0,34814:0:0:0:0:
109,192,34814,1,0,0:0:0:70:LR_HiHat SClick 2.wav
256,192,34814,1,0,0:0:0:70:LR_Drum J Hit Med Bass.wav
475,192,34814,1,0,0:0:0:0:
329,192,34897,1,0,0:0:0:70:LR_HiHat SClick 2.wav
182,192,34939,1,0,0:0:0:70:LR_HiHat SClick 2.wav
36,192,34980,1,0,0:0:0:70:LR_HiHat SClick 2.wav
402,192,35064,1,0,0:0:0:70:LR_HiHat SClick 2.wav
109,192,35147,1,0,0:0:0:70:LR_HiHat SClick 2.wav
182,192,35230,1,0,0:0:0:70:LR_HiHat SClick 2.wav
109,192,35314,1,0,0:0:0:70:LR_HiHat SClick 2.wav
182,192,35397,1,0,0:0:0:70:LR_HiHat SClick 2.wav
329,192,35439,1,0,0:0:0:70:LR_HiHat SClick 2.wav
475,192,35480,1,0,0:0:0:70:LR2_HatSH.wav
36,192,35522,1,0,0:0:0:70:LR2_HatSH.wav
182,192,35564,1,0,0:0:0:70:LR2_HatSH.wav
329,192,35647,1,0,0:0:0:70:LR2_HatSH.wav
256,192,35689,1,0,0:0:0:70:LR2_HatSH.wav
182,192,35730,1,0,0:0:0:70:LR2_HatSH.wav
402,192,35814,1,0,0:0:0:70:LR2_HatSH.wav
256,192,35855,1,0,0:0:0:70:LR2_HatSH.wav
109,192,35897,1,0,0:0:0:70:LR2_HatSH.wav
475,192,35980,1,0,0:0:0:70:LR2_HatSH.wav
256,192,36022,1,0,0:0:0:70:LR2_HatSH.wav
36,192,36064,1,0,0:0:0:70:LR2_HatSH.wav
475,192,36147,128,0,36314:0:0:0:40:LR_Chm J Whistle.wav
182,192,36314,1,0,0:0:0:0:
329,192,36480,1,0,0:0:0:0:
182,192,36564,1,0,0:0:0:0:
402,192,36647,1,0,0:0:0:0:
182,192,36730,1,0,0:0:0:0:
256,192,36814,1,0,0:0:0:0:
109,192,36980,1,2,0:0:0:0:
402,192,36980,1,0,0:0:0:0:
182,192,37064,1,2,0:0:0:0:
402,192,37064,1,0,0:0:0:0:
36,192,37147,1,2,0:0:0:0:
109,192,37147,1,0,0:0:0:0:
182,192,37314,1,2,0:0:0:0:
256,192,37314,1,0,0:0:0:0:
36,192,37480,1,4,0:0:0:0:
109,192,37480,1,0,0:0:0:70:LR_Scratch2.wav
182,192,37480,1,0,0:0:0:0:
475,192,37480,1,0,0:0:0:0:
402,192,37564,128,0,37814:0:0:0:0:
329,192,37605,128,0,37814:0:0:0:0:
256,192,37647,128,0,37814:0:0:0:0:
36,192,37814,128,0,37897:0:0:0:70:Cowbell.wav
109,192,37980,1,2,0:0:0:0:
182,192,37980,1,0,0:0:0:70:Cowbell.wav
475,192,37980,128,0,38064:0:0:0:0:
329,192,38064,1,0,0:0:0:0:
36,192,38147,1,8,0:0:0:0:
256,192,38147,128,0,38230:0:0:0:70:Cowbell.wav
402,192,38147,1,0,0:0:0:0:
182,192,38314,128,0,38397:0:0:0:70:Cowbell.wav
329,192,38355,128,0,38439:0:0:0:0:
36,192,38480,1,2,0:0:0:0:
402,192,38480,1,0,0:0:0:0:
475,192,38480,1,0,0:0:0:0:
109,192,38564,128,0,38730:0:0:0:0:
182,192,38605,128,0,38772:0:0:0:0:
256,192,38647,128,0,38814:0:0:0:0:
329,192,38730,1,0,0:0:0:0:
475,192,38814,128,0,38980:0:0:0:0:
329,192,38855,128,0,39022:0:0:0:0:
36,192,38980,128,0,39147:0:0:0:0:
182,192,39022,128,0,39189:0:0:0:0:
256,192,39147,1,2,0:0:0:0:
475,192,39147,128,0,39314:0:0:0:0:
329,192,39189,128,0,39355:0:0:0:0:
36,192,39314,128,0,39480:0:0:0:0:
182,192,39355,128,0,39522:0:0:0:0:
109,192,39480,1,8,0:0:0:0:
329,192,39480,128,0,39647:0:0:0:0:
475,192,39522,128,0,39689:0:0:0:0:
182,192,39647,128,0,39814:0:0:0:0:
36,192,39689,128,0,39814:0:0:0:0:
109,192,39814,1,0,0:0:0:70:LR2_HatSH.wav
256,192,39814,1,0,0:0:0:0:
475,192,39814,1,0,0:0:0:0:
402,192,39855,1,0,0:0:0:70:LR2_HatSH.wav
329,192,39897,1,0,0:0:0:70:LR2_HatSH.wav
36,192,39980,1,0,0:0:0:70:LR2_HatSH.wav
109,192,40022,1,0,0:0:0:70:LR2_HatSH.wav
182,192,40064,1,0,0:0:0:70:LR2_HatSH.wav
36,192,40147,1,2,0:0:0:0:
109,192,40147,1,0,0:0:0:0:
256,192,40147,1,0,0:0:0:0:
329,192,40230,128,0,40480:0:0:0:0:
402,192,40272,128,0,40480:0:0:0:0:
475,192,40314,128,0,40480:0:0:0:0:
182,192,40480,128,0,40564:0:0:0:70:Cowbell.wav
109,192,40647,128,2,40730:0:0:0:0:
256,192,40647,1,0,0:0:0:70:Cowbell.wav
475,192,40647,1,0,0:0:0:0:
36,192,40814,1,8,0:0:0:0:
329,192,40814,128,0,40897:0:0:0:70:Cowbell.wav
402,192,40814,1,0,0:0:0:0:
182,192,40980,128,0,41064:0:0:0:70:LR2_HatSH.wav
475,192,40980,1,0,0:0:0:70:Cowbell.wav
256,192,41064,1,0,0:0:0:70:LR2_HatSH.wav
36,192,41147,1,2,0:0:0:0:
402,192,41147,1,0,0:0:0:0:
475,192,41147,1,0,0:0:0:0:
109,192,41230,128,0,41439:0:0:0:0:
182,192,41272,128,0,41480:0:0:0:0:
256,192,41314,128,0,41522:0:0:0:0:
329,192,41397,1,0,0:0:0:0:
402,192,41480,1,0,0:0:0:0:
36,192,41647,1,0,0:0:0:0:
109,192,41675,1,0,0:0:0:0:
182,192,41703,1,0,0:0:0:0:
329,192,41758,1,0,0:0:0:0:
402,192,41786,1,0,0:0:0:0:
36,192,41814,1,2,0:0:0:0:
475,192,41814,1,0,0:0:0:0:
109,192,41897,128,0,42064:0:0:0:0:
182,192,41939,128,0,42105:0:0:0:0:
256,192,41980,128,0,42147:0:0:0:0:
329,192,42064,1,0,0:0:0:0:
36,192,42147,1,8,0:0:0:0:
402,192,42147,128,0,42314:0:0:0:0:
475,192,42147,1,0,0:0:0:0:
109,192,42230,128,0,42314:0:0:0:0:
36,192,42314,1,2,0:0:0:0:
329,192,42314,1,0,0:0:0:70:LR2_HatSH.wav
256,192,42355,1,0,0:0:0:70:LR2_HatSH.wav
182,192,42397,1,0,0:0:0:70:LR2_HatSH.wav
329,192,42480,128,0,42564:0:0:0:70:LR2_HatSH.wav
256,192,42522,128,0,42605:0:0:0:70:LR2_HatSH.wav
182,192,42564,128,0,42647:0:0:0:70:LR2_HatSH.wav
329,192,42647,128,0,42772:0:0:0:70:LR2_HatSH.wav
256,192,42689,128,0,42814:0:0:0:70:LR2_HatSH.wav
182,192,42730,128,0,42814:0:0:0:70:LR2_HatSH.wav
36,192,42814,1,2,0:0:0:0:
109,192,42814,1,0,0:0:0:0:
475,192,42814,1,0,0:0:0:0:
402,192,42897,128,0,43147:0:0:0:0:
329,192,42939,128,0,43147:0:0:0:0:
256,192,42980,128,0,43147:0:0:0:0:
182,192,43147,128,0,43230:0:0:0:0:
402,192,43230,1,0,0:0:0:0:
109,192,43314,128,0,43397:0:0:0:0:
329,192,43397,1,0,0:0:0:0:
36,192,43480,128,8,43564:0:0:0:0:
256,192,43480,1,2,0:0:0:0:
475,192,43480,1,0,0:0:0:0:
182,192,43564,1,2,0:0:0:0:
329,192,43564,1,0,0:0:0:0:
109,192,43647,1,2,0:0:0:0:
402,192,43647,128,0,43730:0:0:0:0:
36,192,43730,1,2,0:0:0:0:
256,192,43730,1,0,0:0:0:0:
182,192,43814,1,0,0:0:0:0:
475,192,43814,1,0,0:0:0:0:
329,192,43869,1,0,0:0:0:0:
109,192,43980,1,2,0:0:0:0:
182,192,43980,1,0,0:0:0:0:
475,192,43980,128,0,44147:0:0:0:0:
329,192,44022,128,0,44189:0:0:0:0:
36,192,44147,128,0,44314:0:0:0:0:
182,192,44189,128,0,44355:0:0:0:0:
475,192,44314,128,0,44480:0:0:0:0:
329,192,44355,128,0,44522:0:0:0:0:
36,192,44480,128,2,44647:0:0:0:0:
256,192,44480,1,0,0:0:0:0:
182,192,44522,128,0,44689:0:0:0:0:
475,192,44647,128,0,44814:0:0:0:0:
329,192,44689,128,0,44855:0:0:0:0:
182,192,44814,128,8,44980:0:0:0:0:
402,192,44814,1,0,0:0:0:0:
109,192,44855,128,0,45022:0:0:0:0:
329,192,44980,128,0,45147:0:0:0:70:LR2_HatSH.wav
402,192,45022,128,0,45147:0:0:0:70:LR2_HatSH.wav
256,192,45064,1,0,0:0:0:70:LR2_HatSH.wav
109,192,45147,1,2,0:0:0:0:
475,192,45147,1,0,0:0:0:70:LR2_HatSH.wav
182,192,45189,1,0,0:0:0:70:LR2_HatSH.wav
256,192,45230,1,0,0:0:0:70:LR2_HatSH.wav
402,192,45314,1,0,0:0:0:70:LR2_HatSH.wav
329,192,45355,1,0,0:0:0:70:LR2_HatSH.wav
256,192,45397,1,0,0:0:0:70:LR2_HatSH.wav
36,192,45480,1,2,0:0:0:0:
109,192,45480,1,0,0:0:0:0:
475,192,45480,1,0,0:0:0:0:
402,192,45564,128,0,45814:0:0:0:0:
329,192,45605,128,0,45814:0:0:0:0:
256,192,45647,128,0,45814:0:0:0:0:
36,192,45814,1,2,0:0:0:0:
109,192,45814,1,0,0:0:0:0:
475,192,45814,1,0,0:0:0:0:
182,192,45897,128,0,45980:0:0:0:0:
329,192,45980,128,0,46147:0:0:0:0:
402,192,45980,128,0,46147:0:0:0:0:
36,192,46064,1,0,0:0:0:0:
182,192,46147,1,8,0:0:0:0:
256,192,46147,128,0,46230:0:0:0:0:
475,192,46147,1,0,0:0:0:0:
36,192,46314,1,2,0:0:0:0:
109,192,46314,1,0,0:0:0:0:
475,192,46314,1,0,0:0:0:0:
402,192,46397,128,0,46647:0:0:0:0:
329,192,46439,128,0,46647:0:0:0:0:
256,192,46480,128,0,46647:0:0:0:0:
36,192,46647,1,2,0:0:0:0:
109,192,46647,1,0,0:0:0:0:
475,192,46647,1,0,0:0:0:0:
182,192,46730,128,0,46897:0:0:0:0:
256,192,46772,128,0,46939:0:0:0:0:
329,192,46814,128,0,46980:0:0:0:0:
36,192,46897,1,0,0:0:0:0:
402,192,46980,1,0,0:0:0:0:
329,192,47064,1,0,0:0:0:0:
36,192,47147,1,2,0:0:0:0:
109,192,47147,1,0,0:0:0:0:
475,192,47147,1,0,0:0:0:0:
182,192,47230,128,0,47397:0:0:0:0:
256,192,47272,128,0,47439:0:0:0:0:
329,192,47314,128,0,47480:0:0:0:0:
109,192,47397,1,0,0:0:0:0:
182,192,47480,1,8,0:0:0:0:
256,192,47564,1,2,0:0:0:0:
36,192,47647,1,2,0:0:0:0:
109,192,47647,1,0,0:0:0:0:
475,192,47647,1,0,0:0:0:0:
182,192,47730,128,2,48147:0:0:0:0:
256,192,47772,128,0,48147:0:0:0:0:
329,192,47814,128,2,48147:0:0:0:0:
36,192,47897,1,2,0:0:0:0:
402,192,47980,1,2,0:0:0:0:
36,192,48147,1,4,0:0:0:0:
109,192,48147,1,2,0:0:0:0:
475,192,48147,1,0,0:0:0:70:LR_Scratch2.wav
402,192,48230,128,0,48480:0:0:0:0:
329,192,48272,128,0,48480:0:0:0:0:
256,192,48314,128,0,48480:0:0:0:0:
182,192,48480,128,0,48647:0:0:0:0:
329,192,48647,128,0,48814:0:0:0:0:
182,192,48730,1,0,0:0:0:0:
36,192,48814,128,8,48980:0:0:0:0:
256,192,48814,128,0,48980:0:0:0:0:
402,192,48814,128,0,48897:0:0:0:0:
475,192,48980,128,0,49147:0:0:0:0:
329,192,49147,128,0,49230:0:0:0:0:
182,192,49230,1,0,0:0:0:0:
36,192,49314,1,2,0:0:0:0:
402,192,49314,1,0,0:0:0:0:
475,192,49314,1,0,0:0:0:0:
109,192,49397,128,0,49564:0:0:0:0:
182,192,49439,128,0,49605:0:0:0:0:
256,192,49480,128,0,49647:0:0:0:0:
329,192,49564,1,0,0:0:0:0:
402,192,49647,1,0,0:0:0:0:
182,192,49730,1,0,0:0:0:0:
109,192,49814,1,2,0:0:0:0:
256,192,49814,1,0,0:0:0:0:
402,192,49814,128,0,49980:0:0:0:0:
329,192,49855,128,0,50022:0:0:0:0:
109,192,49980,128,0,50147:0:0:0:0:
182,192,50022,128,0,50189:0:0:0:0:
256,192,50147,1,8,0:0:0:0:
402,192,50147,128,0,50314:0:0:0:0:
329,192,50189,128,0,50355:0:0:0:0:
109,192,50314,128,0,50480:0:0:0:0:
182,192,50355,128,0,50522:0:0:0:0:
329,192,50480,1,0,0:0:0:70:LR2_HatSH.wav
402,192,50522,1,0,0:0:0:70:LR2_HatSH.wav
475,192,50564,1,0,0:0:0:70:LR2_HatSH.wav
182,192,50647,1,0,0:0:0:70:LR2_HatSH.wav
109,192,50689,1,0,0:0:0:70:LR2_HatSH.wav
36,192,50730,1,0,0:0:0:70:LR2_HatSH.wav
182,192,50814,1,2,0:0:0:0:
256,192,50814,1,0,0:0:0:0:
475,192,50814,1,0,0:0:0:0:
329,192,50897,128,0,51147:0:0:0:0:
402,192,50939,128,0,51147:0:0:0:0:
475,192,50980,128,0,51147:0:0:0:0:
182,192,51147,128,0,51230:0:0:0:0:
329,192,51230,1,0,0:0:0:0:
109,192,51314,128,0,51480:0:0:0:0:
256,192,51314,1,0,0:0:0:0:
182,192,51397,1,0,0:0:0:0:
36,192,51480,1,8,0:0:0:0:
329,192,51480,128,0,51564:0:0:0:0:
402,192,51480,1,0,0:0:0:0:
475,192,51480,1,0,0:0:0:0:
256,192,51564,128,0,51647:0:0:0:0:
402,192,51647,128,0,51730:0:0:0:0:
475,192,51647,128,0,51730:0:0:0:0:
329,192,51730,1,0,0:0:0:0:
182,192,51814,128,0,51897:0:0:0:0:
36,192,51897,128,0,51980:0:0:0:0:
109,192,51980,1,2,0:0:0:0:
256,192,51980,1,0,0:0:0:0:
329,192,51980,1,0,0:0:0:0:
475,192,52064,128,0,52314:0:0:0:0:
402,192,52105,128,0,52314:0:0:0:0:
329,192,52147,128,0,52314:0:0:0:0:
36,192,52314,128,0,52397:0:0:0:0:
256,192,52397,1,0,0:0:0:0:
182,192,52480,128,2,52564:0:0:0:0:
402,192,52480,1,0,0:0:0:0:
475,192,52480,1,0,0:0:0:0:
329,192,52564,1,0,0:0:0:0:
109,192,52647,128,0,52730:0:0:0:0:
256,192,52730,1,0,0:0:0:0:
36,192,52814,128,8,52897:0:0:0:0:
182,192,52814,1,0,0:0:0:0:
475,192,52814,1,0,0:0:0:0:
402,192,52980,1,0,0:0:0:70:LR2_HatSH.wav
329,192,53022,1,0,0:0:0:70:LR2_HatSH.wav
256,192,53064,1,0,0:0:0:70:LR2_HatSH.wav
36,192,53147,1,2,0:0:0:0:
109,192,53147,1,0,0:0:0:70:LR2_HatSH.wav
475,192,53147,1,0,0:0:0:0:
182,192,53189,1,0,0:0:0:70:LR2_HatSH.wav
256,192,53230,1,0,0:0:0:70:LR2_HatSH.wav
475,192,53314,1,0,0:0:0:70:LR2_HatSH.wav
402,192,53355,1,0,0:0:0:70:LR2_HatSH.wav
329,192,53397,1,0,0:0:0:70:LR2_HatSH.wav
36,192,53480,1,2,0:0:0:0:
256,192,53480,1,0,0:0:0:0:
475,192,53480,1,0,0:0:0:0:
109,192,53564,128,0,53814:0:0:0:0:
182,192,53605,128,0,53814:0:0:0:0:
256,192,53647,128,0,53814:0:0:0:0:
475,192,53814,128,0,53897:0:0:0:0:
329,192,53897,1,0,0:0:0:0:
402,192,53980,128,0,54064:0:0:0:0:
256,192,54064,1,0,0:0:0:0:
36,192,54147,1,8,0:0:0:0:
329,192,54147,128,0,54230:0:0:0:0:
475,192,54147,1,0,0:0:0:0:
109,192,54314,128,0,54397:0:0:0:0:
475,192,54480,128,0,54647:0:0:0:0:
36,192,54647,1,2,0:0:0:0:
109,192,54647,1,0,0:0:0:0:
402,192,54647,1,0,0:0:0:0:
182,192,54730,128,0,54980:0:0:0:0:
256,192,54772,128,0,55022:0:0:0:0:
329,192,54814,128,0,55064:0:0:0:0:
402,192,54897,1,0,0:0:0:0:
109,192,54980,1,0,0:0:0:0:
182,192,55064,1,0,0:0:0:0:
36,192,55147,1,2,0:0:0:0:
256,192,55147,1,0,0:0:0:0:
475,192,55147,1,0,0:0:0:0:
329,192,55230,128,0,55480:0:0:0:0:
256,192,55272,128,0,55522:0:0:0:0:
182,192,55314,128,0,55564:0:0:0:0:
36,192,55397,1,0,0:0:0:0:
109,192,55480,128,8,55564:0:0:0:0:
475,192,55480,1,0,0:0:0:0:
402,192,55564,1,0,0:0:0:0:
36,192,55647,1,2,0:0:0:0:
256,192,55647,1,0,0:0:0:0:
329,192,55647,1,0,0:0:0:0:
182,192,55814,128,0,55980:0:0:0:0:
329,192,55897,128,0,56064:0:0:0:0:
256,192,55980,1,0,0:0:0:0:
36,192,56147,128,0,56314:0:0:0:0:
182,192,56314,128,0,56480:0:0:0:0:
109,192,56480,128,0,56647:0:0:0:0:
475,192,56647,128,0,56814:0:0:0:0:
329,192,56814,128,0,56980:0:0:0:0:
402,192,56980,128,0,57147:0:0:0:0:
182,192,57147,1,0,0:0:0:0:
329,192,57230,1,0,0:0:0:0:
182,192,57314,1,0,0:0:0:0:
256,192,57397,1,0,0:0:0:0:
109,192,57480,1,8,0:0:0:0:
329,192,57480,1,4,0:0:0:0:
402,192,57480,1,0,0:0:0:0:
475,192,57480,1,0,0:0:0:0:
36,192,57564,128,0,57730:0:0:0:0:
182,192,57564,128,0,57730:0:0:0:0:
256,192,57564,128,0,57730:0:0:0:0:
329,192,57647,1,2,0:0:0:0:
402,192,57647,1,0,0:0:0:0:
475,192,57647,1,0,0:0:0:0:
329,192,57814,1,2,0:0:0:0:
402,192,57814,1,0,0:0:0:0:
475,192,57814,1,0,0:0:0:0:
256,192,57897,1,0,0:0:0:0:
329,192,57925,1,0,0:0:0:0:
402,192,57953,1,0,0:0:0:0:
36,192,57980,1,8,0:0:0:0:
109,192,57980,1,0,0:0:0:0:
182,192,57980,1,0,0:0:0:0:
475,192,57980,1,0,0:0:0:0:
256,192,58064,128,0,58230:0:0:0:0:
329,192,58064,128,0,58230:0:0:0:0:
402,192,58064,128,0,58230:0:0:0:0:
36,192,58147,1,2,0:0:0:0:
109,192,58147,1,0,0:0:0:0:
182,192,58147,1,0,0:0:0:0:
36,192,58314,1,2,0:0:0:0:
109,192,58314,1,0,0:0:0:0:
182,192,58314,1,0,0:0:0:0:
329,192,58397,1,0,0:0:0:0:
256,192,58425,1,0,0:0:0:0:
182,192,58453,1,0,0:0:0:0:
36,192,58480,128,8,58564:0:0:0:0:
109,192,58480,128,0,58564:0:0:0:0:
402,192,58480,128,0,58564:0:0:0:0:
475,192,58480,128,0,58564:0:0:0:0:
36,192,58647,128,8,58730:0:0:0:0:
109,192,58647,128,0,58730:0:0:0:0:
402,192,58647,128,0,58730:0:0:0:0:
475,192,58647,128,0,58730:0:0:0:0:
36,192,58814,1,4,0:0:0:0:
256,192,58814,1,2,0:0:0:0:
402,192,58814,1,0,0:0:0:70:LR_Scratch2.wav
475,192,58814,1,0,0:0:0:0:
109,192,58897,128,0,59147:0:0:0:0:
182,192,58939,128,0,59147:0:0:0:0:
256,192,58980,128,0,59147:0:0:0:0:
475,192,59147,128,0,59314:0:0:0:0:
329,192,59189,128,0,59355:0:0:0:0:
109,192,59314,128,2,59480:0:0:0:0:
402,192,59314,1,0,0:0:0:0:
182,192,59355,128,0,59522:0:0:0:0:
256,192,59480,1,8,0:0:0:0:
475,192,59480,128,0,59647:0:0:0:70:Cowbell.wav
329,192,59522,128,0,59689:0:0:0:0:
109,192,59647,128,0,59814:0:0:0:0:
182,192,59689,128,0,59855:0:0:0:0:
36,192,59814,1,2,0:0:0:0:
329,192,59814,128,0,59980:0:0:0:70:Cowbell.wav
475,192,59855,128,0,60022:0:0:0:0:
182,192,59980,128,0,60147:0:0:0:0:
109,192,60022,128,0,60147:0:0:0:0:
402,192,60147,128,0,60258:0:0:0:70:Cowbell.wav
329,192,60189,128,0,60314:0:0:0:0:
256,192,60230,128,0,60355:0:0:0:0:
36,192,60397,1,0,0:0:0:0:
182,192,60480,1,2,0:0:0:0:
256,192,60480,1,0,0:0:0:70:Cowbell.wav
475,192,60480,128,0,60647:0:0:0:0:
329,192,60522,128,0,60689:0:0:0:0:
36,192,60647,128,0,60814:0:0:0:0:
182,192,60689,128,0,60855:0:0:0:0:
256,192,60814,1,8,0:0:0:0:
475,192,60814,128,0,60980:0:0:0:70:Cowbell.wav
329,192,60855,128,0,61022:0:0:0:0:
36,192,60980,128,0,61147:0:0:0:0:
182,192,61022,128,0,61189:0:0:0:0:
109,192,61147,1,2,0:0:0:0:
256,192,61147,1,0,0:0:0:70:LR2_HatSH.wav
475,192,61147,1,0,0:0:0:0:
402,192,61189,1,0,0:0:0:70:LR2_HatSH.wav
329,192,61230,1,0,0:0:0:70:LR2_HatSH.wav
182,192,61314,1,0,0:0:0:70:LR2_HatSH.wav
109,192,61355,1,0,0:0:0:70:LR2_HatSH.wav
36,192,61397,1,0,0:0:0:70:LR2_HatSH.wav
256,192,61480,1,2,0:0:0:0:
402,192,61480,1,0,0:0:0:0:
475,192,61480,1,0,0:0:0:0:
109,192,61564,128,0,61814:0:0:0:0:
182,192,61605,128,0,61814:0:0:0:0:
256,192,61647,128,0,61814:0:0:0:0:
329,192,61814,128,0,61897:0:0:0:50:Cowbell.wav
182,192,61980,128,2,62064:0:0:0:0:
475,192,61980,1,0,0:0:0:0:
402,192,62064,1,0,0:0:0:0:
36,192,62147,1,8,0:0:0:0:
329,192,62147,128,0,62314:0:0:0:50:Cowbell.wav
182,192,62189,128,0,62355:0:0:0:0:
475,192,62314,128,0,62480:0:0:0:0:
36,192,62355,128,0,62522:0:0:0:0:
182,192,62480,128,2,62564:0:0:0:0:
329,192,62480,128,0,62564:0:0:0:50:Cowbell.wav
256,192,62647,128,0,62758:0:0:0:0:
329,192,62689,128,0,62814:0:0:0:0:
402,192,62730,128,0,62855:0:0:0:0:
475,192,62772,128,0,62897:0:0:0:0:
109,192,62814,1,0,0:0:0:50:Cowbell.wav
182,192,62980,128,0,63092:0:0:0:0:
109,192,63022,128,0,63147:0:0:0:0:
256,192,63147,1,2,0:0:0:0:
329,192,63147,128,0,63258:0:0:0:0:
402,192,63189,128,0,63314:0:0:0:0:
109,192,63314,128,0,63439:0:0:0:0:
182,192,63355,128,0,63480:0:0:0:0:
256,192,63397,1,0,0:0:0:0:
36,192,63480,1,8,0:0:0:0:
329,192,63480,128,0,63564:0:0:0:0:
475,192,63480,1,0,0:0:0:0:
182,192,63647,1,2,0:0:0:0:
475,192,63647,1,0,0:0:0:70:LR2_HatSH.wav
109,192,63689,1,0,0:0:0:70:LR2_HatSH.wav
36,192,63730,1,0,0:0:0:70:LR2_HatSH.wav
256,192,63814,1,0,0:0:0:70:LR2_HatSH.wav
182,192,63855,1,0,0:0:0:70:LR2_HatSH.wav
109,192,63897,1,0,0:0:0:70:LR2_HatSH.wav
329,192,63980,1,0,0:0:0:70:LR2_HatSH.wav
256,192,64022,1,0,0:0:0:70:LR2_HatSH.wav
182,192,64064,1,0,0:0:0:70:LR2_HatSH.wav
36,192,64147,1,2,0:0:0:0:
402,192,64147,128,0,64314:0:0:0:0:
475,192,64147,1,0,0:0:0:0:
109,192,64230,128,0,64314:0:0:0:0:
329,192,64480,128,0,64564:0:0:0:0:
329,192,64647,128,0,64730:0:0:0:0:
182,192,64730,128,0,64814:0:0:0:0:
36,192,64814,128,8,64897:0:0:0:0:
329,192,64814,1,0,0:0:0:50:Cowbell.wav
475,192,64814,1,0,0:0:0:0:
109,192,64980,1,2,0:0:0:0:
329,192,64980,1,0,0:0:0:0:
475,192,64980,1,0,0:0:0:0:
256,192,65064,128,0,65147:0:0:0:0:
182,192,65147,128,0,65314:0:0:0:70:Cowbell.wav
475,192,65314,128,0,65439:0:0:0:0:
402,192,65355,128,0,65480:0:0:0:0:
329,192,65397,128,0,65522:0:0:0:0:
36,192,65480,128,0,65605:0:0:0:70:Cowbell.wav
109,192,65522,128,0,65647:0:0:0:0:
182,192,65564,128,0,65647:0:0:0:0:
256,192,65647,1,0,0:0:0:0:
329,192,65730,1,0,0:0:0:0:
36,192,65814,1,2,0:0:0:0:
182,192,65814,128,0,65897:0:0:0:70:Cowbell.wav
475,192,65814,1,0,0:0:0:0:
329,192,65897,1,0,0:0:0:0:
256,192,65980,1,0,0:0:0:0:
475,192,65980,128,0,66064:0:0:0:0:
36,192,66064,1,0,0:0:0:0:
182,192,66147,128,8,66230:0:0:0:0:
329,192,66147,1,0,0:0:0:70:Cowbell.wav
256,192,66230,1,0,0:0:0:0:
36,192,66314,1,0,0:0:0:0:
475,192,66314,1,0,0:0:0:0:
182,192,66397,1,0,0:0:0:0:
329,192,66397,1,0,0:0:0:0:
36,192,66480,128,2,66564:0:0:0:0:
256,192,66480,128,0,66814:0:0:0:70:Cowbell.wav
475,192,66480,128,0,66564:0:0:0:0:
109,192,66647,128,0,66730:0:0:0:70:LR2_HatSH.wav
402,192,66647,128,0,66730:0:0:0:0:
36,192,66814,1,12,0:0:0:0:
329,192,66814,1,2,0:0:0:0:
475,192,66814,1,0,0:0:0:70:Cowbell.wav
182,192,66897,128,0,67480:0:0:0:70:LR2_HatSH.wav
109,192,66939,128,0,67480:0:0:0:0:
36,192,66980,128,0,67480:0:0:0:70:LR2_HatSH.wav
475,192,67064,1,0,0:0:0:70:LR2_HatSH.wav
402,192,67105,1,0,0:0:0:70:LR2_HatSH.wav
329,192,67147,1,0,0:0:0:70:Cowbell.wav
256,192,67230,1,0,0:0:0:70:LR2_HatSH.wav
402,192,67314,1,0,0:0:0:70:LR2_HatSH.wav
329,192,67397,1,0,0:0:0:70:LR2_HatSH.wav
256,192,67480,1,8,0:0:0:0:
475,192,67480,1,0,0:0:0:70:Cowbell.wav
402,192,67564,1,0,0:0:0:70:LR2_HatSH.wav
182,192,67647,1,0,0:0:0:70:LR2_HatSH.wav
256,192,67689,1,0,0:0:0:70:LR2_HatSH.wav
329,192,67730,1,0,0:0:0:70:LR2_HatSH.wav
36,192,67814,1,2,0:0:0:0:
109,192,67814,1,4,0:0:0:0:
182,192,67814,1,0,0:0:0:70:LR2_HatSH.wav
475,192,67814,1,0,0:0:0:0:
329,192,67897,128,0,68314:0:0:0:70:LR2_HatSH.wav
402,192,67939,128,0,68314:0:0:0:0:
475,192,67980,128,0,68314:0:0:0:70:LR2_HatSH.wav
182,192,68022,1,0,0:0:0:70:LR2_HatSH.wav
109,192,68064,1,0,0:0:0:70:LR2_HatSH.wav
36,192,68105,1,0,0:0:0:70:LR2_HatSH.wav
256,192,68147,1,0,0:0:0:70:LR2_HatSH.wav
109,192,68230,1,0,0:0:0:70:LR2_HatSH.wav
182,192,68314,1,0,0:0:0:70:LR2_HatSH.wav
329,192,68397,1,0,0:0:0:70:LR2_HatSH.wav
36,192,68480,1,2,0:0:0:0:
109,192,68480,1,4,0:0:0:0:
182,192,68480,1,0,0:0:0:70:LR2_HatSH.wav
475,192,68480,1,0,0:0:0:0:
256,192,68522,1,0,0:0:0:0:
329,192,68564,128,0,68980:0:0:0:70:LR2_HatSH.wav
402,192,68605,128,0,68980:0:0:0:0:
475,192,68647,128,0,68980:0:0:0:70:LR2_HatSH.wav
36,192,68730,1,0,0:0:0:70:LR2_HatSH.wav
109,192,68814,1,8,0:0:0:0:
256,192,68897,1,0,0:0:0:70:LR2_HatSH.wav
182,192,68939,1,0,0:0:0:70:LR2_HatSH.wav
36,192,68980,1,6,0:0:0:0:
109,192,68980,1,0,0:0:0:70:LR2_HatSH.wav
256,192,69064,128,0,69147:0:0:0:70:LR2_HatSH.wav
329,192,69105,128,0,69189:0:0:0:0:
402,192,69147,128,0,69230:0:0:0:70:LR2_HatSH.wav
109,192,69189,128,0,69272:0:0:0:70:LR2_HatSH.wav
182,192,69230,128,0,69314:0:0:0:70:LR2_HatSH.wav
256,192,69272,128,0,69355:0:0:0:0:
475,192,69314,1,0,0:0:0:70:LR2_HatSH.wav
402,192,69355,1,0,0:0:0:70:LR2_HatSH.wav
329,192,69397,1,0,0:0:0:70:LR2_HatSH.wav
36,192,69480,1,4,0:0:0:0:
109,192,69480,1,2,0:0:0:0:
256,192,69480,1,0,0:0:0:70:LR_Scratch2.wav
475,192,69480,1,0,0:0:0:0:
402,192,69564,128,0,69730:0:0:0:0:
329,192,69605,128,0,69772:0:0:0:0:
256,192,69647,128,0,69814:0:0:0:0:
36,192,69814,128,0,69980:0:0:0:0:
109,192,69855,128,0,70022:0:0:0:0:
182,192,69980,1,2,0:0:0:0:
475,192,69980,128,0,70147:0:0:0:0:
402,192,70022,128,0,70189:0:0:0:0:
36,192,70147,128,8,70314:0:0:0:0:
256,192,70147,1,0,0:0:0:70:Cowbell.wav
109,192,70189,128,0,70355:0:0:0:0:
475,192,70314,128,0,70480:0:0:0:0:
402,192,70355,128,0,70522:0:0:0:0:
109,192,70480,128,2,70647:0:0:0:0:
329,192,70480,1,0,0:0:0:70:Cowbell.wav
36,192,70522,128,0,70689:0:0:0:0:
402,192,70647,128,0,70814:0:0:0:0:
475,192,70689,128,0,70814:0:0:0:0:
256,192,70730,1,0,0:0:0:0:
36,192,70814,128,0,70897:0:0:0:70:Cowbell.wav
182,192,70897,1,0,0:0:0:0:
109,192,70980,1,0,0:0:0:0:
256,192,71064,1,0,0:0:0:0:
182,192,71147,1,2,0:0:0:0:
402,192,71147,1,0,0:0:0:70:Cowbell.wav
475,192,71147,1,0,0:0:0:0:
109,192,71230,1,0,0:0:0:0:
329,192,71314,128,0,71480:0:0:0:0:
475,192,71355,128,0,71522:0:0:0:0:
36,192,71480,128,8,71647:0:0:0:0:
256,192,71480,1,0,0:0:0:70:Cowbell.wav
182,192,71522,128,0,71689:0:0:0:0:
475,192,71647,128,0,71814:0:0:0:0:
329,192,71689,128,0,71855:0:0:0:0:
36,192,71814,1,2,0:0:0:0:
256,192,71814,1,0,0:0:0:70:LR2_HatSH.wav
109,192,71855,1,0,0:0:0:70:LR2_HatSH.wav
182,192,71897,1,0,0:0:0:70:LR2_HatSH.wav
475,192,71980,1,0,0:0:0:70:LR2_HatSH.wav
329,192,72022,1,0,0:0:0:70:LR2_HatSH.wav
182,192,72064,1,0,0:0:0:70:LR2_HatSH.wav
36,192,72147,1,2,0:0:0:0:
256,192,72147,1,0,0:0:0:0:
475,192,72147,1,0,0:0:0:0:
182,192,72230,128,0,72480:0:0:0:0:
109,192,72272,128,0,72480:0:0:0:0:
36,192,72314,128,0,72480:0:0:0:0:
329,192,72480,1,0,0:0:0:50:Cowbell.wav
475,192,72480,128,0,72564:0:0:0:0:
36,192,72647,1,2,0:0:0:0:
256,192,72647,128,0,72730:0:0:0:0:
402,192,72647,1,0,0:0:0:0:
182,192,72730,1,0,0:0:0:0:
109,192,72814,1,8,0:0:0:0:
329,192,72814,128,0,72897:0:0:0:50:Cowbell.wav
475,192,72814,1,0,0:0:0:0:
36,192,72980,1,0,0:0:0:0:
109,192,73147,1,2,0:0:0:0:
182,192,73147,1,0,0:0:0:50:Cowbell.wav
402,192,73147,128,0,73230:0:0:0:0:
256,192,73314,128,0,73397:0:0:0:0:
182,192,73397,1,0,0:0:0:0:
329,192,73480,1,0,0:0:0:50:Cowbell.wav
475,192,73480,1,0,0:0:0:0:
475,192,73647,128,0,73730:0:0:0:0:
36,192,73814,1,2,0:0:0:0:
182,192,73814,128,0,73897:0:0:0:0:
402,192,73814,1,0,0:0:0:0:
256,192,73897,1,0,0:0:0:0:
109,192,73980,128,0,74064:0:0:0:0:
36,192,74147,128,8,74230:0:0:0:0:
256,192,74147,1,0,0:0:0:70:Cowbell.wav
475,192,74147,1,0,0:0:0:0:
182,192,74314,1,2,0:0:0:0:
402,192,74314,1,0,0:0:0:70:LR2_HatSH.wav
475,192,74314,1,0,0:0:0:0:
256,192,74355,1,0,0:0:0:70:LR2_HatSH.wav
329,192,74397,1,0,0:0:0:70:LR2_HatSH.wav
109,192,74480,1,0,0:0:0:70:LR2_HatSH.wav
182,192,74522,1,0,0:0:0:70:LR2_HatSH.wav
256,192,74564,1,0,0:0:0:70:LR2_HatSH.wav
36,192,74647,1,0,0:0:0:70:LR2_HatSH.wav
109,192,74689,1,0,0:0:0:70:LR2_HatSH.wav
182,192,74730,1,0,0:0:0:70:LR2_HatSH.wav
475,192,74814,128,0,76480:0:0:0:0:
182,192,75480,1,0,0:0:0:0:
36,192,75647,1,0,0:0:0:0:
256,192,75814,1,0,0:0:0:0:
109,192,75980,1,0,0:0:0:0:
329,192,76147,1,0,0:0:0:0:
182,192,76314,1,0,0:0:0:0:
329,192,76480,1,0,0:0:0:0:
402,192,76647,1,0,0:0:0:0:
256,192,76814,1,0,0:0:0:0:
329,192,76980,1,0,0:0:0:0:
475,192,77147,1,0,0:0:0:0:
402,192,77314,1,0,0:0:0:0:
182,192,77480,1,0,0:0:0:0:
256,192,77647,1,0,0:0:0:0:
329,192,77814,1,0,0:0:0:0:
182,192,77980,1,0,0:0:0:0:
402,192,78147,1,0,0:0:0:0:
256,192,78314,1,0,0:0:0:0:
109,192,78480,1,0,0:0:0:0:
182,192,78647,1,0,0:0:0:0:
36,192,78814,1,0,0:0:0:0:
475,192,78980,1,0,0:0:0:0:
109,192,79147,1,0,0:0:0:0:
402,192,79314,1,0,0:0:0:0:
36,192,79480,1,0,0:0:0:0:
475,192,79647,1,0,0:0:0:0:
182,192,79814,128,0,80147:0:0:0:0:
475,192,80147,128,0,80397:0:0:0:70:LR_Chm Echo long.wav
475,192,80480,128,0,80730:0:0:0:0:
475,192,80814,128,0,81064:0:0:0:0:
475,192,81147,128,0,81314:0:0:0:0:
475,192,81480,128,0,81647:0:0:0:0:
475,192,81814,128,0,81980:0:0:0:0:
475,192,82147,128,0,82230:0:0:0:0:
475,192,82480,128,0,82564:0:0:0:0:
475,192,82814,1,0,0:0:0:0:
256,192,84147,1,0,0:0:0:0:
475,192,84147,1,0,0:0:0:0:
402,192,84647,1,0,0:0:0:0:
475,192,84814,1,0,0:0:0:0:
109,192,85147,1,0,0:0:0:0:
256,192,85814,1,0,0:0:0:0:
109,192,86147,1,0,0:0:0:0:
36,192,86480,1,0,0:0:0:0:
256,192,86814,1,0,0:0:0:0:
475,192,86814,1,0,0:0:0:0:
329,192,87147,1,0,0:0:0:0:
256,192,87314,1,0,0:0:0:0:
182,192,87480,1,0,0:0:0:0:
256,192,87814,1,0,0:0:0:0:
475,192,87814,1,0,0:0:0:0:
329,192,88480,1,0,0:0:0:0:
109,192,88814,1,0,0:0:0:0:
402,192,88814,1,0,0:0:0:0:
182,192,89147,1,0,0:0:0:0:
329,192,89147,1,0,0:0:0:0:
402,192,89480,1,0,0:0:0:0:
475,192,89480,1,0,0:0:0:0:
256,192,89814,1,0,0:0:0:0:
329,192,90147,1,0,0:0:0:0:
182,192,90480,1,0,0:0:0:0:
329,192,90824,1,0,0:0:0:0:
402,192,91193,1,0,0:0:0:0:
475,192,91639,1,0,0:0:0:0:
256,192,92134,1,0,0:0:0:0:
182,192,92865,1,0,0:0:0:0:
36,192,92921,1,0,0:0:0:0:
329,192,94669,1,0,0:0:0:0:
475,192,94722,1,0,0:0:0:0:
475,192,97240,1,0,0:0:0:0:
402,192,97605,1,0,0:0:0:0:
329,192,98014,1,0,0:0:0:0:
256,192,98430,128,0,100572:0:0:0:0:
36,192,100572,1,0,0:0:0:0:
182,192,100632,1,0,0:0:0:0:
