osu file format v14

[General]
AudioFilename: audio.mp3
AudioLeadIn: 0
PreviewTime: 36135
Countdown: 0
SampleSet: Soft
StackLeniency: 1
Mode: 0
LetterboxInBreaks: 0
WidescreenStoryboard: 1

[Editor]
Bookmarks: 11801,15468,16135,21468,26135,26468,26802,35468,35635,35802,35968,36135,37468,38468,39802,41135,41635,41802,42302,42468,42635,42802,43802,43968,44802,44885,44968,45052,45135,45218,45302,45385,45468,45802,45885,45968,46302,46635,47135,47635,48135,49302,49802,51135,51302,51468,51635,51802,51968,52302,52385,52552,52635,53135,53302,53468,53802,53885,53968,54052,54135,54635,55135,55635,55802,57135,58802,62968,64135,64468,64635,64718,64802,64968,65051,65135,65302,65635,65802,65968,66135,66218,66302,66468,66635,66802,67635,67802,68302,68468,68968,69468,73468,74802,75468,75802,76135,76468,76802,77135,77468,77802,78135,78468,78635,78802,79135,79468,79802,80135,80468,80802,81135,81468,81802,82135,82468,84135,84802,85135,85802,86135,86468,86802,87135,87302,87468,87802,88468,88802,89135,89468,89802,90135,90468,90802,91135,91635,92135,92802,94635,94718,94802,97218,97552,97968,98468,100635
DistanceSpacing: 1.1
BeatDivisor: 2
GridSize: 4
TimelineZoom: 0.4999998

[Metadata]
Title:Colors
TitleUnicode:Colors
Artist:ARForest
ArtistUnicode:ARForest
Creator:Renaylria
Version:Verdant
Source:
Tags:Oriental Future Electronic
BeatmapID:1406902
BeatmapSetID:658371

[Difficulty]
HPDrainRate:2
CircleSize:3
OverallDifficulty:2
ApproachRate:3
SliderMultiplier:0.9
SliderTickRate:1

[Events]
//Background and Video events
0,0,"background.jpg",0,0
//Break Periods
//Storyboard Layer 0 (Background)
//Storyboard Layer 1 (Fail)
//Storyboard Layer 2 (Pass)
//Storyboard Layer 3 (Foreground)
//Storyboard Layer 4 (Overlay)
//Storyboard Sound Samples

[TimingPoints]
4130,333.333333333333,4,2,1,30,1,0
5463,-125,4,2,1,30,0,0
36129,-125,4,2,1,50,0,0
37463,-125,4,2,1,50,0,1
56129,-125,4,2,1,50,0,0
58796,-125,4,2,1,50,0,1
74796,-125,4,2,1,50,0,0
75463,-125,4,2,1,30,0,0
82463,-125,4,2,1,5,0,0

[Colours]
Combo1 : 157,60,255
Combo2 : 32,255,32
Combo3 : 0,255,255
Combo4 : 255,255,0
Combo5 : 255,128,0
Combo6 : 255,51,51

[HitObjects]
157,165,5463,5,0,0:0:0:0:
220,116,5796,2,0,P|267:110|302:119,1,72
351,165,6463,2,0,P|357:212|348:247,1,72
220,116,7463,6,0,P|172:116|144:140,1,72
80,159,8129,2,0,P|129:206|211:181,1,144
274,170,9129,1,0,0:0:0:0:
330,225,9463,2,0,P|326:285|258:341,2,144
416,108,11796,6,0,B|288:44|264:180|128:120,1,288
116,44,13463,2,0,P|59:115|152:212,2,216
277,45,16129,5,2,0:0:0:0:
339,93,16463,2,0,P|371:141|375:165,1,72,0|8,0:0|0:0,0:0:0:0:
295,162,17129,2,0,P|275:214|275:242,1,72
362,313,18129,5,8,0:0:0:0:
381,236,18463,1,0,0:0:0:0:
304,257,18796,2,0,P|268:265|224:253,1,72
157,238,19463,5,8,0:0:0:0:
195,168,19796,1,0,0:0:0:0:
179,90,20129,2,0,P|150:58|114:45,1,72
44,44,20796,2,0,P|11:72|-2:108,1,72,8|0,0:0|0:0,0:0:0:0:
14,175,21463,6,0,B|90:283|206:242,1,216
200,243,24129,6,0,B|90:283|14:175,1,216
248,136,26129,1,0,0:0:0:0:
163,98,26796,6,4,B|131:194|131:194|159:330|139:314|299:412|315:244,1,432,4|0,0:0|0:0,0:0:0:0:
288,95,29463,2,0,B|340:88|372:152|372:152|436:144|476:196|476:272|440:308|344:328|314:250,1,432,4|0,0:0|0:0,0:0:0:0:
193,125,32129,2,0,B|205:232|89:224|181:356|181:356|209:258|327:249,1,432,4|0,0:0|0:0,0:0:0:0:
432,150,34796,6,0,B|381:163|286:123|286:123|342:172|310:263,1,288,4|2,0:0|0:0,0:0:0:0:
284,96,37463,6,0,P|196:120|168:172,1,144,12|0,0:0|0:0,0:0:0:0:
172,240,38463,2,0,P|220:308|296:292,2,144
170,161,40129,5,12,0:0:0:0:
249,155,40463,1,0,0:0:0:0:
303,211,40796,1,0,0:0:0:0:
355,270,41129,2,0,L|366:123,2,144
350,349,42796,1,12,0:0:0:0:
275,376,43129,2,0,P|165:348|136:240,1,216
268,181,44796,5,0,0:0:0:0:
259,102,45129,1,0,0:0:0:0:
202,45,45463,2,0,P|138:39|100:48,1,72
56,67,46129,1,0,0:0:0:0:
71,242,46629,6,12,P|105:282|158:292,2,108
169,170,48129,1,6,0:0:0:0:
120,52,49296,6,0,P|200:48|252:64,1,108,12|0,0:0|0:0,0:0:0:0:
275,116,50129,1,0,0:0:0:0:
354,114,50463,1,0,0:0:0:0:
395,46,50796,2,0,B|441:93|441:93|440:143|440:143|469:188|469:188|451:232|451:232|452:289,1,252,12|0,0:0|0:0,0:0:0:0:
347,324,52463,5,0,0:0:0:0:
316,250,52796,1,0,0:0:0:0:
339,174,53129,1,0,0:0:0:0:
397,125,53463,2,0,P|341:77|245:93,1,144,12|0,0:0|0:0,0:0:0:0:
165,125,54629,6,0,P|193:170|242:191,2,108
256,192,56129,8,6,57463,0:0:0:0:
154,147,58796,6,0,P|140:217|152:240,1,72,4|8,0:0|0:0,0:0:0:0:
183,280,59463,1,0,0:0:0:0:
259,299,59796,1,8,0:0:0:0:
331,266,60129,2,8,P|359:230|363:182,1,72,0|8,0:0|0:0,0:0:0:0:
326,135,60796,1,0,0:0:0:0:
257,94,61129,1,8,0:0:0:0:
181,118,61463,6,0,P|153:154|149:202,1,72,0|8,0:0|0:0,0:0:0:0:
215,219,62129,2,0,P|220:264|206:310,1,72,0|8,0:0|0:0,0:0:0:0:
141,320,62796,1,0,0:0:0:0:
172,128,63463,5,0,0:0:0:0:
104,88,63796,1,8,0:0:0:0:
108,164,64129,2,0,L|112:248,1,72
114,305,64796,6,0,P|75:293|48:274,1,72,0|8,0:0|0:0,0:0:0:0:
9,206,65463,1,0,0:0:0:0:
2,127,65796,1,8,0:0:0:0:
46,61,66129,1,0,0:0:0:0:
118,29,66463,1,8,0:0:0:0:
197,34,66796,6,0,P|273:30|357:38,1,144,12|0,0:0|0:0,0:0:0:0:
402,84,67796,2,12,B|324:143|333:206|333:206|199:194|206:301|241:347,1,360,12|6,0:0|0:0,0:0:0:0:
179,180,70129,6,0,P|215:148|253:137,1,72,0|8,0:0|0:0,0:0:0:0:
312,162,70796,1,0,0:0:0:0:
387,186,71129,1,8,0:0:0:0:
445,132,71463,1,0,0:0:0:0:
429,54,71796,1,8,0:0:0:0:
354,41,72129,6,0,P|350:77|362:117,1,72,0|8,0:0|0:0,0:0:0:0:
387,186,72796,1,0,0:0:0:0:
323,233,73129,1,8,0:0:0:0:
258,278,73463,6,0,B|211:269|180:288|180:288|239:229|225:138|153:111,1,288,0|6,0:0|0:0,0:0:0:0:
48,214,75463,5,0,0:0:0:0:
16,157,75796,1,0,0:0:0:0:
28,93,76129,1,0,0:0:0:0:
69,44,76463,1,0,0:0:0:0:
130,22,76796,1,0,0:0:0:0:
193,38,77129,1,0,0:0:0:0:
237,90,77463,6,0,P|265:70|305:58,1,72
297,138,78129,1,0,0:0:0:0:
273,198,78463,1,0,0:0:0:0:
217,230,78796,1,0,0:0:0:0:
153,230,79129,1,0,0:0:0:0:
97,198,79463,1,0,0:0:0:0:
73,138,79796,1,0,0:0:0:0:
256,192,80129,12,0,82463,0:0:0:0:
