osu file format v14

[General]
AudioFilename: audio.mp3
AudioLeadIn: 0
PreviewTime: 5546
Countdown: 0
SampleSet: Soft
StackLeniency: 0.7
Mode: 3
LetterboxInBreaks: 0
SpecialStyle: 0
WidescreenStoryboard: 1

[Editor]
DistanceSpacing: 0.8
BeatDivisor: 4
GridSize: 4
TimelineZoom: 5.699997

[Metadata]
Title:Colors (Cut Ver.)
TitleUnicode:Colors (Cut Ver.)
Artist:ARForest
ArtistUnicode:ARForest
Creator:Scotty
Version:Normal
Source:osu!
Tags:electronic instrumental featured artist fa mappers' guild mg future bass colours
BeatmapID:2588588
BeatmapSetID:1244884

[Difficulty]
HPDrainRate:7
CircleSize:4
OverallDifficulty:7
ApproachRate:5
SliderMultiplier:1.4
SliderTickRate:1

[Events]
//Background and Video events
0,0,"e.jpeg",0,0
//Break Periods
//Storyboard Layer 0 (Background)
//Storyboard Layer 1 (Fail)
//Storyboard Layer 2 (Pass)
//Storyboard Layer 3 (Foreground)
//Storyboard Layer 4 (Overlay)
//Storyboard Sound Samples

[TimingPoints]
5547,333.333333333333,4,2,1,30,1,0
26880,-100,4,2,1,45,0,0
37546,-100,4,2,1,60,0,0

[HitObjects]
64,192,5546,5,0,0:0:0:0:
192,192,5546,1,0,0:0:0:70:Trambolined_Short.wav
320,192,5880,1,0,0:0:0:0:
448,192,6213,1,0,0:0:0:0:
192,192,6546,1,0,0:0:0:0:
64,192,6880,1,0,0:0:0:0:
192,192,7546,1,0,0:0:0:0:
320,192,7880,1,0,0:0:0:0:
448,192,8213,1,0,0:0:0:0:
64,192,8880,1,0,0:0:0:0:
320,192,9213,1,0,0:0:0:0:
448,192,9546,128,0,10213:0:0:0:0:
64,192,10213,128,0,10880:0:0:0:0:
448,192,10880,1,0,0:0:0:0:
192,192,11213,1,0,0:0:0:0:
320,192,11380,1,0,0:0:0:0:
64,192,11546,1,0,0:0:0:0:
448,192,11880,1,0,0:0:0:0:
320,192,12046,1,0,0:0:0:0:
64,192,12213,1,0,0:0:0:0:
192,192,12546,1,0,0:0:0:0:
448,192,12713,1,0,0:0:0:0:
320,192,12880,1,0,0:0:0:0:
64,192,13213,1,0,0:0:0:0:
192,192,13380,1,0,0:0:0:0:
320,192,13546,1,0,0:0:0:0:
64,192,13880,1,0,0:0:0:0:
320,192,14046,1,0,0:0:0:0:
448,192,14213,1,0,0:0:0:0:
192,192,14546,1,0,0:0:0:0:
320,192,14713,1,0,0:0:0:0:
448,192,14880,1,0,0:0:0:0:
192,192,15046,1,0,0:0:0:0:
64,192,15213,1,0,0:0:0:0:
320,192,15380,1,0,0:0:0:0:
448,192,15546,128,0,15713:0:0:0:0:
64,192,15713,128,0,15880:0:0:0:0:
192,192,15880,128,0,16046:0:0:0:0:
320,192,16046,128,0,16213:0:0:0:0:
64,192,16213,1,0,0:0:0:70:Trambolined_Short.wav
448,192,16213,1,0,0:0:0:0:
192,192,16546,1,0,0:0:0:0:
448,192,16880,1,0,0:0:0:40:clap.wav
320,192,16880,1,0,0:0:0:0:
192,192,17213,1,0,0:0:0:0:
64,192,17546,1,0,0:0:0:0:
448,192,18213,1,0,0:0:0:40:clap.wav
64,192,18213,1,0,0:0:0:0:
192,192,18546,1,0,0:0:0:0:
320,192,18880,1,0,0:0:0:0:
64,192,19546,1,0,0:0:0:40:clap.wav
192,192,19546,1,0,0:0:0:0:
320,192,19880,1,0,0:0:0:0:
448,192,20213,1,0,0:0:0:0:
64,192,20546,1,0,0:0:0:0:
320,192,20880,1,0,0:0:0:40:clap.wav
192,192,20880,1,0,0:0:0:0:
448,192,21213,1,0,0:0:0:0:
192,192,21546,1,0,0:0:0:0:
64,192,21713,1,0,0:0:0:0:
320,192,21880,1,0,0:0:0:0:
192,192,22046,1,0,0:0:0:0:
448,192,22213,1,0,0:0:0:40:clap.wav
64,192,22213,1,0,0:0:0:0:
320,192,22380,1,0,0:0:0:0:
192,192,22546,1,0,0:0:0:0:
448,192,22713,1,0,0:0:0:0:
64,192,22880,1,0,0:0:0:0:
320,192,23046,1,0,0:0:0:0:
192,192,23213,1,0,0:0:0:0:
448,192,23380,1,0,0:0:0:0:
64,192,23546,1,0,0:0:0:40:clap.wav
320,192,23546,1,0,0:0:0:0:
192,192,23713,1,0,0:0:0:0:
448,192,23880,1,0,0:0:0:0:
64,192,24046,1,0,0:0:0:0:
320,192,24213,1,0,0:0:0:0:
192,192,24380,1,0,0:0:0:0:
448,192,24546,1,0,0:0:0:0:
64,192,24713,1,0,0:0:0:0:
192,192,24880,1,0,0:0:0:40:clap.wav
320,192,24880,1,0,0:0:0:0:
448,192,25046,1,0,0:0:0:0:
64,192,25213,128,0,26713:0:0:0:0:
448,192,26213,1,0,0:0:0:40:clap.wav
320,192,26546,1,0,0:0:0:0:
192,192,26713,1,0,0:0:0:0:
448,192,26880,1,0,0:0:0:70:Trambolined_Short.wav
64,192,26880,1,0,0:0:0:30:snare.wav
320,192,27380,1,0,0:0:0:30:snare.wav
320,192,27546,1,0,0:0:0:30:snare.wav
320,192,27880,1,0,0:0:0:30:snare.wav
192,192,28380,1,0,0:0:0:30:snare.wav
192,192,28546,1,0,0:0:0:30:snare.wav
192,192,28880,1,0,0:0:0:30:snare.wav
320,192,29546,1,0,0:0:0:30:snare.wav
64,192,30046,1,0,0:0:0:30:snare.wav
64,192,30213,1,0,0:0:0:30:snare.wav
64,192,30546,1,0,0:0:0:30:snare.wav
448,192,31046,1,0,0:0:0:30:snare.wav
448,192,31213,1,0,0:0:0:30:snare.wav
192,192,31380,1,0,0:0:0:30:snare.wav
192,192,31546,1,0,0:0:0:30:snare.wav
64,192,31880,128,0,32046:0:0:0:30:snare2.wav
320,192,32046,128,0,32213:0:0:0:30:snare2.wav
64,192,32213,1,0,0:0:0:30:snare.wav
448,192,32380,1,0,0:0:0:30:snare.wav
448,192,32546,1,0,0:0:0:30:snare.wav
448,192,32880,1,0,0:0:0:30:snare.wav
64,192,33213,1,0,0:0:0:30:snare.wav
64,192,33380,1,0,0:0:0:30:snare.wav
320,192,33713,1,0,0:0:0:30:snare.wav
320,192,33880,1,0,0:0:0:30:snare.wav
192,192,34046,1,0,0:0:0:30:snare.wav
192,192,34213,1,0,0:0:0:30:snare.wav
64,192,34546,1,0,0:0:0:0:
320,192,34713,1,0,0:0:0:0:
448,192,34880,128,0,35046:0:0:0:30:snare2.wav
64,192,35046,128,0,35213:0:0:0:30:snare2.wav
448,192,35213,128,0,35380:0:0:0:30:snare2.wav
64,192,35380,128,0,35546:0:0:0:30:snare2.wav
320,192,35546,128,0,35713:0:0:0:35:snare2.wav
192,192,35713,128,0,35880:0:0:0:35:snare2.wav
320,192,35880,128,0,36046:0:0:0:35:snare2.wav
192,192,36046,128,0,36213:0:0:0:35:snare2.wav
448,192,36213,128,0,37046:0:0:0:0:
320,192,36546,128,0,37046:0:0:0:0:
64,192,37046,1,2,0:0:0:0:
320,192,37213,1,2,0:0:0:0:
192,192,37380,1,2,0:0:0:0:
64,192,37546,1,2,0:0:0:0:
448,192,37546,128,4,37880:0:0:0:0:
320,192,37713,128,0,37880:0:0:0:0:
192,192,37880,1,0,0:0:0:0:
64,192,38046,1,2,0:0:0:0:
448,192,38213,1,8,0:0:0:0:
320,192,38213,1,0,0:0:0:0:
192,192,38380,1,0,0:0:0:0:
64,192,38546,128,2,38880:0:0:0:0:
448,192,38880,1,0,0:0:0:0:
192,192,39046,1,0,0:0:0:0:
448,192,39213,1,2,0:0:0:0:
192,192,39380,1,0,0:0:0:0:
448,192,39546,1,8,0:0:0:0:
64,192,39546,1,0,0:0:0:0:
192,192,39713,1,0,0:0:0:0:
320,192,39880,1,2,0:0:0:0:
64,192,40046,1,0,0:0:0:0:
448,192,40213,128,2,40546:0:0:0:0:
192,192,40380,128,0,40546:0:0:0:0:
64,192,40546,1,0,0:0:0:0:
192,192,40713,1,2,0:0:0:0:
320,192,40880,1,8,0:0:0:0:
448,192,40880,1,0,0:0:0:0:
64,192,41046,1,0,0:0:0:30:snare2.wav
448,192,41213,128,2,41713:0:0:0:0:
320,192,41546,128,0,41713:0:0:0:0:
64,192,41713,128,0,41880:0:0:0:0:
448,192,41880,128,2,42213:0:0:0:0:
64,192,42213,1,8,0:0:0:0:
192,192,42213,1,0,0:0:0:0:
320,192,42380,1,2,0:0:0:0:
192,192,42546,1,0,0:0:0:40:clap.wav
320,192,42713,1,0,0:0:0:40:clap.wav
64,192,42880,128,2,43213:0:0:0:0:
448,192,43046,128,0,43213:0:0:0:0:
320,192,43213,1,0,0:0:0:0:
192,192,43380,1,0,0:0:0:0:
64,192,43546,1,8,0:0:0:0:
448,192,43546,1,0,0:0:0:0:
192,192,43713,1,0,0:0:0:0:
320,192,43880,1,0,0:0:0:0:
64,192,44046,1,2,0:0:0:0:
448,192,44213,1,0,0:0:0:0:
64,192,44380,1,0,0:0:0:0:
448,192,44546,1,2,0:0:0:0:
64,192,44713,1,0,0:0:0:0:
448,192,44880,1,8,0:0:0:0:
320,192,44880,1,0,0:0:0:0:
64,192,45046,1,0,0:0:0:0:
320,192,45213,1,2,0:0:0:0:
448,192,45380,1,0,0:0:0:0:
64,192,45546,128,2,45880:0:0:0:0:
448,192,45880,1,2,0:0:0:0:
320,192,45963,1,0,0:0:0:0:
192,192,46046,128,0,46213:0:0:0:0:
64,192,46213,1,8,0:0:0:0:
320,192,46213,1,0,0:0:0:0:
448,192,46380,128,2,46713:0:0:0:0:
320,192,46546,128,0,46713:0:0:0:0:
192,192,46713,128,2,47213:0:0:0:0:
320,192,47046,128,0,47213:0:0:0:0:
64,192,47213,128,2,47713:0:0:0:0:
192,192,47546,128,8,47713:0:0:0:0:
448,192,47713,128,2,48213:0:0:0:0:
320,192,48046,128,0,48213:0:0:0:0:
192,192,48213,1,2,0:0:0:0:
64,192,48213,128,4,48546:0:0:0:0:
320,192,48380,128,0,48546:0:0:0:0:
448,192,48546,128,0,48713:0:0:0:0:
192,192,48713,128,0,48880:0:0:0:0:
64,192,48880,128,8,49046:0:0:0:0:
448,192,48880,1,0,0:0:0:0:
320,192,49046,128,0,49213:0:0:0:0:
448,192,49380,128,2,49880:0:0:0:0:
320,192,49713,128,0,49880:0:0:0:0:
192,192,49880,1,2,0:0:0:0:
320,192,50046,1,0,0:0:0:0:
192,192,50213,1,8,0:0:0:0:
64,192,50213,1,0,0:0:0:0:
320,192,50380,1,0,0:0:0:0:
192,192,50546,1,0,0:0:0:0:
448,192,50713,1,0,0:0:0:0:
320,192,50880,128,2,51213:0:0:0:0:
64,192,51046,128,0,51213:0:0:0:0:
448,192,51380,1,0,0:0:0:0:
64,192,51546,1,8,0:0:0:0:
192,192,51546,1,0,0:0:0:0:
320,192,51713,1,0,0:0:0:0:
448,192,51880,1,0,0:0:0:0:
192,192,52046,128,2,52380:0:0:0:0:
448,192,52380,128,0,52546:0:0:0:0:
64,192,52546,128,2,52713:0:0:0:0:
448,192,52713,128,0,52880:0:0:0:0:
64,192,52880,1,8,0:0:0:0:
320,192,52880,1,0,0:0:0:0:
192,192,53046,1,0,0:0:0:0:
448,192,53213,1,2,0:0:0:0:
320,192,53380,1,0,0:0:0:0:
64,192,53546,128,2,53880:0:0:0:0:
192,192,53713,128,0,53880:0:0:0:0:
320,192,53880,1,0,0:0:0:0:
448,192,54046,1,0,0:0:0:0:
192,192,54213,1,8,0:0:0:0:
64,192,54213,1,0,0:0:0:0:
320,192,54380,1,0,0:0:0:0:
64,192,54546,1,0,0:0:0:0:
448,192,54713,128,2,55213:0:0:0:0:
320,192,55046,128,0,55213:0:0:0:0:
192,192,55213,128,2,55546:0:0:0:0:
448,192,55546,1,8,0:0:0:0:
64,192,55546,1,0,0:0:0:0:
192,192,55713,1,2,0:0:0:0:
320,192,55880,128,0,56213:0:0:0:0:
448,192,56213,1,0,0:0:0:30:ride08.wav
64,192,56213,1,0,0:0:0:0:
192,192,56380,1,0,0:0:0:0:
320,192,56546,1,0,0:0:0:0:
64,192,56713,1,0,0:0:0:0:
192,192,56880,1,0,0:0:0:0:
448,192,57046,1,0,0:0:0:0:
192,192,57213,128,0,57546:0:0:0:0:
448,192,57546,1,4,0:0:0:0:
64,192,57546,1,8,0:0:0:0:
320,192,57713,1,2,0:0:0:0:
320,192,57880,1,2,0:0:0:0:
448,192,58046,1,8,0:0:0:0:
64,192,58046,1,4,0:0:0:0:
192,192,58213,1,2,0:0:0:0:
192,192,58380,1,2,0:0:0:0:
320,192,58546,1,8,0:0:0:0:
448,192,58546,1,4,0:0:0:0:
448,192,58713,1,8,0:0:0:0:
64,192,58880,128,4,59213:0:0:0:0:
192,192,58880,1,2,0:0:0:0:
320,192,59046,128,0,59213:0:0:0:0:
448,192,59213,1,0,0:0:0:0:
64,192,59380,1,2,0:0:0:0:
448,192,59546,1,8,0:0:0:0:
192,192,59546,1,0,0:0:0:0:
64,192,59713,1,0,0:0:0:0:
320,192,59880,1,2,0:0:0:0:
192,192,60046,128,0,60213:0:0:0:0:
448,192,60213,128,0,60380:0:0:0:0:
64,192,60380,1,0,0:0:0:0:
320,192,60546,1,2,0:0:0:0:
64,192,60713,1,0,0:0:0:0:
320,192,60880,1,8,0:0:0:0:
448,192,60880,1,0,0:0:0:0:
64,192,61046,1,0,0:0:0:0:
448,192,61213,1,2,0:0:0:0:
192,192,61380,1,0,0:0:0:0:
448,192,61546,128,2,61880:0:0:0:0:
192,192,61713,128,0,61880:0:0:0:0:
64,192,61880,1,0,0:0:0:0:
320,192,62046,1,2,0:0:0:0:
64,192,62213,1,8,0:0:0:0:
448,192,62213,1,0,0:0:0:0:
320,192,62380,1,0,0:0:0:0:
192,192,62546,1,2,0:0:0:0:
64,192,62713,128,0,62880:0:0:0:0:
448,192,62880,1,0,0:0:0:0:
320,192,63046,1,0,0:0:0:0:
192,192,63213,1,2,0:0:0:0:
320,192,63380,1,0,0:0:0:0:
64,192,63546,1,8,0:0:0:0:
448,192,63546,1,0,0:0:0:0:
192,192,63713,1,2,0:0:0:0:
192,192,63880,1,2,0:0:0:0:
320,192,64046,1,2,0:0:0:0:
64,192,64213,1,2,0:0:0:0:
320,192,64880,1,8,0:0:0:0:
448,192,64880,1,0,0:0:0:0:
64,192,65046,1,2,0:0:0:0:
192,192,65213,1,0,0:0:0:0:
448,192,65380,128,0,65546:0:0:0:0:
320,192,65713,1,0,0:0:0:0:
192,192,65880,1,2,0:0:0:0:
320,192,66046,1,0,0:0:0:0:
64,192,66213,1,8,0:0:0:0:
192,192,66213,1,0,0:0:0:0:
320,192,66296,1,0,0:0:0:0:
448,192,66380,1,0,0:0:0:0:
64,192,66546,1,2,0:0:0:0:
448,192,66713,1,2,0:0:0:0:
64,192,66880,128,2,67546:0:0:0:0:
192,192,66880,128,4,67546:0:0:0:0:
320,192,67546,1,8,0:0:0:0:
192,192,67880,128,2,68380:0:0:0:0:
448,192,67880,128,4,68380:0:0:0:0:
448,192,68546,128,2,68880:0:0:0:0:
320,192,68546,128,4,68880:0:0:0:0:
192,192,68880,1,8,0:0:0:0:
448,192,69046,128,2,69546:0:0:0:0:
64,192,69046,128,4,69546:0:0:0:0:
192,192,69546,1,2,0:0:0:0:
320,192,69546,128,4,69880:0:0:0:0:
448,192,69713,128,0,69880:0:0:0:0:
64,192,69880,1,0,0:0:0:0:
320,192,70046,1,2,0:0:0:0:
64,192,70213,1,8,0:0:0:0:
192,192,70213,1,0,0:0:0:0:
320,192,70380,1,0,0:0:0:0:
64,192,70546,1,2,0:0:0:0:
448,192,70713,128,0,70880:0:0:0:0:
320,192,71046,1,0,0:0:0:0:
192,192,71213,1,2,0:0:0:0:
320,192,71380,1,0,0:0:0:0:
448,192,71546,1,8,0:0:0:0:
64,192,71546,1,0,0:0:0:0:
320,192,71713,1,0,0:0:0:0:
64,192,71880,1,2,0:0:0:0:
448,192,72046,1,0,0:0:0:0:
192,192,72213,128,2,72546:0:0:0:0:
320,192,72380,128,0,72546:0:0:0:0:
448,192,72546,1,0,0:0:0:0:
64,192,72713,1,2,0:0:0:0:
192,192,72880,1,8,0:0:0:0:
448,192,72880,1,0,0:0:0:0:
64,192,73046,1,0,0:0:0:0:
320,192,73213,1,2,0:0:0:0:
192,192,73380,128,0,73546:0:0:0:0:
448,192,73546,1,0,0:0:0:0:
64,192,73713,1,0,0:0:0:0:
320,192,73880,1,2,0:0:0:0:
64,192,74046,1,0,0:0:0:0:
320,192,74213,1,8,0:0:0:0:
448,192,74213,1,0,0:0:0:0:
192,192,74380,1,2,0:0:0:0:
448,192,74546,1,0,0:0:0:40:clap.wav
448,192,74713,1,0,0:0:0:40:clap.wav
64,192,74880,1,2,0:0:0:0:
192,192,74880,1,0,0:0:0:70:Trambolined_Short.wav
