osu file format v14

[General]
AudioFilename: audio.mp3
AudioLeadIn: 0
PreviewTime: 5546
Countdown: 0
SampleSet: Soft
StackLeniency: 0.7
Mode: 3
LetterboxInBreaks: 0
SpecialStyle: 0
WidescreenStoryboard: 0

[Editor]
DistanceSpacing: 0.8
BeatDivisor: 4
GridSize: 4
TimelineZoom: 5.899997

[Metadata]
Title:Colors (Cut Ver.)
TitleUnicode:Colors (Cut Ver.)
Artist:ARForest
ArtistUnicode:ARForest
Creator:Scotty
Version:Luminosity
Source:osu!
Tags:electronic instrumental featured artist fa mappers' guild mg future bass colours
BeatmapID:2587678
BeatmapSetID:1244884

[Difficulty]
HPDrainRate:8
CircleSize:4
OverallDifficulty:7.7
ApproachRate:5
SliderMultiplier:1.4
SliderTickRate:1

[Events]
//Background and Video events
0,0,"e.jpeg",0,0
//Break Periods
//Storyboard Layer 0 (Background)
//Storyboard Layer 1 (Fail)
//Storyboard Layer 2 (Pass)
//Storyboard Layer 3 (Foreground)
//Storyboard Layer 4 (Overlay)
//Storyboard Sound Samples

[TimingPoints]
5547,333.333333333333,4,2,1,30,1,0
26880,-100,4,2,1,45,0,0
37546,-100,4,2,1,60,0,0

[HitObjects]
64,192,5546,5,0,0:0:0:0:
192,192,5546,1,0,0:0:0:70:Trambolined_Short.wav
448,192,5880,1,0,0:0:0:0:
192,192,6213,1,0,0:0:0:0:
320,192,6546,1,0,0:0:0:0:
448,192,6546,1,0,0:0:0:0:
64,192,6880,1,0,0:0:0:0:
192,192,7546,1,0,0:0:0:0:
320,192,7880,1,0,0:0:0:0:
448,192,8213,1,0,0:0:0:0:
64,192,8213,1,0,0:0:0:0:
192,192,8880,1,0,0:0:0:0:
320,192,9213,1,0,0:0:0:0:
448,192,9213,1,0,0:0:0:0:
192,192,9546,128,0,9630:0:0:0:0:
64,192,9602,128,0,9685:0:0:0:0:
448,192,9658,128,0,10213:0:0:0:0:
64,192,10213,128,0,10880:0:0:0:0:
320,192,10213,1,0,0:0:0:0:
192,192,10713,128,0,10880:0:0:0:0:
320,192,10880,1,0,0:0:0:0:
448,192,10880,128,0,13463:0:0:0:0:
64,192,11213,128,0,11269:0:0:0:0:
320,192,11296,128,0,11463:0:0:0:0:
192,192,11380,128,0,11435:0:0:0:0:
320,192,11546,128,0,11713:0:0:0:0:
64,192,11546,128,0,11602:0:0:0:0:
320,192,11796,128,0,11963:0:0:0:0:
192,192,11880,1,0,0:0:0:0:
320,192,12046,128,0,12213:0:0:0:0:
64,192,12046,128,0,12102:0:0:0:0:
192,192,12213,128,0,12269:0:0:0:0:
320,192,12296,128,0,12463:0:0:0:0:
320,192,12546,128,0,12713:0:0:0:0:
64,192,12546,128,0,12602:0:0:0:0:
192,192,12713,128,0,12769:0:0:0:0:
320,192,12796,128,0,12963:0:0:0:0:
64,192,12880,128,0,12935:0:0:0:0:
320,192,13046,128,0,13213:0:0:0:0:
64,192,13213,128,0,13269:0:0:0:0:
320,192,13296,128,0,13463:0:0:0:0:
192,192,13380,128,0,13435:0:0:0:0:
64,192,13546,1,0,0:0:0:0:
448,192,13546,128,0,13602:0:0:0:0:
64,192,13880,128,0,13935:0:0:0:0:
320,192,14046,128,0,14102:0:0:0:0:
448,192,14213,128,0,14269:0:0:0:0:
192,192,14546,128,0,14602:0:0:0:0:
64,192,14546,1,0,0:0:0:0:
320,192,14713,128,0,14769:0:0:0:0:
448,192,14880,128,0,14935:0:0:0:0:
192,192,15046,128,0,15102:0:0:0:0:
320,192,15213,128,0,15269:0:0:0:0:
64,192,15380,128,0,15435:0:0:0:0:
192,192,15546,128,0,15602:0:0:0:0:
448,192,15546,1,0,0:0:0:0:
64,192,15630,1,0,0:0:0:0:
320,192,15713,128,0,15769:0:0:0:0:
192,192,15796,1,0,0:0:0:0:
448,192,15880,128,0,15935:0:0:0:0:
320,192,15963,1,0,0:0:0:0:
64,192,16046,128,0,16102:0:0:0:0:
448,192,16130,1,0,0:0:0:0:
64,192,16213,1,0,0:0:0:70:Trambolined_Short.wav
192,192,16213,1,0,0:0:0:0:
320,192,16546,1,0,0:0:0:0:
64,192,16880,1,0,0:0:0:40:clap.wav
448,192,16880,1,0,0:0:0:0:
192,192,16935,1,0,0:0:0:0:
320,192,17213,1,0,0:0:0:0:
448,192,17213,1,0,0:0:0:0:
64,192,17546,1,0,0:0:0:0:
64,192,18213,1,0,0:0:0:40:clap.wav
448,192,18213,1,0,0:0:0:0:
320,192,18269,1,0,0:0:0:0:
448,192,18546,1,0,0:0:0:0:
192,192,18880,1,0,0:0:0:0:
64,192,18880,1,0,0:0:0:0:
64,192,19546,1,0,0:0:0:40:clap.wav
448,192,19546,1,0,0:0:0:0:
192,192,19602,1,0,0:0:0:0:
320,192,19880,1,0,0:0:0:0:
448,192,19880,1,0,0:0:0:0:
192,192,20213,1,0,0:0:0:0:
64,192,20546,1,0,0:0:0:0:
192,192,20880,1,0,0:0:0:40:clap.wav
448,192,20880,1,0,0:0:0:0:
320,192,20935,1,0,0:0:0:0:
448,192,21213,1,0,0:0:0:0:
64,192,21546,1,0,0:0:0:0:
192,192,21546,128,0,21602:0:0:0:0:
320,192,21713,128,0,21769:0:0:0:0:
64,192,21880,128,0,21935:0:0:0:0:
320,192,22046,128,0,22102:0:0:0:0:
64,192,22213,1,0,0:0:0:40:clap.wav
448,192,22213,128,0,22269:0:0:0:0:
192,192,22269,1,0,0:0:0:0:
64,192,22380,128,0,22435:0:0:0:0:
320,192,22546,128,0,22602:0:0:0:0:
448,192,22546,1,0,0:0:0:0:
192,192,22713,128,0,22769:0:0:0:0:
448,192,22880,128,0,22935:0:0:0:0:
320,192,23046,128,0,23102:0:0:0:0:
64,192,23213,128,0,23269:0:0:0:0:
192,192,23380,128,0,23435:0:0:0:0:
64,192,23546,1,0,0:0:0:40:clap.wav
448,192,23546,128,0,23602:0:0:0:0:
320,192,23602,1,0,0:0:0:0:
64,192,23713,128,0,23769:0:0:0:0:
448,192,23880,128,0,23935:0:0:0:0:
320,192,24046,128,0,24102:0:0:0:0:
192,192,24213,1,0,0:0:0:0:
64,192,24213,128,0,24269:0:0:0:0:
320,192,24380,128,0,24435:0:0:0:0:
448,192,24546,128,0,24602:0:0:0:0:
64,192,24713,128,0,24769:0:0:0:0:
64,192,24880,1,0,0:0:0:40:clap.wav
448,192,24880,128,0,24935:0:0:0:0:
320,192,24935,1,0,0:0:0:0:
192,192,25046,128,0,25102:0:0:0:0:
448,192,25213,128,0,26463:0:0:0:0:
64,192,25213,128,0,25269:0:0:0:0:
192,192,25380,128,0,25435:0:0:0:0:
320,192,25546,128,0,25602:0:0:0:0:
64,192,25713,128,0,25769:0:0:0:0:
320,192,25880,128,0,25935:0:0:0:0:
192,192,26046,128,0,26102:0:0:0:0:
64,192,26213,128,0,26796:0:0:0:40:clap.wav
320,192,26213,1,0,0:0:0:0:
192,192,26380,128,0,26796:0:0:0:0:
448,192,26546,128,0,26796:0:0:0:0:
320,192,26713,128,0,26796:0:0:0:0:
192,192,26880,1,0,0:0:0:0:
448,192,26880,1,0,0:0:0:30:snare.wav
64,192,26880,1,0,0:0:0:70:Trambolined_Short.wav
320,192,27046,1,0,0:0:0:0:
192,192,27213,1,0,0:0:0:0:
320,192,27380,1,0,0:0:0:30:snare.wav
448,192,27380,1,0,0:0:0:0:
448,192,27546,1,0,0:0:0:30:snare.wav
320,192,27546,1,0,0:0:0:0:
64,192,27713,1,0,0:0:0:0:
192,192,27880,1,0,0:0:0:30:snare.wav
64,192,27880,1,0,0:0:0:0:
320,192,28046,1,0,0:0:0:0:
192,192,28213,1,0,0:0:0:0:
448,192,28380,1,0,0:0:0:30:snare.wav
64,192,28380,1,0,0:0:0:0:
64,192,28546,1,0,0:0:0:30:snare.wav
448,192,28546,1,0,0:0:0:0:
320,192,28713,1,0,0:0:0:0:
192,192,28880,1,0,0:0:0:30:snare.wav
64,192,28880,1,0,0:0:0:0:
448,192,29046,1,0,0:0:0:0:
192,192,29213,1,0,0:0:0:0:
320,192,29380,1,0,0:0:0:0:
64,192,29546,128,0,31880:0:0:0:30:snare.wav
448,192,29546,1,0,0:0:0:0:
320,192,29713,1,0,0:0:0:0:
192,192,29880,1,0,0:0:0:0:
448,192,30046,1,0,0:0:0:30:snare.wav
448,192,30213,1,0,0:0:0:30:snare.wav
192,192,30213,128,0,30463:0:0:0:0:
320,192,30380,1,0,0:0:0:0:
192,192,30546,128,0,30713:0:0:0:30:snare.wav
448,192,30546,1,0,0:0:0:0:
320,192,30713,1,0,0:0:0:0:
192,192,30796,128,0,31046:0:0:0:0:
448,192,31046,1,0,0:0:0:30:snare.wav
192,192,31130,128,0,31630:0:0:0:0:
448,192,31213,1,0,0:0:0:30:snare.wav
448,192,31380,1,0,0:0:0:30:snare.wav
448,192,31546,1,0,0:0:0:30:snare.wav
192,192,31713,128,0,31880:0:0:0:0:
320,192,31880,1,0,0:0:0:30:snare2.wav
448,192,31921,1,0,0:0:0:30:snare2.wav
192,192,31963,1,0,0:0:0:30:snare2.wav
64,192,32046,128,0,32213:0:0:0:30:snare2.wav
320,192,32130,1,0,0:0:0:30:snare2.wav
448,192,32213,128,0,34546:0:0:0:30:snare.wav
192,192,32213,1,0,0:0:0:0:
192,192,32380,1,0,0:0:0:30:snare.wav
192,192,32546,1,0,0:0:0:30:snare.wav
320,192,32713,128,0,32963:0:0:0:0:
192,192,32880,1,0,0:0:0:30:snare.wav
320,192,33046,128,0,33213:0:0:0:0:
192,192,33213,1,0,0:0:0:30:snare.wav
320,192,33296,128,0,33463:0:0:0:0:
192,192,33380,1,0,0:0:0:30:snare.wav
320,192,33546,128,0,33796:0:0:0:0:
192,192,33713,1,0,0:0:0:30:snare.wav
192,192,33880,1,0,0:0:0:30:snare.wav
320,192,33880,128,0,34046:0:0:0:0:
192,192,34046,1,0,0:0:0:30:snare.wav
320,192,34130,128,0,34296:0:0:0:0:
192,192,34213,1,0,0:0:0:30:snare.wav
320,192,34380,128,0,34546:0:0:0:0:
192,192,34546,128,0,34713:0:0:0:0:
320,192,34713,128,0,34880:0:0:0:0:
64,192,34880,1,0,0:0:0:30:snare2.wav
448,192,34963,1,0,0:0:0:30:snare2.wav
320,192,35005,1,0,0:0:0:30:snare2.wav
64,192,35046,1,0,0:0:0:30:snare2.wav
192,192,35130,1,0,0:0:0:30:snare2.wav
448,192,35213,1,0,0:0:0:30:snare2.wav
64,192,35296,1,0,0:0:0:30:snare2.wav
448,192,35380,1,0,0:0:0:30:snare2.wav
320,192,35463,1,0,0:0:0:30:snare2.wav
192,192,35505,1,0,0:0:0:30:snare2.wav
64,192,35546,1,0,0:0:0:35:snare2.wav
448,192,35588,1,0,0:0:0:35:snare2.wav
320,192,35630,1,0,0:0:0:35:snare2.wav
192,192,35713,1,0,0:0:0:35:snare2.wav
64,192,35755,1,0,0:0:0:35:snare2.wav
448,192,35796,1,0,0:0:0:35:snare2.wav
320,192,35880,1,0,0:0:0:35:snare2.wav
192,192,35921,1,0,0:0:0:35:snare2.wav
448,192,35963,1,0,0:0:0:35:snare2.wav
64,192,36046,1,0,0:0:0:35:snare2.wav
320,192,36088,1,0,0:0:0:35:snare2.wav
192,192,36130,1,0,0:0:0:35:snare2.wav
448,192,36213,128,0,36546:0:0:0:0:
64,192,36241,128,0,36296:0:0:0:0:
192,192,36380,1,0,0:0:0:0:
64,192,36546,1,0,0:0:0:0:
320,192,36630,1,0,0:0:0:0:
64,192,36713,1,0,0:0:0:0:
320,192,36796,1,0,0:0:0:0:
64,192,36880,1,0,0:0:0:0:
448,192,36880,1,0,0:0:0:0:
448,192,37046,1,2,0:0:0:0:
320,192,37046,1,0,0:0:0:0:
192,192,37130,1,2,0:0:0:0:
320,192,37213,1,2,0:0:0:0:
448,192,37213,1,0,0:0:0:0:
192,192,37380,1,2,0:0:0:0:
64,192,37380,1,0,0:0:0:0:
448,192,37546,128,2,37713:0:0:0:0:
320,192,37546,128,4,37796:0:0:0:0:
64,192,37546,128,0,37880:0:0:0:0:
448,192,37880,128,0,37935:0:0:0:0:
320,192,38046,128,2,38102:0:0:0:0:
192,192,38046,1,0,0:0:0:0:
64,192,38130,1,0,0:0:0:0:
192,192,38213,128,8,38269:0:0:0:0:
448,192,38213,1,0,0:0:0:0:
64,192,38380,128,0,38435:0:0:0:0:
448,192,38546,128,2,38713:0:0:0:0:
320,192,38546,128,0,38630:0:0:0:0:
64,192,38630,128,0,38880:0:0:0:0:
448,192,38880,128,0,38963:0:0:0:0:
192,192,38963,1,0,0:0:0:0:
448,192,39046,128,0,39130:0:0:0:0:
64,192,39130,1,0,0:0:0:0:
448,192,39213,128,2,39296:0:0:0:0:
320,192,39213,1,0,0:0:0:0:
192,192,39296,1,0,0:0:0:0:
64,192,39380,128,0,39463:0:0:0:0:
320,192,39463,1,0,0:0:0:0:
64,192,39546,128,8,39630:0:0:0:0:
448,192,39546,1,0,0:0:0:0:
64,192,39713,128,0,39796:0:0:0:0:
448,192,39880,128,2,39963:0:0:0:0:
192,192,39880,1,0,0:0:0:0:
320,192,39921,128,0,40005:0:0:0:0:
64,192,40046,128,0,40130:0:0:0:0:
192,192,40088,128,0,40171:0:0:0:0:
448,192,40213,128,2,40463:0:0:0:0:
320,192,40213,128,0,40296:0:0:0:0:
64,192,40296,128,0,40546:0:0:0:0:
192,192,40380,128,0,40546:0:0:0:0:
448,192,40546,1,0,0:0:0:0:
320,192,40630,1,0,0:0:0:0:
192,192,40713,1,2,0:0:0:0:
64,192,40713,1,0,0:0:0:0:
320,192,40796,1,0,0:0:0:0:
64,192,40880,1,8,0:0:0:0:
448,192,40880,1,0,0:0:0:0:
192,192,41046,1,0,0:0:0:30:snare2.wav
320,192,41130,1,0,0:0:0:30:snare2.wav
192,192,41213,128,2,41296:0:0:0:0:
64,192,41213,128,0,41380:0:0:0:0:
448,192,41296,128,0,41463:0:0:0:0:
320,192,41380,128,0,41463:0:0:0:0:
64,192,41546,128,0,41713:0:0:0:0:
448,192,41630,128,0,41713:0:0:0:0:
320,192,41713,1,0,0:0:0:0:
192,192,41741,1,0,0:0:0:0:
64,192,41769,1,0,0:0:0:0:
320,192,41880,128,2,41963:0:0:0:0:
448,192,41880,128,0,42046:0:0:0:0:
64,192,41963,128,0,42130:0:0:0:0:
192,192,42046,128,0,42130:0:0:0:0:
448,192,42213,1,8,0:0:0:0:
64,192,42213,1,0,0:0:0:0:
64,192,42380,128,2,42463:0:0:0:0:
192,192,42380,1,0,0:0:0:0:
448,192,42546,128,0,42630:0:0:0:40:clap.wav
448,192,42713,128,0,42796:0:0:0:40:clap.wav
64,192,42880,128,2,43046:0:0:0:0:
192,192,42880,128,0,42963:0:0:0:0:
448,192,42963,128,0,43130:0:0:0:0:
320,192,43046,128,0,43130:0:0:0:0:
448,192,43213,128,0,43269:0:0:0:0:
64,192,43296,1,0,0:0:0:0:
320,192,43380,128,0,43435:0:0:0:0:
192,192,43463,1,0,0:0:0:0:
64,192,43546,128,8,43602:0:0:0:0:
448,192,43546,1,0,0:0:0:0:
320,192,43630,1,0,0:0:0:0:
192,192,43713,128,0,43769:0:0:0:0:
448,192,43796,1,0,0:0:0:0:
320,192,43880,128,0,43935:0:0:0:0:
64,192,43935,1,0,0:0:0:0:
320,192,44046,1,2,0:0:0:0:
448,192,44046,128,0,44130:0:0:0:0:
64,192,44213,128,0,44296:0:0:0:0:
320,192,44296,1,0,0:0:0:0:
64,192,44380,128,0,44463:0:0:0:0:
448,192,44463,1,0,0:0:0:0:
64,192,44546,128,2,44630:0:0:0:0:
192,192,44546,1,0,0:0:0:0:
320,192,44630,1,0,0:0:0:0:
448,192,44713,128,0,44796:0:0:0:0:
192,192,44796,1,0,0:0:0:0:
448,192,44880,128,8,44963:0:0:0:0:
64,192,44880,1,0,0:0:0:0:
448,192,45046,128,0,45130:0:0:0:0:
320,192,45213,128,2,45296:0:0:0:0:
192,192,45213,1,0,0:0:0:0:
448,192,45255,128,0,45338:0:0:0:0:
64,192,45380,128,0,45463:0:0:0:0:
192,192,45421,128,0,45505:0:0:0:0:
320,192,45546,1,2,0:0:0:0:
448,192,45546,128,0,46213:0:0:0:0:
64,192,45630,128,0,45880:0:0:0:0:
320,192,45880,128,2,45963:0:0:0:0:
192,192,45880,1,0,0:0:0:0:
64,192,45963,128,0,46046:0:0:0:0:
320,192,46046,128,0,46213:0:0:0:0:
192,192,46213,1,8,0:0:0:0:
64,192,46213,1,0,0:0:0:0:
448,192,46380,128,2,46546:0:0:0:0:
64,192,46380,128,0,46630:0:0:0:0:
192,192,46463,128,0,46630:0:0:0:0:
64,192,46713,128,2,47130:0:0:0:0:
448,192,46713,128,0,47046:0:0:0:0:
320,192,46796,128,0,46963:0:0:0:0:
192,192,47046,128,0,47130:0:0:0:0:
448,192,47213,128,2,47630:0:0:0:0:
64,192,47213,128,0,47546:0:0:0:0:
192,192,47296,128,0,47463:0:0:0:0:
320,192,47546,128,8,47630:0:0:0:0:
64,192,47713,128,2,48046:0:0:0:0:
448,192,47713,1,0,0:0:0:0:
192,192,47796,128,0,48088:0:0:0:0:
448,192,47880,128,0,48130:0:0:0:0:
448,192,48213,128,2,48380:0:0:0:0:
192,192,48213,128,4,48463:0:0:0:0:
64,192,48213,128,0,48546:0:0:0:0:
320,192,48546,128,0,48713:0:0:0:0:
192,192,48713,128,0,48880:0:0:0:0:
64,192,48880,128,8,49046:0:0:0:0:
448,192,48880,1,0,0:0:0:0:
448,192,49046,128,0,49213:0:0:0:0:
64,192,49213,1,0,0:0:0:0:
192,192,49241,1,0,0:0:0:0:
448,192,49296,128,0,49352:0:0:0:0:
320,192,49352,1,0,0:0:0:0:
192,192,49380,128,2,49463:0:0:0:0:
64,192,49380,128,0,49713:0:0:0:0:
448,192,49463,128,0,49796:0:0:0:0:
192,192,49713,1,0,0:0:0:0:
448,192,49880,128,2,49963:0:0:0:0:
320,192,49880,1,0,0:0:0:0:
64,192,49963,1,0,0:0:0:0:
448,192,50046,128,0,50130:0:0:0:0:
192,192,50130,1,0,0:0:0:0:
64,192,50213,128,8,50296:0:0:0:0:
320,192,50213,1,0,0:0:0:0:
64,192,50380,128,0,50463:0:0:0:0:
448,192,50546,128,0,50630:0:0:0:0:
320,192,50588,128,0,50671:0:0:0:0:
192,192,50713,128,0,50796:0:0:0:0:
64,192,50755,128,0,50838:0:0:0:0:
448,192,50880,128,2,51046:0:0:0:0:
320,192,50880,128,0,50963:0:0:0:0:
64,192,50963,128,0,51130:0:0:0:0:
192,192,51046,128,0,51130:0:0:0:0:
64,192,51213,128,0,51296:0:0:0:0:
448,192,51380,128,0,51463:0:0:0:0:
320,192,51408,128,0,51463:0:0:0:0:
448,192,51546,1,8,0:0:0:0:
64,192,51546,128,0,51630:0:0:0:0:
192,192,51574,128,0,51630:0:0:0:0:
192,192,51713,128,0,51796:0:0:0:0:
320,192,51741,128,0,51796:0:0:0:0:
448,192,51880,128,0,51935:0:0:0:0:
64,192,51963,128,0,52019:0:0:0:0:
448,192,52046,128,2,52296:0:0:0:0:
320,192,52046,128,0,52130:0:0:0:0:
64,192,52130,128,0,52380:0:0:0:0:
448,192,52380,128,0,52463:0:0:0:0:
64,192,52463,128,0,52546:0:0:0:0:
448,192,52546,128,2,52630:0:0:0:0:
320,192,52546,1,0,0:0:0:0:
64,192,52630,128,0,52713:0:0:0:0:
320,192,52713,128,0,52796:0:0:0:0:
192,192,52769,128,0,52852:0:0:0:0:
64,192,52880,128,8,52963:0:0:0:0:
448,192,52880,1,0,0:0:0:0:
64,192,53046,128,0,53130:0:0:0:0:
320,192,53213,128,2,53296:0:0:0:0:
192,192,53213,1,0,0:0:0:0:
448,192,53255,128,0,53338:0:0:0:0:
64,192,53380,128,0,53463:0:0:0:0:
192,192,53421,128,0,53505:0:0:0:0:
448,192,53546,128,2,53713:0:0:0:0:
320,192,53546,128,0,53630:0:0:0:0:
64,192,53630,128,0,53880:0:0:0:0:
192,192,53713,128,0,53880:0:0:0:0:
448,192,53880,128,0,54046:0:0:0:0:
192,192,53963,1,0,0:0:0:0:
64,192,54046,128,0,54130:0:0:0:0:
320,192,54130,1,0,0:0:0:0:
64,192,54213,128,8,54296:0:0:0:0:
448,192,54213,1,0,0:0:0:0:
320,192,54380,128,0,54463:0:0:0:0:
192,192,54546,128,0,54713:0:0:0:0:
448,192,54713,128,2,54963:0:0:0:0:
320,192,54713,128,0,54796:0:0:0:0:
64,192,54796,128,0,55046:0:0:0:0:
192,192,54880,1,0,0:0:0:0:
320,192,54963,1,0,0:0:0:0:
448,192,55046,1,0,0:0:0:0:
192,192,55213,128,2,55296:0:0:0:0:
64,192,55213,128,0,55380:0:0:0:0:
448,192,55296,128,0,55546:0:0:0:0:
320,192,55380,1,0,0:0:0:0:
192,192,55463,1,0,0:0:0:0:
320,192,55546,1,8,0:0:0:0:
64,192,55546,1,0,0:0:0:0:
192,192,55713,1,0,0:0:0:0:
64,192,55713,1,2,0:0:0:0:
320,192,55769,128,0,55880:0:0:0:0:
448,192,55880,128,0,56130:0:0:0:0:
320,192,55963,128,0,56130:0:0:0:0:
448,192,56213,1,0,0:0:0:30:ride08.wav
64,192,56213,1,0,0:0:0:0:
192,192,56380,1,0,0:0:0:0:
448,192,56546,1,0,0:0:0:0:
320,192,56713,1,0,0:0:0:0:
192,192,56880,1,0,0:0:0:0:
64,192,56880,1,0,0:0:0:0:
320,192,57046,1,0,0:0:0:0:
448,192,57046,1,0,0:0:0:0:
192,192,57213,1,0,0:0:0:0:
320,192,57296,1,0,0:0:0:0:
192,192,57380,1,0,0:0:0:0:
320,192,57463,1,0,0:0:0:0:
448,192,57546,1,4,0:0:0:0:
192,192,57546,128,8,57630:0:0:0:0:
64,192,57546,128,0,57630:0:0:0:0:
192,192,57713,128,2,57796:0:0:0:0:
64,192,57713,128,0,57796:0:0:0:0:
448,192,57796,128,0,57963:0:0:0:0:
64,192,57880,1,2,0:0:0:0:
320,192,57880,128,0,57963:0:0:0:0:
64,192,58046,128,8,58130:0:0:0:0:
448,192,58046,128,4,58130:0:0:0:0:
192,192,58046,1,0,0:0:0:0:
64,192,58213,128,2,58296:0:0:0:0:
448,192,58213,128,0,58296:0:0:0:0:
64,192,58380,128,2,58546:0:0:0:0:
448,192,58380,1,0,0:0:0:0:
192,192,58463,128,0,58546:0:0:0:0:
448,192,58546,128,8,58630:0:0:0:0:
320,192,58546,128,4,58630:0:0:0:0:
320,192,58713,128,8,58796:0:0:0:0:
448,192,58713,128,0,58796:0:0:0:0:
64,192,58880,128,4,59046:0:0:0:0:
192,192,58880,128,2,59130:0:0:0:0:
448,192,58880,128,0,59213:0:0:0:0:
64,192,59213,128,0,59296:0:0:0:0:
448,192,59380,128,2,59463:0:0:0:0:
320,192,59380,1,0,0:0:0:0:
192,192,59463,1,0,0:0:0:0:
448,192,59546,128,8,59630:0:0:0:0:
64,192,59546,1,0,0:0:0:0:
448,192,59713,128,0,59796:0:0:0:0:
448,192,59880,128,2,59963:0:0:0:0:
320,192,59880,1,0,0:0:0:0:
64,192,60046,128,0,60213:0:0:0:0:
448,192,60213,128,0,60380:0:0:0:0:
320,192,60241,128,0,60380:0:0:0:0:
192,192,60380,128,0,60463:0:0:0:0:
64,192,60546,128,2,60630:0:0:0:0:
192,192,60546,1,0,0:0:0:0:
320,192,60630,1,0,0:0:0:0:
64,192,60713,128,0,60796:0:0:0:0:
192,192,60796,1,0,0:0:0:0:
64,192,60880,128,8,60963:0:0:0:0:
448,192,60880,1,0,0:0:0:0:
64,192,61046,128,0,61130:0:0:0:0:
320,192,61213,128,2,61296:0:0:0:0:
192,192,61213,1,0,0:0:0:0:
448,192,61255,128,0,61338:0:0:0:0:
64,192,61380,128,0,61463:0:0:0:0:
192,192,61421,128,0,61505:0:0:0:0:
448,192,61546,128,2,61755:0:0:0:0:
320,192,61546,128,0,61630:0:0:0:0:
64,192,61630,128,0,61796:0:0:0:0:
192,192,61880,128,0,61963:0:0:0:0:
448,192,62046,128,2,62130:0:0:0:0:
320,192,62046,1,0,0:0:0:0:
192,192,62130,1,0,0:0:0:0:
448,192,62213,128,8,62296:0:0:0:0:
64,192,62213,1,0,0:0:0:0:
448,192,62380,128,0,62463:0:0:0:0:
448,192,62546,128,2,62630:0:0:0:0:
320,192,62546,1,0,0:0:0:0:
64,192,62713,128,0,62880:0:0:0:0:
192,192,62741,128,0,62880:0:0:0:0:
320,192,62880,1,0,0:0:0:0:
448,192,63046,128,0,63130:0:0:0:0:
64,192,63213,128,2,63296:0:0:0:0:
192,192,63213,1,0,0:0:0:0:
320,192,63296,1,0,0:0:0:0:
64,192,63380,128,0,63463:0:0:0:0:
192,192,63463,1,0,0:0:0:0:
64,192,63546,1,8,0:0:0:0:
448,192,63546,1,0,0:0:0:0:
448,192,63713,128,2,63796:0:0:0:0:
320,192,63713,128,0,63755:0:0:0:0:
64,192,63880,128,2,63963:0:0:0:0:
192,192,63880,128,0,63921:0:0:0:0:
448,192,64046,128,2,64130:0:0:0:0:
320,192,64046,128,0,64088:0:0:0:0:
64,192,64213,1,2,0:0:0:0:
192,192,64213,1,0,0:0:0:0:
448,192,64296,1,0,0:0:0:0:
192,192,64546,128,0,64602:0:0:0:0:
192,192,64713,128,0,64776:0:0:0:0:
320,192,64796,128,0,64859:0:0:0:0:
192,192,64880,128,8,64963:0:0:0:0:
448,192,64880,1,0,0:0:0:0:
320,192,65046,1,2,0:0:0:0:
448,192,65046,1,0,0:0:0:0:
64,192,65130,128,0,65213:0:0:0:0:
192,192,65213,128,0,65296:0:0:0:0:
448,192,65380,128,0,65546:0:0:0:0:
320,192,65408,128,0,65546:0:0:0:0:
64,192,65546,1,0,0:0:0:0:
192,192,65630,1,0,0:0:0:0:
448,192,65713,128,0,65796:0:0:0:0:
320,192,65796,1,0,0:0:0:0:
192,192,65880,1,2,0:0:0:0:
64,192,65880,128,0,65963:0:0:0:0:
448,192,65963,1,0,0:0:0:0:
64,192,66046,128,0,66130:0:0:0:0:
192,192,66130,1,0,0:0:0:0:
64,192,66213,128,8,66296:0:0:0:0:
448,192,66213,1,0,0:0:0:0:
320,192,66296,128,0,66380:0:0:0:0:
64,192,66380,128,0,66463:0:0:0:0:
448,192,66546,1,2,0:0:0:0:
192,192,66546,128,0,66588:0:0:0:0:
64,192,66713,1,2,0:0:0:0:
320,192,66713,128,0,66755:0:0:0:0:
64,192,66880,128,2,66963:0:0:0:0:
192,192,66880,128,4,67046:0:0:0:0:
448,192,66880,128,0,67130:0:0:0:0:
320,192,67130,1,0,0:0:0:0:
192,192,67171,1,0,0:0:0:0:
64,192,67213,1,0,0:0:0:0:
448,192,67296,1,0,0:0:0:0:
320,192,67380,1,0,0:0:0:0:
192,192,67463,1,0,0:0:0:0:
64,192,67546,1,8,0:0:0:0:
448,192,67546,1,0,0:0:0:0:
320,192,67630,1,0,0:0:0:0:
64,192,67713,1,0,0:0:0:0:
192,192,67755,1,0,0:0:0:0:
320,192,67796,1,0,0:0:0:0:
448,192,67880,128,2,67963:0:0:0:0:
192,192,67880,128,4,68046:0:0:0:0:
64,192,67880,128,0,68130:0:0:0:0:
448,192,68130,1,0,0:0:0:0:
320,192,68171,1,0,0:0:0:0:
192,192,68213,1,0,0:0:0:0:
64,192,68296,1,0,0:0:0:0:
320,192,68380,1,0,0:0:0:0:
448,192,68463,1,0,0:0:0:0:
320,192,68546,128,2,68630:0:0:0:0:
192,192,68546,128,4,68713:0:0:0:0:
64,192,68546,128,0,68796:0:0:0:0:
320,192,68796,1,0,0:0:0:0:
64,192,68880,1,8,0:0:0:0:
448,192,68880,1,0,0:0:0:0:
192,192,68963,1,0,0:0:0:0:
64,192,69046,128,2,69130:0:0:0:0:
448,192,69046,128,4,69213:0:0:0:0:
320,192,69046,128,0,69171:0:0:0:0:
192,192,69213,1,0,0:0:0:0:
320,192,69255,1,0,0:0:0:0:
448,192,69296,1,0,0:0:0:0:
64,192,69380,1,0,0:0:0:0:
192,192,69421,1,0,0:0:0:0:
320,192,69463,1,0,0:0:0:0:
448,192,69546,128,2,69630:0:0:0:0:
192,192,69546,128,4,69713:0:0:0:0:
64,192,69546,128,0,69796:0:0:0:0:
192,192,69880,128,0,69963:0:0:0:0:
448,192,70046,128,2,70130:0:0:0:0:
320,192,70046,1,0,0:0:0:0:
192,192,70130,1,0,0:0:0:0:
448,192,70213,128,8,70296:0:0:0:0:
64,192,70213,1,0,0:0:0:0:
448,192,70380,128,0,70463:0:0:0:0:
448,192,70546,128,2,70630:0:0:0:0:
320,192,70546,1,0,0:0:0:0:
64,192,70713,128,0,70880:0:0:0:0:
192,192,70741,128,0,70880:0:0:0:0:
448,192,70880,1,0,0:0:0:0:
64,192,70963,1,0,0:0:0:0:
320,192,71046,128,0,71130:0:0:0:0:
448,192,71130,1,0,0:0:0:0:
64,192,71213,128,2,71296:0:0:0:0:
192,192,71213,1,0,0:0:0:0:
320,192,71296,1,0,0:0:0:0:
64,192,71380,128,0,71463:0:0:0:0:
192,192,71463,1,0,0:0:0:0:
64,192,71546,128,8,71630:0:0:0:0:
448,192,71546,1,0,0:0:0:0:
64,192,71713,128,0,71796:0:0:0:0:
320,192,71880,128,2,71963:0:0:0:0:
192,192,71880,1,0,0:0:0:0:
448,192,71921,128,0,72005:0:0:0:0:
64,192,72046,128,0,72130:0:0:0:0:
192,192,72088,128,0,72171:0:0:0:0:
448,192,72213,128,2,72380:0:0:0:0:
320,192,72213,128,0,72296:0:0:0:0:
64,192,72296,128,0,72546:0:0:0:0:
192,192,72546,128,0,72630:0:0:0:0:
320,192,72713,1,2,0:0:0:0:
448,192,72713,128,0,72796:0:0:0:0:
192,192,72796,1,0,0:0:0:0:
64,192,72880,1,8,0:0:0:0:
448,192,72880,128,0,72963:0:0:0:0:
448,192,73046,128,0,73130:0:0:0:0:
448,192,73213,128,2,73296:0:0:0:0:
320,192,73213,1,0,0:0:0:0:
64,192,73380,128,0,73546:0:0:0:0:
192,192,73408,128,0,73546:0:0:0:0:
448,192,73546,1,0,0:0:0:0:
320,192,73713,128,0,73796:0:0:0:0:
64,192,73880,128,2,73963:0:0:0:0:
192,192,73880,1,0,0:0:0:0:
448,192,73963,1,0,0:0:0:0:
64,192,74046,128,0,74130:0:0:0:0:
320,192,74130,1,0,0:0:0:0:
64,192,74213,128,8,74296:0:0:0:0:
448,192,74213,1,0,0:0:0:0:
320,192,74380,1,2,0:0:0:0:
192,192,74380,1,0,0:0:0:0:
64,192,74463,1,0,0:0:0:0:
448,192,74546,1,0,0:0:0:40:clap.wav
192,192,74546,1,0,0:0:0:0:
320,192,74602,1,0,0:0:0:0:
64,192,74713,1,0,0:0:0:40:clap.wav
448,192,74713,1,0,0:0:0:0:
192,192,74769,1,0,0:0:0:0:
64,192,74880,1,2,0:0:0:0:
448,192,74880,1,0,0:0:0:0:
320,192,74880,1,0,0:0:0:70:Trambolined_Short.wav
