osu file format v14

[General]
AudioFilename: audio.mp3
AudioLeadIn: 0
PreviewTime: 5546
Countdown: 0
SampleSet: Soft
StackLeniency: 0.7
Mode: 3
LetterboxInBreaks: 0
SpecialStyle: 0
WidescreenStoryboard: 1

[Editor]
DistanceSpacing: 0.8
BeatDivisor: 4
GridSize: 4
TimelineZoom: 5.599996

[Metadata]
Title:Colors (Cut Ver.)
TitleUnicode:Colors (Cut Ver.)
Artist:ARForest
ArtistUnicode:ARForest
Creator:Scotty
Version:Hard
Source:osu!
Tags:electronic instrumental featured artist fa mappers' guild mg future bass colours
BeatmapID:2588586
BeatmapSetID:1244884

[Difficulty]
HPDrainRate:7.5
CircleSize:4
OverallDifficulty:7.5
ApproachRate:5
SliderMultiplier:1.4
SliderTickRate:1

[Events]
//Background and Video events
0,0,"e.jpeg",0,0
//Break Periods
//Storyboard Layer 0 (Background)
//Storyboard Layer 1 (Fail)
//Storyboard Layer 2 (Pass)
//Storyboard Layer 3 (Foreground)
//Storyboard Layer 4 (Overlay)
//Storyboard Sound Samples

[TimingPoints]
5547,333.333333333333,4,2,1,30,1,0
26880,-100,4,2,1,45,0,0
37546,-100,4,2,1,60,0,0

[HitObjects]
192,192,5546,5,0,0:0:0:70:Trambolined_Short.wav
64,192,5546,1,0,0:0:0:0:
448,192,5880,1,0,0:0:0:0:
192,192,6213,1,0,0:0:0:0:
320,192,6546,1,0,0:0:0:0:
448,192,6546,1,0,0:0:0:0:
64,192,6880,1,0,0:0:0:0:
192,192,7546,1,0,0:0:0:0:
320,192,7880,1,0,0:0:0:0:
64,192,8213,1,0,0:0:0:0:
448,192,8213,1,0,0:0:0:0:
192,192,8880,1,0,0:0:0:0:
448,192,9213,1,0,0:0:0:0:
320,192,9213,1,0,0:0:0:0:
64,192,9546,1,0,0:0:0:0:
192,192,9602,1,0,0:0:0:0:
320,192,9658,128,0,10213:0:0:0:0:
64,192,10213,128,0,10880:0:0:0:0:
448,192,10213,1,0,0:0:0:0:
448,192,10880,128,0,13546:0:0:0:0:
320,192,10880,1,0,0:0:0:0:
192,192,11213,1,0,0:0:0:0:
64,192,11380,1,0,0:0:0:0:
320,192,11546,1,0,0:0:0:0:
64,192,11880,1,0,0:0:0:0:
192,192,12046,1,0,0:0:0:0:
320,192,12213,1,0,0:0:0:0:
192,192,12546,1,0,0:0:0:0:
320,192,12713,1,0,0:0:0:0:
64,192,12880,1,0,0:0:0:0:
64,192,13213,1,0,0:0:0:0:
192,192,13380,1,0,0:0:0:0:
320,192,13546,1,0,0:0:0:0:
64,192,13546,1,0,0:0:0:0:
192,192,13880,1,0,0:0:0:0:
320,192,14046,1,0,0:0:0:0:
448,192,14213,1,0,0:0:0:0:
192,192,14546,1,0,0:0:0:0:
64,192,14546,1,0,0:0:0:0:
320,192,14713,1,0,0:0:0:0:
448,192,14880,1,0,0:0:0:0:
192,192,15046,1,0,0:0:0:0:
64,192,15213,1,0,0:0:0:0:
448,192,15380,1,0,0:0:0:0:
320,192,15546,1,0,0:0:0:0:
64,192,15546,1,0,0:0:0:0:
448,192,15630,1,0,0:0:0:0:
192,192,15713,1,0,0:0:0:0:
320,192,15796,1,0,0:0:0:0:
64,192,15880,1,0,0:0:0:0:
192,192,15963,1,0,0:0:0:0:
320,192,16046,1,0,0:0:0:0:
448,192,16130,1,0,0:0:0:0:
192,192,16213,1,0,0:0:0:70:Trambolined_Short.wav
64,192,16213,1,0,0:0:0:0:
320,192,16546,1,0,0:0:0:0:
64,192,16880,1,0,0:0:0:40:clap.wav
448,192,16880,1,0,0:0:0:0:
192,192,17213,1,0,0:0:0:0:
320,192,17213,1,0,0:0:0:0:
64,192,17546,1,0,0:0:0:0:
448,192,18213,1,0,0:0:0:40:clap.wav
64,192,18213,1,0,0:0:0:0:
192,192,18546,1,0,0:0:0:0:
448,192,18880,1,0,0:0:0:0:
320,192,18880,1,0,0:0:0:0:
448,192,19546,1,0,0:0:0:40:clap.wav
64,192,19546,1,0,0:0:0:0:
64,192,19880,1,0,0:0:0:0:
192,192,19880,1,0,0:0:0:0:
320,192,20213,1,0,0:0:0:0:
192,192,20546,1,0,0:0:0:0:
64,192,20880,1,0,0:0:0:40:clap.wav
448,192,20880,1,0,0:0:0:0:
320,192,21213,1,0,0:0:0:0:
192,192,21546,1,0,0:0:0:0:
64,192,21546,1,0,0:0:0:0:
448,192,21713,1,0,0:0:0:0:
192,192,21880,1,0,0:0:0:0:
320,192,22046,1,0,0:0:0:0:
448,192,22213,1,0,0:0:0:40:clap.wav
64,192,22213,1,0,0:0:0:0:
192,192,22380,1,0,0:0:0:0:
320,192,22546,1,0,0:0:0:0:
448,192,22546,1,0,0:0:0:0:
192,192,22713,1,0,0:0:0:0:
64,192,22880,1,0,0:0:0:0:
320,192,23046,1,0,0:0:0:0:
448,192,23213,1,0,0:0:0:0:
192,192,23380,1,0,0:0:0:0:
64,192,23546,1,0,0:0:0:40:clap.wav
320,192,23546,1,0,0:0:0:0:
448,192,23713,1,0,0:0:0:0:
192,192,23880,1,0,0:0:0:0:
448,192,24046,1,0,0:0:0:0:
192,192,24213,1,0,0:0:0:0:
64,192,24213,1,0,0:0:0:0:
320,192,24380,1,0,0:0:0:0:
448,192,24546,1,0,0:0:0:0:
64,192,24713,1,0,0:0:0:0:
192,192,24880,1,0,0:0:0:40:clap.wav
448,192,24880,1,0,0:0:0:0:
64,192,25046,1,0,0:0:0:0:
320,192,25213,1,0,0:0:0:0:
448,192,25213,128,0,26880:0:0:0:0:
320,192,25546,128,0,26380:0:0:0:0:
64,192,26213,128,0,26713:0:0:0:40:clap.wav
192,192,26213,1,0,0:0:0:0:
320,192,26546,128,0,26630:0:0:0:0:
192,192,26713,128,0,26796:0:0:0:0:
64,192,26880,1,0,0:0:0:70:Trambolined_Short.wav
320,192,26880,128,0,29213:0:0:0:30:snare.wav
64,192,27380,1,0,0:0:0:30:snare.wav
64,192,27546,1,0,0:0:0:30:snare.wav
64,192,27880,1,0,0:0:0:30:snare.wav
64,192,28380,1,0,0:0:0:30:snare.wav
64,192,28546,1,0,0:0:0:30:snare.wav
64,192,28880,1,0,0:0:0:30:snare.wav
192,192,29213,128,0,29380:0:0:0:0:
64,192,29546,128,0,32213:0:0:0:30:snare.wav
448,192,29546,1,0,0:0:0:0:
448,192,30046,1,0,0:0:0:30:snare.wav
448,192,30213,1,0,0:0:0:30:snare.wav
448,192,30546,1,0,0:0:0:30:snare.wav
448,192,31046,1,0,0:0:0:30:snare.wav
448,192,31213,1,0,0:0:0:30:snare.wav
192,192,31380,1,0,0:0:0:30:snare.wav
192,192,31546,1,0,0:0:0:30:snare.wav
448,192,31880,1,0,0:0:0:30:snare2.wav
192,192,31963,1,0,0:0:0:30:snare2.wav
448,192,32046,1,0,0:0:0:30:snare2.wav
192,192,32130,1,0,0:0:0:30:snare2.wav
320,192,32213,1,0,0:0:0:30:snare.wav
448,192,32213,128,0,34546:0:0:0:0:
192,192,32380,1,0,0:0:0:30:snare.wav
192,192,32546,1,0,0:0:0:30:snare.wav
192,192,32880,1,0,0:0:0:30:snare.wav
192,192,33213,1,0,0:0:0:30:snare.wav
192,192,33380,1,0,0:0:0:30:snare.wav
320,192,33713,1,0,0:0:0:30:snare.wav
320,192,33880,1,0,0:0:0:30:snare.wav
64,192,34046,1,0,0:0:0:30:snare.wav
64,192,34213,1,0,0:0:0:30:snare.wav
192,192,34546,128,0,34713:0:0:0:0:
320,192,34713,128,0,34880:0:0:0:0:
64,192,34880,1,0,0:0:0:30:snare2.wav
448,192,34963,1,0,0:0:0:30:snare2.wav
192,192,35046,1,0,0:0:0:30:snare2.wav
320,192,35130,1,0,0:0:0:30:snare2.wav
64,192,35213,1,0,0:0:0:30:snare2.wav
448,192,35296,1,0,0:0:0:30:snare2.wav
192,192,35380,1,0,0:0:0:30:snare2.wav
320,192,35463,1,0,0:0:0:30:snare2.wav
64,192,35546,1,0,0:0:0:35:snare2.wav
448,192,35630,1,0,0:0:0:35:snare2.wav
64,192,35713,1,0,0:0:0:35:snare2.wav
192,192,35796,1,0,0:0:0:35:snare2.wav
320,192,35880,1,0,0:0:0:35:snare2.wav
64,192,35963,1,0,0:0:0:35:snare2.wav
320,192,36046,1,0,0:0:0:35:snare2.wav
192,192,36130,1,0,0:0:0:35:snare2.wav
448,192,36213,128,0,37046:0:0:0:0:
64,192,36380,1,0,0:0:0:0:
320,192,36546,128,0,37046:0:0:0:0:
64,192,37046,1,2,0:0:0:0:
192,192,37130,1,2,0:0:0:0:
320,192,37213,1,2,0:0:0:0:
192,192,37380,1,2,0:0:0:0:
64,192,37546,128,2,37880:0:0:0:0:
448,192,37546,1,4,0:0:0:0:
192,192,37630,128,0,37880:0:0:0:0:
320,192,37713,128,0,37880:0:0:0:0:
448,192,37880,128,0,37963:0:0:0:0:
320,192,38046,128,2,38130:0:0:0:0:
64,192,38046,1,0,0:0:0:0:
192,192,38213,128,8,38296:0:0:0:0:
448,192,38213,1,0,0:0:0:0:
64,192,38380,128,0,38463:0:0:0:0:
448,192,38546,128,2,38880:0:0:0:0:
320,192,38546,1,0,0:0:0:0:
64,192,38630,128,0,38880:0:0:0:0:
192,192,38880,128,0,38963:0:0:0:0:
192,192,39046,128,0,39130:0:0:0:0:
320,192,39213,128,2,39296:0:0:0:0:
448,192,39213,1,0,0:0:0:0:
320,192,39380,128,0,39463:0:0:0:0:
64,192,39546,128,8,39630:0:0:0:0:
448,192,39546,1,0,0:0:0:0:
64,192,39713,128,0,39796:0:0:0:0:
448,192,39880,128,2,39963:0:0:0:0:
320,192,39880,1,0,0:0:0:0:
192,192,40046,128,0,40130:0:0:0:0:
64,192,40213,128,2,40546:0:0:0:0:
448,192,40213,1,0,0:0:0:0:
320,192,40296,128,0,40546:0:0:0:0:
448,192,40546,1,0,0:0:0:0:
192,192,40713,1,2,0:0:0:0:
64,192,40713,1,0,0:0:0:0:
448,192,40880,1,8,0:0:0:0:
320,192,40880,1,0,0:0:0:0:
192,192,41046,1,0,0:0:0:30:snare2.wav
320,192,41130,1,0,0:0:0:30:snare2.wav
448,192,41213,128,2,41546:0:0:0:0:
64,192,41213,1,0,0:0:0:0:
320,192,41296,128,0,41546:0:0:0:0:
64,192,41546,128,0,41713:0:0:0:0:
192,192,41630,128,0,41713:0:0:0:0:
320,192,41713,1,0,0:0:0:0:
448,192,41880,128,2,42213:0:0:0:0:
64,192,41880,1,0,0:0:0:0:
320,192,41963,128,0,42213:0:0:0:0:
64,192,42213,1,8,0:0:0:0:
192,192,42213,1,0,0:0:0:0:
448,192,42380,128,2,42463:0:0:0:0:
64,192,42380,1,0,0:0:0:0:
320,192,42546,128,0,42630:0:0:0:40:clap.wav
320,192,42713,128,0,42796:0:0:0:40:clap.wav
64,192,42880,128,2,43213:0:0:0:0:
448,192,42880,1,0,0:0:0:0:
192,192,42963,128,0,43213:0:0:0:0:
320,192,43213,1,0,0:0:0:0:
192,192,43380,1,0,0:0:0:0:
448,192,43546,1,8,0:0:0:0:
64,192,43546,1,0,0:0:0:0:
320,192,43713,1,0,0:0:0:0:
448,192,43880,1,0,0:0:0:0:
192,192,44046,1,2,0:0:0:0:
64,192,44046,128,0,44130:0:0:0:0:
320,192,44213,128,0,44296:0:0:0:0:
320,192,44380,128,0,44463:0:0:0:0:
192,192,44546,128,2,44630:0:0:0:0:
64,192,44546,1,0,0:0:0:0:
192,192,44713,128,0,44796:0:0:0:0:
448,192,44880,128,8,44963:0:0:0:0:
64,192,44880,1,0,0:0:0:0:
448,192,45046,128,0,45130:0:0:0:0:
320,192,45213,128,2,45296:0:0:0:0:
64,192,45213,1,0,0:0:0:0:
192,192,45380,128,0,45463:0:0:0:0:
64,192,45546,128,2,45880:0:0:0:0:
448,192,45546,1,0,0:0:0:0:
320,192,45630,128,0,45880:0:0:0:0:
448,192,45880,1,2,0:0:0:0:
192,192,45963,128,0,46046:0:0:0:0:
448,192,46046,128,0,46213:0:0:0:0:
192,192,46213,1,8,0:0:0:0:
64,192,46213,1,0,0:0:0:0:
320,192,46380,128,2,46630:0:0:0:0:
448,192,46380,128,0,46630:0:0:0:0:
64,192,46463,128,0,46630:0:0:0:0:
64,192,46713,128,2,47130:0:0:0:0:
192,192,46713,128,0,47130:0:0:0:0:
448,192,46796,128,0,47130:0:0:0:0:
320,192,47213,128,2,47630:0:0:0:0:
448,192,47213,128,0,47630:0:0:0:0:
192,192,47296,128,0,47630:0:0:0:0:
448,192,47713,128,2,48130:0:0:0:0:
64,192,47713,128,0,48130:0:0:0:0:
320,192,47796,128,0,48130:0:0:0:0:
448,192,48213,128,2,48546:0:0:0:0:
64,192,48213,1,4,0:0:0:0:
320,192,48296,128,0,48546:0:0:0:0:
192,192,48380,128,0,48546:0:0:0:0:
64,192,48546,128,0,48713:0:0:0:0:
320,192,48713,128,0,48880:0:0:0:0:
192,192,48880,128,8,49046:0:0:0:0:
64,192,48880,1,0,0:0:0:0:
448,192,49046,128,0,49213:0:0:0:0:
192,192,49213,1,0,0:0:0:0:
64,192,49380,1,2,0:0:0:0:
448,192,49380,128,0,49880:0:0:0:0:
320,192,49463,128,0,49880:0:0:0:0:
64,192,49880,128,2,49963:0:0:0:0:
192,192,49880,1,0,0:0:0:0:
64,192,50046,128,0,50130:0:0:0:0:
448,192,50213,128,8,50296:0:0:0:0:
192,192,50213,1,0,0:0:0:0:
448,192,50380,128,0,50463:0:0:0:0:
192,192,50546,128,0,50630:0:0:0:0:
320,192,50713,128,0,50796:0:0:0:0:
64,192,50880,128,2,51213:0:0:0:0:
192,192,50880,1,0,0:0:0:0:
448,192,50963,128,0,51213:0:0:0:0:
320,192,51213,128,0,51296:0:0:0:0:
64,192,51380,128,0,51463:0:0:0:0:
320,192,51463,128,0,51546:0:0:0:0:
64,192,51546,1,8,0:0:0:0:
448,192,51546,1,0,0:0:0:0:
192,192,51630,128,0,51713:0:0:0:0:
448,192,51713,128,0,51796:0:0:0:0:
64,192,51880,128,0,51963:0:0:0:0:
448,192,51963,128,0,52046:0:0:0:0:
64,192,52046,128,2,52380:0:0:0:0:
320,192,52046,1,0,0:0:0:0:
192,192,52130,128,0,52380:0:0:0:0:
448,192,52380,128,0,52463:0:0:0:0:
64,192,52463,128,0,52546:0:0:0:0:
448,192,52546,128,2,52630:0:0:0:0:
192,192,52546,1,0,0:0:0:0:
64,192,52630,128,0,52713:0:0:0:0:
320,192,52713,128,0,52796:0:0:0:0:
192,192,52880,128,8,52963:0:0:0:0:
448,192,52880,1,0,0:0:0:0:
192,192,53046,128,0,53130:0:0:0:0:
448,192,53213,1,2,0:0:0:0:
320,192,53213,128,0,53296:0:0:0:0:
64,192,53380,128,0,53463:0:0:0:0:
448,192,53546,128,2,53880:0:0:0:0:
192,192,53546,1,0,0:0:0:0:
320,192,53630,128,0,53880:0:0:0:0:
64,192,53880,128,0,54046:0:0:0:0:
320,192,54046,128,0,54213:0:0:0:0:
448,192,54213,128,8,54380:0:0:0:0:
64,192,54213,1,0,0:0:0:0:
192,192,54380,128,0,54546:0:0:0:0:
64,192,54546,128,0,54713:0:0:0:0:
448,192,54713,128,2,55046:0:0:0:0:
320,192,54713,1,0,0:0:0:0:
192,192,54796,128,0,55046:0:0:0:0:
64,192,55213,128,2,55546:0:0:0:0:
448,192,55213,1,0,0:0:0:0:
192,192,55296,128,0,55546:0:0:0:0:
448,192,55546,1,8,0:0:0:0:
320,192,55546,1,0,0:0:0:0:
192,192,55713,1,2,0:0:0:0:
64,192,55713,1,0,0:0:0:0:
448,192,55880,128,0,56130:0:0:0:0:
64,192,55963,128,0,56130:0:0:0:0:
320,192,56213,1,0,0:0:0:30:ride08.wav
448,192,56213,1,0,0:0:0:0:
192,192,56380,1,0,0:0:0:0:
320,192,56546,1,0,0:0:0:0:
64,192,56713,1,0,0:0:0:0:
448,192,56880,1,0,0:0:0:0:
192,192,57046,1,0,0:0:0:0:
320,192,57213,1,0,0:0:0:0:
64,192,57296,1,0,0:0:0:0:
448,192,57380,1,0,0:0:0:0:
192,192,57463,1,0,0:0:0:0:
320,192,57546,1,4,0:0:0:0:
64,192,57546,128,8,57630:0:0:0:0:
64,192,57713,128,2,57796:0:0:0:0:
192,192,57713,1,0,0:0:0:0:
320,192,57880,1,2,0:0:0:0:
448,192,57880,1,0,0:0:0:0:
192,192,58046,128,8,58130:0:0:0:0:
64,192,58046,1,4,0:0:0:0:
192,192,58213,128,2,58296:0:0:0:0:
448,192,58213,1,0,0:0:0:0:
64,192,58380,1,2,0:0:0:0:
320,192,58380,1,0,0:0:0:0:
192,192,58546,1,8,0:0:0:0:
448,192,58546,128,4,58630:0:0:0:0:
448,192,58713,128,8,58796:0:0:0:0:
320,192,58713,1,0,0:0:0:0:
448,192,58880,128,4,59046:0:0:0:0:
64,192,58880,128,2,59213:0:0:0:0:
192,192,58963,128,0,59213:0:0:0:0:
448,192,59213,128,0,59296:0:0:0:0:
64,192,59380,128,2,59463:0:0:0:0:
192,192,59380,1,0,0:0:0:0:
64,192,59546,128,8,59630:0:0:0:0:
448,192,59546,1,0,0:0:0:0:
320,192,59713,128,0,59796:0:0:0:0:
320,192,59880,128,2,59963:0:0:0:0:
192,192,59880,1,0,0:0:0:0:
64,192,60046,128,0,60213:0:0:0:0:
448,192,60213,128,0,60380:0:0:0:0:
192,192,60380,128,0,60463:0:0:0:0:
448,192,60546,1,2,0:0:0:0:
320,192,60546,128,0,60630:0:0:0:0:
320,192,60713,128,0,60796:0:0:0:0:
64,192,60880,128,8,60963:0:0:0:0:
448,192,60880,1,0,0:0:0:0:
64,192,61046,128,0,61130:0:0:0:0:
448,192,61213,128,2,61296:0:0:0:0:
320,192,61213,1,0,0:0:0:0:
192,192,61380,128,0,61463:0:0:0:0:
448,192,61546,128,2,61880:0:0:0:0:
64,192,61546,128,0,61713:0:0:0:0:
320,192,61630,128,0,61880:0:0:0:0:
64,192,61880,1,0,0:0:0:0:
448,192,62046,1,2,0:0:0:0:
320,192,62046,128,0,62130:0:0:0:0:
448,192,62213,1,8,0:0:0:0:
64,192,62213,128,0,62296:0:0:0:0:
64,192,62380,128,0,62463:0:0:0:0:
448,192,62546,128,2,62630:0:0:0:0:
192,192,62546,1,0,0:0:0:0:
320,192,62713,128,0,62880:0:0:0:0:
64,192,62880,1,0,0:0:0:0:
192,192,63046,128,0,63130:0:0:0:0:
448,192,63213,128,2,63296:0:0:0:0:
320,192,63213,1,0,0:0:0:0:
448,192,63380,128,0,63463:0:0:0:0:
64,192,63546,1,8,0:0:0:0:
320,192,63546,1,0,0:0:0:0:
192,192,63713,1,2,0:0:0:0:
448,192,63713,1,0,0:0:0:0:
320,192,63880,1,2,0:0:0:0:
448,192,63880,1,0,0:0:0:0:
192,192,64046,1,2,0:0:0:0:
64,192,64046,1,0,0:0:0:0:
64,192,64213,1,2,0:0:0:0:
448,192,64213,1,0,0:0:0:0:
320,192,64546,1,0,0:0:0:0:
320,192,64713,128,0,64796:0:0:0:0:
192,192,64796,128,0,64880:0:0:0:0:
320,192,64880,128,8,64963:0:0:0:0:
64,192,64880,1,0,0:0:0:0:
192,192,65046,1,2,0:0:0:0:
448,192,65046,1,0,0:0:0:0:
64,192,65130,128,0,65213:0:0:0:0:
320,192,65213,128,0,65296:0:0:0:0:
448,192,65380,128,0,65546:0:0:0:0:
64,192,65546,1,0,0:0:0:0:
320,192,65713,128,0,65796:0:0:0:0:
64,192,65880,128,2,65963:0:0:0:0:
192,192,65880,1,0,0:0:0:0:
64,192,66046,128,0,66130:0:0:0:0:
448,192,66213,128,8,66296:0:0:0:0:
320,192,66213,1,0,0:0:0:0:
192,192,66296,128,0,66380:0:0:0:0:
448,192,66380,128,0,66463:0:0:0:0:
192,192,66546,128,2,66630:0:0:0:0:
64,192,66546,1,0,0:0:0:0:
320,192,66713,128,2,66796:0:0:0:0:
64,192,66880,128,2,67046:0:0:0:0:
448,192,66880,128,4,67380:0:0:0:0:
320,192,66963,128,0,67380:0:0:0:0:
192,192,67130,1,0,0:0:0:0:
64,192,67213,1,0,0:0:0:0:
192,192,67380,1,0,0:0:0:0:
448,192,67546,1,8,0:0:0:0:
320,192,67546,1,0,0:0:0:0:
192,192,67713,1,0,0:0:0:0:
320,192,67796,1,0,0:0:0:0:
64,192,67880,128,2,68380:0:0:0:0:
448,192,67880,128,4,68046:0:0:0:0:
192,192,67963,128,0,68380:0:0:0:0:
320,192,68130,1,0,0:0:0:0:
448,192,68213,1,0,0:0:0:0:
320,192,68380,1,0,0:0:0:0:
448,192,68546,128,2,68880:0:0:0:0:
320,192,68546,128,4,68713:0:0:0:0:
64,192,68630,128,0,68880:0:0:0:0:
192,192,68880,1,8,0:0:0:0:
320,192,68880,1,0,0:0:0:0:
448,192,69046,128,2,69213:0:0:0:0:
64,192,69046,128,4,69463:0:0:0:0:
192,192,69130,128,0,69463:0:0:0:0:
320,192,69380,128,0,69463:0:0:0:0:
448,192,69546,128,2,69796:0:0:0:0:
64,192,69546,1,4,0:0:0:0:
320,192,69630,128,0,69796:0:0:0:0:
192,192,69713,128,0,69796:0:0:0:0:
64,192,69880,128,0,69963:0:0:0:0:
448,192,70046,128,2,70130:0:0:0:0:
320,192,70046,1,0,0:0:0:0:
448,192,70213,128,8,70296:0:0:0:0:
64,192,70213,1,0,0:0:0:0:
192,192,70380,128,0,70463:0:0:0:0:
192,192,70546,128,2,70630:0:0:0:0:
64,192,70546,1,0,0:0:0:0:
320,192,70713,128,0,70880:0:0:0:0:
64,192,70880,1,0,0:0:0:0:
448,192,71046,1,0,0:0:0:0:
320,192,71130,1,0,0:0:0:0:
192,192,71213,1,2,0:0:0:0:
64,192,71213,128,0,71296:0:0:0:0:
64,192,71380,128,0,71463:0:0:0:0:
320,192,71546,128,8,71630:0:0:0:0:
448,192,71546,1,0,0:0:0:0:
320,192,71713,128,0,71796:0:0:0:0:
448,192,71880,128,2,71963:0:0:0:0:
64,192,71880,1,0,0:0:0:0:
192,192,72046,128,0,72130:0:0:0:0:
448,192,72213,128,2,72463:0:0:0:0:
64,192,72213,128,0,72380:0:0:0:0:
320,192,72296,128,0,72463:0:0:0:0:
192,192,72546,128,0,72630:0:0:0:0:
192,192,72713,128,2,72796:0:0:0:0:
448,192,72713,1,0,0:0:0:0:
320,192,72880,128,8,72963:0:0:0:0:
64,192,72880,1,0,0:0:0:0:
320,192,73046,128,0,73130:0:0:0:0:
64,192,73213,128,2,73296:0:0:0:0:
192,192,73213,1,0,0:0:0:0:
448,192,73380,128,0,73546:0:0:0:0:
192,192,73546,128,0,73630:0:0:0:0:
192,192,73713,128,0,73796:0:0:0:0:
320,192,73880,128,2,73963:0:0:0:0:
448,192,73880,1,0,0:0:0:0:
320,192,74046,128,0,74130:0:0:0:0:
448,192,74213,128,8,74296:0:0:0:0:
64,192,74213,1,0,0:0:0:0:
448,192,74380,128,2,74463:0:0:0:0:
192,192,74380,1,0,0:0:0:0:
320,192,74463,1,0,0:0:0:0:
192,192,74546,1,0,0:0:0:40:clap.wav
64,192,74546,1,0,0:0:0:0:
192,192,74713,1,0,0:0:0:40:clap.wav
448,192,74713,1,0,0:0:0:0:
320,192,74880,1,2,0:0:0:0:
448,192,74880,1,0,0:0:0:70:Trambolined_Short.wav
64,192,74880,1,0,0:0:0:0:
