osu file format v14

[General]
AudioFilename: audio.mp3
AudioLeadIn: 0
PreviewTime: 5546
Countdown: 0
SampleSet: Soft
StackLeniency: 0.7
Mode: 3
LetterboxInBreaks: 0
SpecialStyle: 0
WidescreenStoryboard: 1

[Editor]
DistanceSpacing: 0.8
BeatDivisor: 4
GridSize: 4
TimelineZoom: 5.599997

[Metadata]
Title:Colors (Cut Ver.)
TitleUnicode:Colors (Cut Ver.)
Artist:ARForest
ArtistUnicode:ARForest
Creator:Scotty
Version:Easy
Source:osu!
Tags:electronic instrumental featured artist fa mappers' guild mg future bass colours
BeatmapID:2588585
BeatmapSetID:1244884

[Difficulty]
HPDrainRate:7
CircleSize:4
OverallDifficulty:6.5
ApproachRate:5
SliderMultiplier:1.4
SliderTickRate:1

[Events]
//Background and Video events
0,0,"e.jpeg",0,0
//Break Periods
//Storyboard Layer 0 (Background)
//Storyboard Layer 1 (Fail)
//Storyboard Layer 2 (Pass)
//Storyboard Layer 3 (Foreground)
//Storyboard Layer 4 (Overlay)
//Storyboard Sound Samples

[TimingPoints]
5547,333.333333333333,4,2,1,30,1,0
26880,-100,4,2,1,45,0,0
37546,-100,4,2,1,60,0,0

[HitObjects]
64,192,5546,5,0,0:0:0:70:Trambolined_Short.wav
192,192,5880,1,0,0:0:0:0:
448,192,6213,1,0,0:0:0:0:
320,192,6546,1,0,0:0:0:0:
192,192,6880,1,0,0:0:0:0:
64,192,7546,1,0,0:0:0:0:
192,192,7880,1,0,0:0:0:0:
320,192,8213,1,0,0:0:0:0:
64,192,8880,1,0,0:0:0:0:
448,192,9213,1,0,0:0:0:0:
320,192,9546,128,0,10213:0:0:0:0:
64,192,10213,128,0,10880:0:0:0:0:
448,192,10880,128,0,13546:0:0:0:0:
192,192,11880,1,0,0:0:0:0:
64,192,13546,1,0,0:0:0:0:
320,192,14546,1,0,0:0:0:0:
448,192,15546,128,0,16213:0:0:0:0:
192,192,16213,1,0,0:0:0:70:Trambolined_Short.wav
64,192,16546,1,0,0:0:0:0:
448,192,16880,1,0,0:0:0:40:clap.wav
320,192,17213,1,0,0:0:0:0:
192,192,17546,1,0,0:0:0:0:
64,192,18213,1,0,0:0:0:40:clap.wav
192,192,18546,1,0,0:0:0:0:
320,192,18880,1,0,0:0:0:0:
192,192,19546,1,0,0:0:0:40:clap.wav
320,192,19880,1,0,0:0:0:0:
448,192,20213,1,0,0:0:0:0:
320,192,20546,1,0,0:0:0:0:
64,192,20880,1,0,0:0:0:40:clap.wav
448,192,21213,1,0,0:0:0:0:
192,192,21546,1,0,0:0:0:0:
320,192,22213,1,0,0:0:0:40:clap.wav
64,192,22546,1,0,0:0:0:0:
192,192,23546,1,0,0:0:0:40:clap.wav
448,192,24213,1,0,0:0:0:0:
64,192,24880,1,0,0:0:0:40:clap.wav
320,192,25213,128,0,26880:0:0:0:0:
192,192,26213,1,0,0:0:0:40:clap.wav
64,192,26880,1,0,0:0:0:70:Trambolined_Short.wav
448,192,26880,1,0,0:0:0:30:snare.wav
192,192,27380,1,0,0:0:0:30:snare.wav
320,192,27546,1,0,0:0:0:30:snare.wav
64,192,27880,1,0,0:0:0:30:snare.wav
448,192,28380,1,0,0:0:0:30:snare.wav
192,192,28546,1,0,0:0:0:30:snare.wav
320,192,28880,1,0,0:0:0:30:snare.wav
64,192,29546,1,0,0:0:0:30:snare.wav
320,192,30046,1,0,0:0:0:30:snare.wav
192,192,30213,1,0,0:0:0:30:snare.wav
448,192,30546,1,0,0:0:0:30:snare.wav
64,192,31046,1,0,0:0:0:30:snare.wav
320,192,31213,1,0,0:0:0:30:snare.wav
192,192,31380,1,0,0:0:0:30:snare.wav
448,192,31546,1,0,0:0:0:30:snare.wav
64,192,31880,128,0,32213:0:0:0:30:snare2.wav
320,192,32213,1,0,0:0:0:30:snare.wav
192,192,32380,1,0,0:0:0:30:snare.wav
448,192,32546,1,0,0:0:0:30:snare.wav
64,192,32880,1,0,0:0:0:30:snare.wav
192,192,33213,1,0,0:0:0:30:snare.wav
320,192,33380,1,0,0:0:0:30:snare.wav
64,192,33713,1,0,0:0:0:30:snare.wav
448,192,33880,1,0,0:0:0:30:snare.wav
192,192,34046,1,0,0:0:0:30:snare.wav
320,192,34213,1,0,0:0:0:30:snare.wav
448,192,34546,1,0,0:0:0:0:
320,192,34713,1,0,0:0:0:0:
192,192,34880,128,0,35546:0:0:0:30:snare2.wav
64,192,35546,128,0,36213:0:0:0:35:snare2.wav
448,192,36213,128,0,37046:0:0:0:0:
192,192,37046,1,2,0:0:0:0:
320,192,37213,1,2,0:0:0:0:
448,192,37380,1,2,0:0:0:0:
64,192,37546,128,2,37880:0:0:0:0:
192,192,37546,1,4,0:0:0:0:
448,192,37880,1,0,0:0:0:0:
192,192,38046,1,2,0:0:0:0:
64,192,38213,1,8,0:0:0:0:
320,192,38546,128,2,38880:0:0:0:0:
64,192,38880,1,0,0:0:0:0:
448,192,39213,1,2,0:0:0:0:
64,192,39546,1,8,0:0:0:0:
320,192,39880,1,2,0:0:0:0:
192,192,40213,128,2,40546:0:0:0:0:
320,192,40546,1,0,0:0:0:0:
64,192,40713,1,2,0:0:0:0:
448,192,40880,1,8,0:0:0:0:
64,192,41213,128,2,41546:0:0:0:0:
448,192,41546,1,0,0:0:0:0:
64,192,41880,128,2,42213:0:0:0:0:
320,192,42213,1,8,0:0:0:0:
192,192,42380,1,2,0:0:0:0:
64,192,42546,1,0,0:0:0:40:clap.wav
320,192,42713,1,0,0:0:0:40:clap.wav
448,192,42880,128,2,43213:0:0:0:0:
192,192,43213,1,0,0:0:0:0:
320,192,43546,1,8,0:0:0:0:
64,192,43880,1,0,0:0:0:0:
192,192,44046,1,2,0:0:0:0:
448,192,44213,1,0,0:0:0:0:
64,192,44546,1,2,0:0:0:0:
448,192,44880,1,8,0:0:0:0:
320,192,45213,1,2,0:0:0:0:
192,192,45546,128,2,45880:0:0:0:0:
448,192,45880,1,2,0:0:0:0:
64,192,46213,1,8,0:0:0:0:
448,192,46380,128,2,46713:0:0:0:0:
192,192,46713,128,2,47213:0:0:0:0:
64,192,47213,128,2,47713:0:0:0:0:
448,192,47713,128,2,48213:0:0:0:0:
320,192,48213,128,2,48546:0:0:0:0:
64,192,48213,1,4,0:0:0:0:
192,192,48546,1,0,0:0:0:0:
64,192,48880,1,8,0:0:0:0:
448,192,49380,128,2,49880:0:0:0:0:
192,192,49880,1,2,0:0:0:0:
320,192,50213,1,8,0:0:0:0:
64,192,50546,1,0,0:0:0:0:
448,192,50880,128,2,51213:0:0:0:0:
192,192,51213,1,0,0:0:0:0:
320,192,51546,1,8,0:0:0:0:
448,192,51880,1,0,0:0:0:0:
192,192,52046,128,2,52380:0:0:0:0:
320,192,52380,128,0,52880:0:0:0:0:
64,192,52880,1,8,0:0:0:0:
448,192,53213,1,2,0:0:0:0:
192,192,53546,128,2,53880:0:0:0:0:
320,192,53880,1,0,0:0:0:0:
64,192,54213,1,8,0:0:0:0:
192,192,54546,1,0,0:0:0:0:
448,192,54713,128,2,55213:0:0:0:0:
192,192,55213,128,2,55546:0:0:0:0:
320,192,55546,1,8,0:0:0:0:
448,192,55713,1,2,0:0:0:0:
64,192,55880,128,0,56213:0:0:0:0:
320,192,56213,1,0,0:0:0:30:ride08.wav
448,192,57213,128,0,57546:0:0:0:0:
64,192,57546,1,4,0:0:0:0:
192,192,57546,1,8,0:0:0:0:
320,192,58046,1,8,0:0:0:0:
448,192,58046,1,4,0:0:0:0:
192,192,58546,1,12,0:0:0:0:
320,192,58713,1,8,0:0:0:0:
64,192,58880,1,4,0:0:0:0:
448,192,58880,1,2,0:0:0:0:
192,192,59380,1,2,0:0:0:0:
64,192,59546,1,8,0:0:0:0:
320,192,59880,1,2,0:0:0:0:
448,192,60213,1,0,0:0:0:0:
64,192,60546,1,2,0:0:0:0:
320,192,60880,1,8,0:0:0:0:
192,192,61213,1,2,0:0:0:0:
64,192,61546,1,2,0:0:0:0:
320,192,61880,1,0,0:0:0:0:
448,192,62046,1,2,0:0:0:0:
192,192,62213,1,8,0:0:0:0:
64,192,62546,1,2,0:0:0:0:
192,192,62880,1,0,0:0:0:0:
320,192,63213,1,2,0:0:0:0:
64,192,63546,1,8,0:0:0:0:
192,192,63713,1,2,0:0:0:0:
448,192,63880,1,2,0:0:0:0:
320,192,64046,1,2,0:0:0:0:
192,192,64213,1,2,0:0:0:0:
64,192,64880,1,8,0:0:0:0:
192,192,65046,1,2,0:0:0:0:
320,192,65213,1,0,0:0:0:0:
448,192,65546,1,0,0:0:0:0:
192,192,65880,1,2,0:0:0:0:
64,192,66213,1,8,0:0:0:0:
320,192,66546,1,2,0:0:0:0:
192,192,66713,1,2,0:0:0:0:
64,192,66880,128,2,67546:0:0:0:0:
448,192,66880,1,4,0:0:0:0:
320,192,67213,1,0,0:0:0:0:
448,192,67546,1,8,0:0:0:0:
192,192,67880,128,2,68546:0:0:0:0:
64,192,67880,1,4,0:0:0:0:
320,192,68546,128,2,68880:0:0:0:0:
448,192,68546,1,4,0:0:0:0:
192,192,68880,1,8,0:0:0:0:
448,192,69046,128,2,69546:0:0:0:0:
64,192,69046,1,4,0:0:0:0:
64,192,69546,1,2,0:0:0:0:
192,192,69546,1,4,0:0:0:0:
320,192,70046,1,2,0:0:0:0:
64,192,70213,1,8,0:0:0:0:
320,192,70546,1,2,0:0:0:0:
448,192,70880,1,0,0:0:0:0:
192,192,71213,1,2,0:0:0:0:
320,192,71546,1,8,0:0:0:0:
64,192,71880,1,2,0:0:0:0:
448,192,72213,1,2,0:0:0:0:
192,192,72546,1,0,0:0:0:0:
64,192,72713,1,2,0:0:0:0:
320,192,72880,1,8,0:0:0:0:
192,192,73213,1,2,0:0:0:0:
448,192,73546,1,0,0:0:0:0:
64,192,73880,1,2,0:0:0:0:
320,192,74213,1,8,0:0:0:0:
448,192,74546,1,0,0:0:0:40:clap.wav
192,192,74880,1,2,0:0:0:0:
64,192,74880,1,0,0:0:0:70:Trambolined_Short.wav
