osu file format v14

[General]
AudioFilename: audio.mp3
AudioLeadIn: 0
PreviewTime: 37377
Countdown: 0
SampleSet: Soft
StackLeniency: 0.7
Mode: 0
LetterboxInBreaks: 0
WidescreenStoryboard: 0

[Editor]
Bookmarks: 16377,26711,32044,37377,46044,48711,56044,58711,66711,70044,74711
DistanceSpacing: 1.4
BeatDivisor: 4
GridSize: 4
TimelineZoom: 2.400005

[Metadata]
Title:Colors
TitleUnicode:Colors
Artist:ARForest
ArtistUnicode:ARForest
Creator:CucumberCuc
Version:Easy
Source:
Tags:Future Bass walter85 SaltKing
BeatmapID:1412958
BeatmapSetID:606367

[Difficulty]
HPDrainRate:2
CircleSize:2
OverallDifficulty:3
ApproachRate:4
SliderMultiplier:1
SliderTickRate:1

[Events]
//Background and Video events
0,0,"ARForest.jpg",0,0
//Break Periods
2,80244,82724
2,92936,95808
//Storyboard Layer 0 (Background)
//Storyboard Layer 1 (Fail)
//Storyboard Layer 2 (Pass)
//Storyboard Layer 3 (Foreground)
//Storyboard Sound Samples

[TimingPoints]
5378,333.333333333333,4,2,0,25,1,0
5378,-125,4,2,0,25,0,0
16377,-125,4,2,0,35,0,0
26711,-125,4,2,0,25,0,0
37377,-111.111111111111,4,2,0,65,0,1
56044,-111.111111111111,4,2,0,50,0,0
58711,-111.111111111111,4,2,0,65,0,1
74711,-125,4,2,0,25,0,0
80044,-125,4,2,0,40,0,0
84044,-125,4,2,0,20,0,0
91071,416.383294702217,4,2,0,25,1,0
91071,-105.263157894737,4,2,0,25,0,0
91531,478.666666666667,4,2,0,25,1,0
91531,-105.263157894737,4,2,0,25,0,0
92020,745.666666666667,4,2,0,25,1,0
92020,-105.263157894737,4,2,0,25,0,0
92736,939.2088324673,4,2,0,25,1,0
92736,-100,4,2,0,25,0,0
94548,1318.34440470107,4,2,0,25,1,0
94548,-100,4,2,0,25,0,0
97128,362.981489546071,4,2,0,25,1,0
97128,-100,4,2,0,25,0,0
97490,419.281489546071,4,2,0,25,1,0
97490,-100,4,2,0,25,0,0
97909,413.281489546071,4,2,0,25,1,0
97909,-100,4,2,0,25,0,0
98322,-100,4,2,0,25,0,0
100440,833.333333333333,4,2,0,25,1,0

[Colours]
Combo1 : 230,56,26
Combo2 : 249,146,70
Combo3 : 6,249,18
Combo4 : 5,165,250

[HitObjects]
296,124,5378,6,0,P|256:131|219:146,1,80,2|0,0:0|0:0,0:0:0:0:
156,180,6044,2,0,P|141:142|136:103,2,80,2|4|2,0:0|0:0|0:0,0:0:0:0:
236,300,7377,2,0,P|307:331|380:303,1,160,2|4,0:0|0:0,0:0:0:0:
439,172,8711,6,0,P|435:134|419:86,2,80,2|4|2,0:0|0:0|0:0,0:0:0:0:
380,304,10044,1,4,0:0:0:0:
236,300,10711,2,0,B|231:212|140:187|140:187|215:128|167:45,1,320,2|2,0:0|0:0,0:0:0:0:
309,76,12711,1,0,0:0:0:0:
168,46,13377,6,0,P|90:55|30:119,1,160,4|2,0:0|0:0,0:0:0:0:
17,180,14377,2,0,L|13:271,1,80,4|2,0:0|0:0,0:0:0:0:
146,316,15377,2,0,P|224:331|306:312,1,160,6|6,0:0|0:0,0:0:0:0:
350,260,16377,5,2,0:0:0:0:
384,196,16711,2,0,P|420:220|448:256,2,80,8|4|2,0:0|0:0|0:0,0:0:0:0:
252,140,18044,2,0,P|176:140|124:208,1,160,8|4,0:0|0:0,0:0:0:0:
88,340,19377,6,0,P|121:361|160:365,1,80,8|2,0:0|0:0,0:0:0:0:
232,355,20044,2,0,B|224:315|200:282|200:282|224:243|228:199,1,160,0|8,0:0|0:0,0:0:0:0:
252,140,21044,1,0,0:0:0:0:
276,71,21377,6,0,P|311:53|351:51,1,80,4|0,0:0|0:0,0:0:0:0:
422,66,22044,2,0,B|438:106|438:106|436:160,1,80,8|2,0:0|0:0,0:0:0:0:
426,214,22711,1,0,0:0:0:0:
286,180,23377,1,10,0:0:0:0:
176,88,24044,6,0,L|96:96,1,80,4|0,0:0|0:0,0:0:0:0:
72,164,24711,1,8,0:0:0:0:
43,230,25044,2,0,L|126:237,1,80,6|0,0:0|0:0,0:0:0:0:
232,330,26044,2,0,L|314:326,1,80,12|0,0:0|0:0,0:0:0:0:
380,302,26711,6,0,L|402:172,2,120,4|0|12,0:0|0:0|0:0,0:0:0:0:
292,236,28211,2,0,L|276:101,1,120,8|4,0:0|0:0,0:0:0:0:
219,161,29044,1,2,0:0:0:0:
164,210,29377,6,0,P|126:162|68:130,2,120,4|0|12,0:0|0:0|0:0,0:0:0:0:
226,304,30877,2,0,P|287:315|345:298,1,120,8|8,0:0|0:0,0:0:0:0:
368,229,31711,1,4,0:0:0:0:
384,156,32044,6,0,B|320:108|320:108|236:104,1,160,8|8,0:0|0:0,0:0:0:0:
163,106,33044,2,0,P|151:126|151:158,1,40,8|8,0:0|0:0,0:0:0:0:
154,219,33544,2,0,B|202:239|202:239|270:239,1,120,8|8,0:0|0:0,0:0:0:0:
347,240,34377,1,2,0:0:0:0:
256,192,34711,12,2,36044,0:0:0:0:
376,110,37377,6,0,P|298:69|212:91,1,179.999994506836,4|8,0:0|0:0,0:0:0:0:
148,148,38377,6,0,P|135:193|135:249,1,89.9999972534181,4|0,0:0|0:0,0:0:0:0:
161,318,39044,2,0,B|205:298|249:302|249:302|289:278|353:286,1,179.999994506836,6|2,0:0|0:0,0:0:0:0:
421,296,40044,1,4,0:0:0:0:
453,126,40711,5,8,0:0:0:0:
367,136,41044,2,0,P|320:136|278:136,1,89.9999972534181,4|2,0:0|0:0,0:0:0:0:
191,124,41711,2,0,P|164:64|96:32,1,134.999995880127,4|2,0:0|0:0,0:0:0:0:
66,156,42711,1,4,0:0:0:0:
168,296,43377,6,0,P|234:290|279:241,1,134.999995880127,8|4,0:0|0:0,0:0:0:0:
323,120,44377,2,0,L|412:128,1,89.9999972534181,4|8,0:0|0:0,0:0:0:0:
416,215,45044,2,0,L|327:223,1,89.9999972534181,2|4,0:0|0:0,0:0:0:0:
166,160,46044,6,0,L|124:139,1,44.999998626709,8|4,0:0|0:0,0:0:0:0:
59,195,46544,2,0,P|51:271|64:336,1,134.999995880127,4|4,0:0|0:0,0:0:0:0:
191,328,47544,2,0,P|202:261|192:192,1,134.999995880127,4|4,0:0|0:0,0:0:0:0:
126,140,48377,1,2,0:0:0:0:
43,116,48711,6,0,L|179:116,1,134.999995880127,10|4,0:0|0:0,0:0:0:0:
307,129,49711,2,0,P|386:171|434:255,1,179.999994506836,4|2,0:0|0:0,0:0:0:0:
460,328,50711,6,0,B|408:300|372:296|328:308|292:332|292:332|256:352|216:364|176:352|148:332,1,314.999990386963,6|2,0:0|0:0,0:0:0:0:
98,227,52377,6,0,P|110:183|162:151,1,89.9999972534181,4|8,0:0|0:0,0:0:0:0:
224,124,53044,1,2,0:0:0:0:
310,131,53377,2,0,P|390:163|446:247,1,179.999994506836,4|8,0:0|0:0,0:0:0:0:
475,363,54544,6,0,B|416:348|416:348|328:348,1,134.999995880127,4|2,0:0|0:0,0:0:0:0:
256,340,55377,2,0,P|210:330|172:308,1,89.9999972534181,8|2,0:0|0:0,0:0:0:0:
110,250,56044,6,0,B|74:246|42:258|42:258|42:226|22:194,2,134.999995880127,2|8|2,0:0|0:0|0:0,0:0:0:0:
194,229,57377,6,0,P|224:194|269:190,1,89.9999972534181,4|4,0:0|0:0,0:0:0:0:
352,199,58044,1,0,0:0:0:0:
417,142,58377,2,0,L|429:90,1,44.999998626709,4|4,0:0|0:0,0:0:0:0:
438,56,58711,6,0,B|382:48|350:68|350:68|314:92|264:84,1,179.999994506836,4|10,0:0|0:0,0:0:0:0:
180,64,59711,2,0,P|136:64|100:104,1,89.9999972534181,4|0,0:0|0:0,0:0:0:0:
76,176,60377,2,0,L|32:181,2,44.999998626709,2|0|8,0:0|0:0|0:0,0:0:0:0:
108,256,61044,2,0,L|77:289,2,44.999998626709,2|0|4,0:0|0:0|0:0,0:0:0:0:
188,290,61711,6,0,L|280:290,1,89.9999972534181,0|10,0:0|0:0,0:0:0:0:
364,284,62378,2,0,P|398:304|436:344,2,89.9999972534181,4|0|0,0:0|0:0|0:0,0:0:0:0:
329,205,63377,1,8,0:0:0:0:
452,84,64044,5,4,0:0:0:0:
280,72,64711,2,0,P|272:180|244:252,1,179.999994506836,8|2,0:0|0:0,0:0:0:0:
179,300,65711,2,0,P|95:274|68:180,1,179.999994506836,4|2,0:0|0:0,0:0:0:0:
112,120,66711,6,0,P|202:113|304:152,1,179.999994506836,4|8,0:0|0:0,0:0:0:0:
361,184,67711,6,0,P|388:244|356:304,1,134.999995880127,4|0,0:0|0:0,0:0:0:0:
328,332,68377,2,0,P|285:341|240:341,1,89.9999972534181,4|8,0:0|0:0,0:0:0:0:
196,343,68877,6,0,B|191:310|191:310|202:283|194:255|194:255|206:231|202:203,1,134.999995880127,4|4,0:0|0:0,0:0:0:0:
255,46,70044,6,0,P|210:42|165:50,1,89.9999972534181,8|4,0:0|0:0,0:0:0:0:
91,93,70711,1,2,0:0:0:0:
24,148,71044,2,0,P|72:164|100:196,1,89.9999972534181,4|8,0:0|0:0,0:0:0:0:
153,259,71711,2,0,P|197:265|241:257,1,89.9999972534181,4|4,0:0|0:0,0:0:0:0:
322,226,72377,5,2,0:0:0:0:
400,192,72711,2,0,P|388:136|357:100,2,89.9999972534181,8|6|0,0:0|0:0|0:0,0:0:0:0:
391,275,73711,2,0,P|439:306|486:309,2,89.9999972534181,2|8|0,0:0|0:0|0:0,0:0:0:0:
256,192,74711,12,4,80044,0:0:0:0:
58,358,84044,5,2,0:0:0:0:
150,301,84544,2,0,P|184:283|228:208,1,120,0|2,0:0|0:0,0:0:0:0:
264,76,85711,6,0,P|224:68|184:76,2,80,2|2|2,0:0|0:0|0:0,0:0:0:0:
325,115,86711,1,4,0:0:0:0:
376,166,87044,2,0,P|386:200|386:244,1,80
354,309,87711,5,2,0:0:0:0:
212,288,88377,2,0,P|166:280|120:284,2,80,2|0|2,0:0|0:0|0:0,0:0:0:0:
286,300,89377,6,0,B|330:288|366:296|366:296|374:252|402:228|402:228|370:200|370:156|370:156|330:164|290:152|290:152|288:108|304:68|304:68,1,400,0|2,0:0|0:0,0:0:0:0:
244,2,91531,2,0,P|196:2|152:26,1,94.9999974632264,0|2,0:0|0:0,0:0:0:0:
104,77,92736,1,0,0:0:0:0:
38,131,97128,5,2,0:0:0:0:
34,214,97490,2,0,P|47:252|97:311,1,100,2|2,0:0|0:0,0:0:0:0:
167,345,98322,1,0,0:0:0:0:
167,345,100440,6,0,L|186:340,1,16.6666666666667,2|0,0:0|0:0,0:0:0:0:
