osu file format v14

[General]
AudioFilename: audio.ogg
AudioLeadIn: 0
PreviewTime: 103384
Countdown: 0
SampleSet: Normal
StackLeniency: 0.7
Mode: 3
LetterboxInBreaks: 0
SpecialStyle: 0
WidescreenStoryboard: 1

[Editor]
DistanceSpacing: 1.3
BeatDivisor: 4
GridSize: 32
TimelineZoom: 1

[Metadata]
Title:Clock Atelier
TitleUnicode:Clock Atelier
Artist:ARForest
ArtistUnicode:ARForest
Creator:yhsh
Version:Ultra
Source:Lanota
Tags:Lam- 시계공방 electronic folk instrumental Frost Era AFST-001 noxy games video game mobile Lab Presto chapter K 4 #ffffff Records piano artcore featured artist fa
BeatmapID:3743306
BeatmapSetID:1823582

[Difficulty]
HPDrainRate:8
CircleSize:6
OverallDifficulty:8
ApproachRate:5
SliderMultiplier:1.4
SliderTickRate:1

[Events]
//Background and Video events
0,0,"bg.jpg",0,0
//Break Periods
//Storyboard Layer 0 (Background)
//Storyboard Layer 1 (Fail)
//Storyboard Layer 2 (Pass)
//Storyboard Layer 3 (Foreground)
//Storyboard Layer 4 (Overlay)
//Storyboard Sound Samples

[TimingPoints]
0,307.692307692308,3,1,1,25,1,0
37846,-100.0,3,1,1,40,0,0
45230,-100.0,3,1,1,25,0,0
52615,-100.0,3,1,1,40,0,0
74769,-100.0,3,1,1,40,0,1
89538,-108.695652173913,3,1,1,40,0,0
96923,-100.0,3,1,1,40,0,0
104307,-100.0,3,1,1,40,0,1
124615,-108.695652173913,3,1,1,40,0,0

[HitObjects]
128,192,923,128,0,1384:0:0:0:0:
469,192,1384,128,0,1846:0:0:0:0:
213,192,1846,128,0,2153:0:0:0:0:
384,192,2153,128,0,2461:0:0:0:0:
42,192,2461,128,0,2769:0:0:0:0:
213,192,2769,128,0,3230:0:0:0:0:
384,192,3230,128,0,3692:0:0:0:0:
469,192,3692,128,0,4000:0:0:0:0:
298,192,4000,128,0,4307:0:0:0:0:
128,192,4307,128,0,4615:0:0:0:0:
42,192,4615,128,0,5076:0:0:0:0:
298,192,5076,128,0,5538:0:0:0:0:
213,192,5538,128,0,5846:0:0:0:0:
469,192,5846,128,0,6153:0:0:0:0:
42,192,6153,128,0,6461:0:0:0:0:
128,192,6461,128,0,6923:0:0:0:0:
298,192,6923,128,0,7384:0:0:0:0:
469,192,7384,128,0,7692:0:0:0:0:
213,192,7692,128,0,8000:0:0:0:0:
384,192,8000,128,0,8307:0:0:0:0:
128,192,8307,128,0,8769:0:0:0:0:
469,192,8769,128,0,9230:0:0:0:0:
213,192,8923,1,0,0:0:0:0:
42,192,9076,1,0,0:0:0:0:
298,192,9230,128,0,9538:0:0:0:0:
128,192,9538,128,0,9846:0:0:0:0:
384,192,9846,128,0,10153:0:0:0:0:
213,192,10153,128,0,10615:0:0:0:0:
298,192,10461,1,0,0:0:0:0:
469,192,10615,128,0,11076:0:0:0:0:
42,192,10769,1,0,0:0:0:0:
128,192,10923,1,0,0:0:0:0:
384,192,11076,128,0,11384:0:0:0:0:
213,192,11384,128,0,11692:0:0:0:0:
298,192,11538,1,0,0:0:0:0:
42,192,11692,128,0,12000:0:0:0:0:
469,192,12000,128,0,12461:0:0:0:0:
213,192,12307,1,0,0:0:0:0:
128,192,12461,128,0,12923:0:0:0:0:
384,192,12615,1,0,0:0:0:0:
298,192,12769,1,0,0:0:0:0:
42,192,12923,128,0,13230:0:0:0:0:
469,192,13230,128,0,13538:0:0:0:0:
213,192,13538,128,0,13846:0:0:0:0:
298,192,13846,128,0,14307:0:0:0:0:
128,192,14153,1,0,0:0:0:0:
42,192,14307,128,0,14769:0:0:0:0:
469,192,14461,1,0,0:0:0:0:
213,192,14615,1,0,0:0:0:0:
384,192,14769,128,0,15076:0:0:0:0:
128,192,15076,128,0,15384:0:0:0:0:
298,192,15384,128,0,15692:0:0:0:0:
213,192,15692,128,0,16615:0:0:0:0:
469,192,16000,1,0,0:0:0:0:
384,192,16153,1,0,0:0:0:0:
298,192,16307,1,0,0:0:0:0:
42,192,16461,1,0,0:0:0:0:
469,192,16615,128,0,17230:0:0:0:0:
384,192,16769,1,0,0:0:0:0:
42,192,16923,1,0,0:0:0:0:
298,192,17076,1,0,0:0:0:0:
128,192,17230,128,0,17538:0:0:0:0:
384,192,17384,1,0,0:0:0:0:
213,192,17538,128,0,18153:0:0:0:0:
298,192,17846,1,0,0:0:0:0:
384,192,18000,1,0,0:0:0:0:
42,192,18153,128,0,18461:0:0:0:0:
469,192,18153,1,0,0:0:0:0:
298,192,18307,1,0,0:0:0:0:
128,192,18461,128,0,18769:0:0:0:0:
384,192,18615,1,0,0:0:0:0:
298,192,18769,128,0,19076:0:0:0:0:
42,192,18923,1,0,0:0:0:0:
469,192,19076,128,0,19384:0:0:0:0:
213,192,19230,1,0,0:0:0:0:
128,192,19384,128,0,20307:0:0:0:0:
384,192,19692,1,0,0:0:0:0:
298,192,19846,1,0,0:0:0:0:
469,192,20000,1,0,0:0:0:0:
213,192,20153,1,0,0:0:0:0:
384,192,20307,128,0,21230:0:0:0:0:
42,192,20461,1,0,0:0:0:0:
213,192,20615,1,0,0:0:0:0:
469,192,20769,1,0,0:0:0:0:
42,192,20923,1,0,0:0:0:0:
128,192,21076,1,0,0:0:0:0:
298,192,21230,128,0,21538:0:0:0:0:
213,192,21538,128,0,21846:0:0:0:0:
469,192,21692,1,0,0:0:0:0:
42,192,21846,128,0,22153:0:0:0:0:
298,192,22000,1,0,0:0:0:0:
128,192,22153,128,0,22461:0:0:0:0:
384,192,22307,1,0,0:0:0:0:
213,192,22461,128,0,22769:0:0:0:0:
298,192,22615,1,0,0:0:0:0:
384,192,22769,128,0,23076:0:0:0:0:
42,192,22923,1,0,0:0:0:0:
469,192,23076,128,0,24000:0:0:0:0:
213,192,23384,1,0,0:0:0:0:
128,192,23538,1,0,0:0:0:0:
42,192,23692,1,0,0:0:0:0:
298,192,23846,1,0,0:0:0:0:
213,192,24000,128,0,24615:0:0:0:0:
384,192,24153,1,0,0:0:0:0:
42,192,24307,1,0,0:0:0:0:
469,192,24461,1,0,0:0:0:0:
128,192,24615,128,0,24923:0:0:0:0:
298,192,24769,1,0,0:0:0:0:
384,192,24923,128,0,25538:0:0:0:0:
213,192,25230,1,0,0:0:0:0:
128,192,25384,1,0,0:0:0:0:
42,192,25538,128,0,25846:0:0:0:0:
298,192,25692,1,0,0:0:0:0:
213,192,25846,128,0,26153:0:0:0:0:
469,192,26000,1,0,0:0:0:0:
298,192,26153,128,0,26461:0:0:0:0:
42,192,26307,1,0,0:0:0:0:
384,192,26461,128,0,26769:0:0:0:0:
128,192,26615,1,0,0:0:0:0:
213,192,26769,128,4,26923:0:0:0:0:
298,192,26769,1,0,0:0:0:0:
469,192,26923,1,0,0:0:0:0:
42,192,27076,128,0,27230:0:0:0:0:
298,192,27230,1,0,0:0:0:0:
384,192,27230,128,0,27384:0:0:0:0:
128,192,27384,1,0,0:0:0:0:
469,192,27538,128,0,27692:0:0:0:0:
42,192,27692,128,0,27846:0:0:0:0:
298,192,27692,1,0,0:0:0:0:
213,192,27846,1,0,0:0:0:0:
469,192,28000,1,0,0:0:0:0:
384,192,28153,128,0,28307:0:0:0:0:
298,192,28307,128,0,28461:0:0:0:0:
213,192,28461,128,0,28615:0:0:0:0:
42,192,28615,1,0,0:0:0:0:
128,192,28615,1,0,0:0:0:0:
42,192,28769,128,0,28923:0:0:0:0:
128,192,28769,128,0,28923:0:0:0:0:
469,192,28923,1,0,0:0:0:0:
42,192,29076,128,0,29230:0:0:0:0:
128,192,29076,128,0,29230:0:0:0:0:
298,192,29230,1,0,0:0:0:0:
42,192,29384,128,0,29538:0:0:0:0:
128,192,29384,128,0,29538:0:0:0:0:
213,192,29538,1,0,0:0:0:0:
298,192,29692,1,0,0:0:0:0:
384,192,29846,1,0,0:0:0:0:
469,192,30000,1,0,0:0:0:0:
42,192,30153,1,0,0:0:0:0:
128,192,30307,1,0,0:0:0:0:
213,192,30461,1,0,0:0:0:0:
298,192,30461,1,0,0:0:0:0:
128,192,30769,1,0,0:0:0:70:clap2.wav
469,192,30769,1,0,0:0:0:0:
213,192,30923,1,0,0:0:0:70:clap2.wav
384,192,30923,1,0,0:0:0:0:
42,192,31076,1,0,0:0:0:70:clap2.wav
298,192,31076,1,0,0:0:0:0:
384,192,31230,1,0,0:0:0:0:
128,192,31384,1,0,0:0:0:70:clap2.wav
213,192,31384,1,0,0:0:0:0:
469,192,31538,1,0,0:0:0:0:
42,192,31692,1,0,0:0:0:70:clap2.wav
384,192,31692,1,0,0:0:0:0:
128,192,31846,1,0,0:0:0:70:clap2.wav
298,192,31846,1,0,0:0:0:0:
213,192,32000,1,0,0:0:0:0:
384,192,32153,1,0,0:0:0:70:clap2.wav
469,192,32153,1,0,0:0:0:0:
42,192,32307,1,0,0:0:0:0:
298,192,32307,1,0,0:0:0:0:
213,192,32461,1,0,0:0:0:0:
128,192,32615,1,0,0:0:0:70:clap2.wav
298,192,32615,1,0,0:0:0:0:
42,192,32769,1,0,0:0:0:70:clap2.wav
384,192,32769,1,0,0:0:0:0:
213,192,32923,1,0,0:0:0:70:clap2.wav
469,192,32923,1,0,0:0:0:0:
128,192,33076,1,0,0:0:0:0:
298,192,33230,1,0,0:0:0:70:clap2.wav
384,192,33230,1,0,0:0:0:0:
42,192,33538,1,0,0:0:0:70:clap2.wav
128,192,33538,1,0,0:0:0:0:
384,192,33692,1,0,0:0:0:70:clap2.wav
469,192,33692,1,0,0:0:0:0:
213,192,33846,1,0,0:0:0:70:clap2.wav
298,192,33846,1,0,0:0:0:0:
42,192,34000,1,0,0:0:0:70:clap2.wav
128,192,34000,1,0,0:0:0:0:
384,192,34153,1,0,0:0:0:0:
469,192,34153,1,0,0:0:0:0:
42,192,34461,1,0,0:0:0:70:clap2.wav
298,192,34461,1,0,0:0:0:0:
213,192,34615,1,0,0:0:0:70:clap2.wav
469,192,34615,1,0,0:0:0:0:
128,192,34769,1,0,0:0:0:70:clap2.wav
384,192,34769,1,0,0:0:0:0:
42,192,34923,1,0,0:0:0:0:
213,192,35076,1,0,0:0:0:70:clap2.wav
469,192,35076,1,0,0:0:0:0:
298,192,35230,1,0,0:0:0:0:
42,192,35384,1,0,0:0:0:70:clap2.wav
384,192,35384,1,0,0:0:0:0:
213,192,35538,1,0,0:0:0:70:clap2.wav
469,192,35538,1,0,0:0:0:0:
128,192,35692,1,0,0:0:0:0:
42,192,35846,1,0,0:0:0:70:clap2.wav
298,192,35846,1,0,0:0:0:0:
384,192,36000,1,0,0:0:0:0:
469,192,36000,1,0,0:0:0:0:
128,192,36153,1,0,0:0:0:0:
42,192,36307,1,0,0:0:0:70:clap2.wav
298,192,36307,1,0,0:0:0:0:
213,192,36461,1,0,0:0:0:70:kick2.wav
384,192,36461,1,0,0:0:0:0:
128,192,36615,1,0,0:0:0:70:clap2.wav
469,192,36615,1,0,0:0:0:0:
298,192,36769,1,0,0:0:0:0:
42,192,36923,1,0,0:0:0:70:clap2.wav
384,192,36923,1,0,0:0:0:0:
213,192,37230,1,0,0:0:0:70:clap2.wav
298,192,37230,1,0,0:0:0:0:
384,192,37384,1,0,0:0:0:0:
469,192,37384,1,0,0:0:0:0:
42,192,37538,1,0,0:0:0:70:clap2.wav
128,192,37538,1,0,0:0:0:0:
213,192,37692,1,0,0:0:0:70:clap2.wav
298,192,37692,1,0,0:0:0:0:
42,192,37846,1,4,0:0:0:0:
384,192,37846,1,0,0:0:0:0:
469,192,37846,1,0,0:0:0:0:
128,192,38153,1,0,0:0:0:70:snare.wav
298,192,38153,128,0,38307:0:0:0:0:
384,192,38307,128,8,38461:0:0:0:0:
42,192,38461,1,8,0:0:0:0:
469,192,38461,128,0,38615:0:0:0:0:
213,192,38615,1,8,0:0:0:0:
298,192,38769,1,8,0:0:0:0:
384,192,38769,1,0,0:0:0:0:
42,192,38923,1,0,0:0:0:0:
213,192,39076,128,8,39230:0:0:0:0:
469,192,39076,1,0,0:0:0:0:
128,192,39230,128,0,39384:0:0:0:70:snare.wav
42,192,39384,128,8,39538:0:0:0:0:
384,192,39384,1,0,0:0:0:0:
213,192,39538,1,0,0:0:0:70:clapkick.wav
298,192,39538,1,0,0:0:0:0:
469,192,39538,1,0,0:0:0:0:
42,192,39692,1,8,0:0:0:0:
128,192,39692,1,0,0:0:0:0:
384,192,39846,1,0,0:0:0:70:snare.wav
213,192,40000,1,8,0:0:0:0:
298,192,40000,128,0,40153:0:0:0:0:
384,192,40153,128,0,40307:0:0:0:0:
128,192,40307,1,0,0:0:0:0:
469,192,40307,128,0,40461:0:0:0:0:
42,192,40461,1,0,0:0:0:70:snare.wav
298,192,40615,1,8,0:0:0:0:
384,192,40615,1,0,0:0:0:0:
128,192,40923,1,8,0:0:0:0:
213,192,40923,1,0,0:0:0:0:
469,192,41076,1,0,0:0:0:70:snare.wav
42,192,41230,1,8,0:0:0:0:
298,192,41230,1,0,0:0:0:0:
128,192,41384,1,8,0:0:0:0:
384,192,41538,1,8,0:0:0:0:
469,192,41538,1,0,0:0:0:0:
42,192,41846,128,0,42000:0:0:0:70:snare.wav
298,192,41846,1,0,0:0:0:0:
213,192,42000,128,8,42153:0:0:0:0:
128,192,42153,128,8,42307:0:0:0:0:
384,192,42153,1,0,0:0:0:0:
298,192,42307,1,8,0:0:0:0:
128,192,42461,1,8,0:0:0:0:
469,192,42461,1,0,0:0:0:0:
213,192,42615,1,0,0:0:0:0:
42,192,42769,1,8,0:0:0:0:
384,192,42769,128,0,42923:0:0:0:0:
298,192,42923,128,0,43076:0:0:0:70:snare.wav
213,192,43076,1,8,0:0:0:0:
469,192,43076,128,0,43230:0:0:0:0:
42,192,43230,1,0,0:0:0:70:clapkick.wav
128,192,43230,1,0,0:0:0:0:
384,192,43230,1,0,0:0:0:0:
213,192,43384,1,8,0:0:0:0:
298,192,43384,1,0,0:0:0:0:
384,192,43538,1,0,0:0:0:70:snare.wav
469,192,43692,1,8,0:0:0:0:
42,192,43846,1,0,0:0:0:0:
298,192,43846,128,0,44000:0:0:0:0:
213,192,44000,1,0,0:0:0:0:
469,192,44153,1,0,0:0:0:70:snare.wav
128,192,44307,128,8,44461:0:0:0:0:
298,192,44307,1,0,0:0:0:0:
42,192,44461,128,0,44615:0:0:0:0:
469,192,44615,128,8,44769:0:0:0:0:
128,192,44769,1,0,0:0:0:70:snare.wav
384,192,44769,128,0,44923:0:0:0:0:
213,192,44923,128,8,45076:0:0:0:0:
469,192,45076,1,8,0:0:0:0:
42,192,45230,1,4,0:0:0:0:
128,192,45230,1,0,0:0:0:0:
298,192,45230,128,0,45384:0:0:0:0:
213,192,45384,128,0,45538:0:0:0:0:
298,192,45538,128,0,45692:0:0:0:0:
384,192,45692,128,0,45846:0:0:0:0:
469,192,45846,128,0,46000:0:0:0:70:click.wav
42,192,46000,128,0,46153:0:0:0:0:
213,192,46153,128,0,46307:0:0:0:70:click.wav
298,192,46307,128,0,46461:0:0:0:0:
469,192,46461,128,0,46615:0:0:0:0:
384,192,46615,128,0,46769:0:0:0:0:
128,192,46769,128,0,46923:0:0:0:0:
42,192,46923,128,0,47076:0:0:0:0:
298,192,47076,128,0,48000:0:0:0:70:click.wav
213,192,47384,1,0,0:0:0:0:
42,192,47538,1,0,0:0:0:70:click.wav
469,192,48000,128,0,48153:0:0:0:70:click.wav
128,192,48153,128,0,48307:0:0:0:0:
42,192,48307,128,0,48461:0:0:0:0:
213,192,48461,128,0,48615:0:0:0:0:
298,192,48615,128,0,48769:0:0:0:70:click.wav
469,192,48769,128,0,48923:0:0:0:0:
213,192,48923,128,0,49076:0:0:0:70:click.wav
42,192,49076,128,0,49230:0:0:0:0:
298,192,49230,128,0,49384:0:0:0:0:
128,192,49384,128,0,49538:0:0:0:0:
213,192,49538,128,0,49692:0:0:0:70:click.wav
384,192,49692,128,0,49846:0:0:0:0:
469,192,49846,128,0,50000:0:0:0:70:click.wav
42,192,50000,128,0,50153:0:0:0:0:
298,192,50153,128,0,50307:0:0:0:0:
213,192,50307,128,0,50461:0:0:0:0:
128,192,50461,128,0,50615:0:0:0:0:
384,192,50615,128,0,50769:0:0:0:0:
469,192,50769,128,0,50923:0:0:0:70:click.wav
213,192,50923,128,0,51076:0:0:0:0:
42,192,51076,128,0,51230:0:0:0:0:
384,192,51230,128,0,51384:0:0:0:70:click.wav
469,192,51384,128,0,51538:0:0:0:0:
128,192,51538,128,0,51692:0:0:0:0:
42,192,51692,128,0,51846:0:0:0:70:click.wav
298,192,51846,128,0,52000:0:0:0:0:
469,192,52000,128,0,52153:0:0:0:0:
128,192,52153,128,0,52307:0:0:0:0:
469,192,52307,128,0,52461:0:0:0:0:
384,192,52461,128,0,52615:0:0:0:0:
42,192,52615,1,4,0:0:0:0:
128,192,52615,1,0,0:0:0:0:
213,192,52615,128,0,52769:0:0:0:0:
298,192,52769,128,0,52923:0:0:0:0:
42,192,52923,128,0,53076:0:0:0:0:
469,192,52923,1,0,0:0:0:0:
213,192,53076,128,0,53230:0:0:0:0:
128,192,53230,1,0,0:0:0:0:
384,192,53230,128,0,53384:0:0:0:0:
469,192,53384,128,0,53538:0:0:0:0:
213,192,53538,128,0,53692:0:0:0:0:
298,192,53538,1,0,0:0:0:0:
128,192,53692,128,0,53846:0:0:0:0:
42,192,53846,128,0,54000:0:0:0:0:
384,192,53846,1,0,0:0:0:0:
469,192,54000,128,0,54153:0:0:0:0:
213,192,54153,128,0,54307:0:0:0:0:
298,192,54153,1,0,0:0:0:0:
128,192,54307,128,0,54461:0:0:0:0:
42,192,54461,1,0,0:0:0:0:
384,192,54461,128,0,54615:0:0:0:0:
469,192,54615,128,0,54769:0:0:0:0:
298,192,54769,128,0,54923:0:0:0:0:
213,192,54923,1,0,0:0:0:0:
384,192,54923,128,0,55076:0:0:0:0:
128,192,55076,128,0,55230:0:0:0:0:
42,192,55230,128,0,55384:0:0:0:0:
213,192,55384,1,0,0:0:0:0:
298,192,55384,128,0,55538:0:0:0:0:
384,192,55538,128,0,55692:0:0:0:0:
469,192,55692,128,0,55846:0:0:0:0:
42,192,55846,128,0,56000:0:0:0:0:
128,192,56000,128,0,56153:0:0:0:0:
213,192,56153,128,0,56307:0:0:0:0:
298,192,56307,128,0,57846:0:0:0:0:
42,192,56615,1,0,0:0:0:0:
469,192,56769,1,0,0:0:0:0:
42,192,56923,1,0,0:0:0:0:
384,192,57230,1,0,0:0:0:0:
128,192,57384,1,0,0:0:0:0:
469,192,57538,1,0,0:0:0:0:
213,192,57692,1,0,0:0:0:0:
469,192,57846,1,0,0:0:0:0:
42,192,58153,1,4,0:0:0:0:
128,192,58153,1,0,0:0:0:0:
384,192,58153,1,0,0:0:0:0:
213,192,59076,1,0,0:0:0:0:
298,192,59076,1,0,0:0:0:0:
298,192,59384,1,0,0:0:0:0:
298,192,59692,1,0,0:0:0:0:
42,192,60000,128,4,60615:0:0:0:0:
128,192,60000,1,0,0:0:0:0:
469,192,60000,1,0,0:0:0:0:
213,192,60307,1,0,0:0:0:70:snare.wav
298,192,60307,1,0,0:0:0:0:
128,192,60461,1,0,0:0:0:70:snare.wav
384,192,60461,1,0,0:0:0:0:
213,192,60615,1,0,0:0:0:70:click.wav
469,192,60615,128,0,60923:0:0:0:0:
384,192,60769,1,0,0:0:0:0:
42,192,60923,1,2,0:0:0:0:
298,192,60923,128,0,61230:0:0:0:0:
213,192,61230,128,0,61538:0:0:0:70:snare.wav
469,192,61230,1,0,0:0:0:0:
128,192,61384,1,0,0:0:0:70:snare.wav
384,192,61384,1,0,0:0:0:0:
42,192,61538,128,0,61846:0:0:0:70:click.wav
298,192,61538,1,0,0:0:0:0:
469,192,61692,1,0,0:0:0:0:
298,192,61846,128,2,62307:0:0:0:0:
384,192,61846,1,0,0:0:0:0:
128,192,62153,1,0,0:0:0:70:snare.wav
213,192,62153,1,0,0:0:0:0:
42,192,62307,1,0,0:0:0:70:snare.wav
469,192,62307,1,0,0:0:0:0:
213,192,62461,1,0,0:0:0:70:click.wav
384,192,62461,128,0,62769:0:0:0:0:
298,192,62615,1,0,0:0:0:0:
42,192,62769,1,2,0:0:0:0:
128,192,62769,128,0,63076:0:0:0:0:
384,192,62923,1,0,0:0:0:0:
213,192,63076,1,0,0:0:0:70:click.wav
469,192,63076,128,0,63384:0:0:0:0:
298,192,63230,1,0,0:0:0:70:click.wav
42,192,63384,1,0,0:0:0:70:click.wav
213,192,63384,128,0,63692:0:0:0:0:
384,192,63538,1,0,0:0:0:0:
128,192,63692,128,2,64615:0:0:0:0:
469,192,63692,1,0,0:0:0:0:
42,192,64000,1,0,0:0:0:70:snare.wav
384,192,64000,1,0,0:0:0:0:
298,192,64153,1,0,0:0:0:70:snare.wav
469,192,64153,1,0,0:0:0:0:
213,192,64307,1,0,0:0:0:70:click.wav
384,192,64307,1,0,0:0:0:0:
42,192,64461,1,0,0:0:0:0:
298,192,64615,1,2,0:0:0:0:
469,192,64615,128,0,65538:0:0:0:0:
128,192,64923,1,0,0:0:0:70:snare.wav
213,192,64923,1,0,0:0:0:0:
42,192,65076,1,0,0:0:0:70:snare.wav
298,192,65076,1,0,0:0:0:0:
213,192,65230,1,0,0:0:0:70:click.wav
384,192,65230,1,0,0:0:0:0:
128,192,65384,1,0,0:0:0:0:
42,192,65538,1,2,0:0:0:0:
298,192,65538,128,0,65692:0:0:0:0:
128,192,65692,128,0,65846:0:0:0:0:
384,192,65846,128,0,66000:0:0:0:70:snare.wav
469,192,65846,1,0,0:0:0:0:
213,192,66000,128,0,66153:0:0:0:70:snare.wav
298,192,66000,1,0,0:0:0:0:
128,192,66153,1,0,0:0:0:70:click.wav
469,192,66153,128,0,66307:0:0:0:0:
42,192,66307,128,0,66461:0:0:0:70:snare.wav
298,192,66307,1,0,0:0:0:0:
213,192,66461,1,2,0:0:0:0:
384,192,66461,128,0,66615:0:0:0:0:
128,192,66615,128,0,66769:0:0:0:70:snare.wav
42,192,66769,1,0,0:0:0:70:click.wav
298,192,66769,128,0,66923:0:0:0:0:
213,192,66923,128,0,67076:0:0:0:70:click.wav
128,192,67076,1,0,0:0:0:70:click.wav
469,192,67076,128,0,67230:0:0:0:0:
42,192,67230,128,0,67384:0:0:0:70:snare.wav
213,192,67384,1,2,0:0:0:0:
298,192,67384,128,0,68000:0:0:0:0:
384,192,67692,1,0,0:0:0:70:snare.wav
469,192,67692,1,0,0:0:0:0:
128,192,67846,1,0,0:0:0:70:snare.wav
213,192,67846,1,0,0:0:0:0:
42,192,68000,128,0,68307:0:0:0:70:click.wav
384,192,68000,1,0,0:0:0:0:
469,192,68153,1,0,0:0:0:0:
213,192,68307,128,2,68615:0:0:0:0:
298,192,68307,1,0,0:0:0:0:
128,192,68615,1,0,0:0:0:70:snare.wav
384,192,68615,128,0,68923:0:0:0:0:
42,192,68769,1,0,0:0:0:70:snare.wav
469,192,68769,1,0,0:0:0:0:
213,192,68923,1,0,0:0:0:70:click.wav
298,192,68923,128,0,69230:0:0:0:0:
384,192,69076,1,0,0:0:0:0:
42,192,69230,1,2,0:0:0:0:
128,192,69230,128,0,69846:0:0:0:0:
213,192,69538,1,0,0:0:0:70:snare.wav
384,192,69538,1,0,0:0:0:0:
298,192,69692,1,0,0:0:0:70:snare.wav
469,192,69692,1,0,0:0:0:0:
42,192,69846,1,0,0:0:0:70:click.wav
213,192,69846,128,0,70153:0:0:0:0:
384,192,70000,1,0,0:0:0:0:
298,192,70153,128,2,70461:0:0:0:0:
469,192,70153,1,0,0:0:0:0:
128,192,70307,1,0,0:0:0:0:
42,192,70461,128,0,70769:0:0:0:70:click.wav
384,192,70461,1,0,0:0:0:0:
213,192,70615,1,0,0:0:0:70:click.wav
384,192,70769,128,0,71076:0:0:0:70:click.wav
469,192,70769,1,0,0:0:0:0:
298,192,70923,1,0,0:0:0:0:
128,192,71076,128,2,72000:0:0:0:0:
213,192,71076,1,0,0:0:0:0:
42,192,71384,1,0,0:0:0:70:snare.wav
469,192,71384,1,0,0:0:0:0:
213,192,71538,1,0,0:0:0:70:snare.wav
384,192,71538,1,0,0:0:0:0:
298,192,71692,1,0,0:0:0:70:click.wav
469,192,71692,1,0,0:0:0:0:
384,192,71846,1,0,0:0:0:0:
42,192,72000,1,2,0:0:0:0:
213,192,72000,128,0,72923:0:0:0:0:
384,192,72307,1,0,0:0:0:70:snare.wav
469,192,72307,1,0,0:0:0:0:
42,192,72461,1,0,0:0:0:70:snare.wav
298,192,72461,1,0,0:0:0:0:
128,192,72615,1,0,0:0:0:70:click.wav
469,192,72615,1,0,0:0:0:0:
298,192,72769,1,0,0:0:0:0:
42,192,72923,1,2,0:0:0:0:
384,192,72923,128,0,73076:0:0:0:0:
128,192,73076,128,0,73230:0:0:0:0:
298,192,73230,128,0,73384:0:0:0:70:snare.wav
469,192,73230,1,0,0:0:0:0:
42,192,73384,128,0,73538:0:0:0:70:snare.wav
213,192,73384,1,0,0:0:0:0:
128,192,73538,1,0,0:0:0:70:click.wav
469,192,73538,128,0,73692:0:0:0:0:
298,192,73692,1,0,0:0:0:70:snare.wav
384,192,73692,128,0,73846:0:0:0:0:
128,192,73846,1,2,0:0:0:0:
213,192,73846,128,0,74000:0:0:0:0:
42,192,74000,128,0,74153:0:0:0:70:snare.wav
298,192,74153,128,0,74307:0:0:0:70:click.wav
384,192,74153,1,0,0:0:0:0:
469,192,74307,128,0,74461:0:0:0:70:click.wav
42,192,74461,1,0,0:0:0:70:click.wav
213,192,74461,128,0,74615:0:0:0:0:
128,192,74615,128,0,74769:0:0:0:70:snare.wav
298,192,74769,1,4,0:0:0:0:
384,192,74769,128,0,74923:0:0:0:0:
469,192,74769,1,0,0:0:0:0:
213,192,74923,128,0,75076:0:0:0:0:
42,192,75076,128,0,75230:0:0:0:70:snare.wav
384,192,75230,1,2,0:0:0:0:
469,192,75230,128,0,75384:0:0:0:0:
298,192,75384,128,0,75538:0:0:0:70:snare.wav
128,192,75538,128,0,75692:0:0:0:0:
384,192,75692,128,2,76615:0:0:0:0:
469,192,75692,1,0,0:0:0:0:
128,192,76000,1,2,0:0:0:0:
213,192,76000,1,0,0:0:0:0:
298,192,76153,1,0,0:0:0:70:snare.wav
128,192,76307,1,2,0:0:0:0:
213,192,76307,1,0,0:0:0:0:
469,192,76461,1,0,0:0:0:70:snare.wav
42,192,76615,128,2,76769:0:0:0:0:
298,192,76615,1,0,0:0:0:0:
213,192,76769,128,0,76923:0:0:0:0:
128,192,76923,128,0,77076:0:0:0:70:snare.wav
42,192,77076,1,2,0:0:0:0:
384,192,77076,128,0,77230:0:0:0:0:
298,192,77230,128,0,77384:0:0:0:70:snare.wav
469,192,77384,128,0,77538:0:0:0:0:
42,192,77538,128,2,78153:0:0:0:0:
128,192,77538,1,0,0:0:0:0:
298,192,77846,1,2,0:0:0:0:
384,192,77846,1,0,0:0:0:0:
213,192,78000,1,0,0:0:0:70:snare.wav
469,192,78153,128,0,78461:0:0:0:70:snare.wav
128,192,78307,1,2,0:0:0:0:
213,192,78307,1,0,0:0:0:0:
298,192,78461,1,2,0:0:0:0:
384,192,78461,128,0,78615:0:0:0:0:
469,192,78615,128,0,78769:0:0:0:0:
42,192,78769,128,0,78923:0:0:0:70:snare.wav
128,192,78923,128,2,79076:0:0:0:0:
384,192,78923,1,0,0:0:0:0:
213,192,79076,128,0,79230:0:0:0:70:snare.wav
298,192,79230,128,0,79384:0:0:0:0:
384,192,79384,128,2,80000:0:0:0:0:
469,192,79384,1,0,0:0:0:0:
42,192,79692,1,2,0:0:0:0:
128,192,79692,1,0,0:0:0:0:
298,192,79846,1,0,0:0:0:70:snare.wav
42,192,80000,1,2,0:0:0:0:
128,192,80000,128,0,80153:0:0:0:0:
213,192,80153,128,0,80307:0:0:0:70:snare.wav
384,192,80307,1,2,0:0:0:0:
469,192,80307,128,0,80923:0:0:0:0:
42,192,80615,1,2,0:0:0:0:
128,192,80615,1,0,0:0:0:0:
298,192,80769,1,2,0:0:0:0:
384,192,80769,1,0,0:0:0:0:
128,192,80923,128,0,81076:0:0:0:70:snare.wav
213,192,81076,128,2,81230:0:0:0:0:
298,192,81076,1,0,0:0:0:0:
384,192,81230,1,2,0:0:0:0:
469,192,81230,128,0,81538:0:0:0:0:
42,192,81384,1,0,0:0:0:70:snare.wav
128,192,81538,1,2,0:0:0:0:
213,192,81538,1,0,0:0:0:0:
298,192,81692,128,0,81846:0:0:0:70:snare.wav
42,192,81846,128,0,82000:0:0:0:70:snare.wav
384,192,82000,128,2,82153:0:0:0:0:
469,192,82000,1,0,0:0:0:0:
128,192,82153,128,2,82307:0:0:0:0:
213,192,82153,1,0,0:0:0:0:
298,192,82307,128,0,82461:0:0:0:0:
469,192,82461,128,0,82615:0:0:0:70:snare.wav
42,192,82615,128,2,82769:0:0:0:0:
128,192,82615,1,0,0:0:0:0:
213,192,82769,128,0,82923:0:0:0:70:snare.wav
384,192,82923,128,0,83076:0:0:0:0:
128,192,83076,128,2,84000:0:0:0:0:
298,192,83076,1,0,0:0:0:0:
384,192,83384,1,2,0:0:0:0:
469,192,83384,1,0,0:0:0:0:
42,192,83538,1,0,0:0:0:70:snare.wav
384,192,83692,1,2,0:0:0:0:
469,192,83692,1,0,0:0:0:0:
213,192,83846,1,0,0:0:0:70:snare.wav
42,192,84000,1,2,0:0:0:0:
298,192,84000,128,0,84153:0:0:0:0:
469,192,84153,128,0,84307:0:0:0:0:
384,192,84307,128,0,84461:0:0:0:70:snare.wav
213,192,84461,128,2,84615:0:0:0:0:
298,192,84461,1,0,0:0:0:0:
42,192,84615,128,0,84769:0:0:0:70:snare.wav
128,192,84769,128,0,84923:0:0:0:0:
384,192,84923,1,2,0:0:0:0:
469,192,84923,128,0,85538:0:0:0:0:
128,192,85230,1,2,0:0:0:0:
213,192,85230,1,0,0:0:0:0:
298,192,85384,1,0,0:0:0:70:snare.wav
42,192,85538,128,0,85846:0:0:0:70:snare.wav
298,192,85692,1,2,0:0:0:0:
384,192,85692,1,0,0:0:0:0:
128,192,85846,128,2,86000:0:0:0:0:
213,192,85846,1,0,0:0:0:0:
42,192,86000,128,0,86153:0:0:0:0:
469,192,86153,128,0,86307:0:0:0:70:snare.wav
128,192,86307,1,2,0:0:0:0:
384,192,86307,128,0,86461:0:0:0:0:
298,192,86461,128,0,86615:0:0:0:70:snare.wav
213,192,86615,128,0,86769:0:0:0:0:
42,192,86769,1,2,0:0:0:0:
128,192,86769,128,0,87384:0:0:0:0:
384,192,87076,1,2,0:0:0:0:
469,192,87076,1,0,0:0:0:0:
213,192,87230,1,0,0:0:0:70:snare.wav
384,192,87384,1,2,0:0:0:0:
469,192,87384,128,0,87538:0:0:0:0:
298,192,87538,128,0,87692:0:0:0:70:snare.wav
42,192,87692,1,2,0:0:0:0:
213,192,87692,128,0,88307:0:0:0:0:
128,192,88000,1,2,0:0:0:0:
298,192,88000,1,0,0:0:0:0:
42,192,88153,1,2,0:0:0:0:
384,192,88153,1,0,0:0:0:0:
469,192,88307,128,0,88461:0:0:0:70:snare.wav
298,192,88461,128,2,88615:0:0:0:0:
128,192,88615,1,2,0:0:0:0:
213,192,88615,128,0,88923:0:0:0:0:
384,192,88923,1,2,0:0:0:0:
469,192,88923,1,0,0:0:0:0:
213,192,89076,128,0,89230:0:0:0:70:snare.wav
298,192,89230,128,0,89384:0:0:0:70:snare.wav
42,192,89384,128,2,89538:0:0:0:0:
128,192,89384,1,0,0:0:0:0:
213,192,89538,1,4,0:0:0:0:
384,192,89538,1,0,0:0:0:0:
469,192,90153,1,0,0:0:0:0:
42,192,90461,1,0,0:0:0:0:
298,192,90461,1,0,0:0:0:0:
384,192,90769,1,0,0:0:0:0:
128,192,91076,1,0,0:0:0:0:
213,192,91384,1,0,0:0:0:0:
469,192,91384,1,0,0:0:0:0:
298,192,91692,1,0,0:0:0:0:
384,192,92000,1,0,0:0:0:0:
128,192,92307,1,0,0:0:0:0:
469,192,92307,1,0,0:0:0:0:
42,192,92769,1,0,0:0:0:0:
298,192,92769,1,0,0:0:0:0:
213,192,93230,1,0,0:0:0:0:
469,192,93230,1,0,0:0:0:0:
298,192,93692,1,0,0:0:0:0:
42,192,94153,1,0,0:0:0:0:
384,192,94153,1,0,0:0:0:0:
128,192,94461,1,0,0:0:0:0:
469,192,94615,1,0,0:0:0:0:
213,192,94769,1,0,0:0:0:0:
42,192,95076,1,0,0:0:0:0:
384,192,95076,1,0,0:0:0:0:
213,192,95384,1,0,0:0:0:0:
42,192,95692,1,0,0:0:0:0:
128,192,96000,1,0,0:0:0:0:
469,192,96000,1,0,0:0:0:0:
298,192,96307,1,0,0:0:0:0:
128,192,96615,1,0,0:0:0:0:
42,192,96923,1,4,0:0:0:0:
384,192,96923,1,0,0:0:0:0:
469,192,96923,1,0,0:0:0:0:
298,192,97076,1,0,0:0:0:0:
213,192,97230,1,0,0:0:0:70:snare.wav
128,192,97384,1,8,0:0:0:0:
469,192,97384,1,0,0:0:0:0:
384,192,97538,1,8,0:0:0:0:
42,192,97692,1,0,0:0:0:70:snare.wav
128,192,97846,1,8,0:0:0:0:
298,192,97846,1,0,0:0:0:0:
469,192,98000,1,0,0:0:0:0:
42,192,98153,1,8,0:0:0:0:
384,192,98153,1,0,0:0:0:0:
213,192,98307,1,0,0:0:0:70:snare.wav
128,192,98461,1,8,0:0:0:0:
469,192,98461,1,0,0:0:0:0:
213,192,98615,1,0,0:0:0:70:clapkick.wav
298,192,98615,1,0,0:0:0:0:
384,192,98615,1,0,0:0:0:0:
42,192,98769,1,8,0:0:0:0:
128,192,98769,1,0,0:0:0:0:
384,192,98923,1,0,0:0:0:70:snare.wav
213,192,99076,1,8,0:0:0:0:
469,192,99076,1,0,0:0:0:0:
298,192,99230,1,8,0:0:0:0:
128,192,99384,1,8,0:0:0:0:
384,192,99384,1,0,0:0:0:0:
213,192,99538,1,0,0:0:0:70:snare.wav
42,192,99692,1,8,0:0:0:0:
298,192,99692,1,0,0:0:0:0:
128,192,99846,1,0,0:0:0:0:
213,192,100000,1,8,0:0:0:0:
384,192,100000,1,0,0:0:0:0:
298,192,100153,1,0,0:0:0:70:snare.wav
128,192,100307,1,8,0:0:0:0:
469,192,100307,1,0,0:0:0:0:
384,192,100461,1,8,0:0:0:0:
42,192,100615,1,8,0:0:0:0:
298,192,100615,1,0,0:0:0:0:
213,192,100769,1,8,0:0:0:0:
469,192,100923,1,0,0:0:0:70:snare.wav
128,192,101076,1,8,0:0:0:0:
384,192,101230,1,8,0:0:0:0:
42,192,101384,1,0,0:0:0:70:snare.wav
213,192,101538,1,8,0:0:0:0:
469,192,101538,1,0,0:0:0:0:
298,192,101692,1,0,0:0:0:0:
128,192,101846,1,8,0:0:0:0:
384,192,102000,1,0,0:0:0:70:snare.wav
42,192,102153,1,8,0:0:0:0:
213,192,102307,1,0,0:0:0:70:clapkick.wav
298,192,102307,1,0,0:0:0:0:
469,192,102307,1,0,0:0:0:0:
128,192,102461,1,8,0:0:0:0:
384,192,102461,1,0,0:0:0:0:
298,192,102615,1,0,0:0:0:70:snare.wav
42,192,102769,1,8,0:0:0:0:
213,192,102923,1,8,0:0:0:0:
298,192,103076,1,8,0:0:0:0:
469,192,103230,1,0,0:0:0:70:snare.wav
128,192,103384,1,8,0:0:0:0:
384,192,103384,1,0,0:0:0:0:
298,192,103538,1,0,0:0:0:0:
42,192,103692,1,0,0:0:0:0:
128,192,103846,1,0,0:0:0:70:snare.wav
213,192,103846,1,0,0:0:0:0:
384,192,104000,1,2,0:0:0:0:
469,192,104000,1,0,0:0:0:0:
42,192,104153,1,2,0:0:0:0:
128,192,104153,1,0,0:0:0:0:
298,192,104307,128,4,104615:0:0:0:0:
384,192,104307,1,0,0:0:0:0:
469,192,104307,1,0,0:0:0:0:
213,192,104615,128,0,104923:0:0:0:70:click.wav
128,192,104923,128,0,105230:0:0:0:70:click.wav
469,192,104923,1,0,0:0:0:0:
42,192,105230,1,2,0:0:0:0:
298,192,105230,1,0,0:0:0:0:
384,192,105230,128,0,105692:0:0:0:0:
213,192,105538,1,0,0:0:0:70:click.wav
42,192,105692,128,8,105846:0:0:0:0:
298,192,105692,1,0,0:0:0:0:
469,192,105846,128,8,106000:0:0:0:0:
213,192,106000,128,8,106153:0:0:0:0:
42,192,106153,1,2,0:0:0:0:
128,192,106153,1,0,0:0:0:0:
384,192,106153,128,0,106461:0:0:0:0:
298,192,106461,128,0,106769:0:0:0:70:click.wav
128,192,106769,1,0,0:0:0:70:click.wav
213,192,106769,128,0,107076:0:0:0:0:
298,192,107076,1,2,0:0:0:0:
384,192,107076,1,0,0:0:0:0:
469,192,107076,128,0,107230:0:0:0:0:
42,192,107230,128,0,107384:0:0:0:0:
128,192,107384,128,0,107538:0:0:0:70:click.wav
298,192,107538,1,8,0:0:0:0:
384,192,107538,128,0,107692:0:0:0:0:
213,192,107692,128,8,107846:0:0:0:0:
42,192,107846,128,8,108000:0:0:0:0:
128,192,108000,1,2,0:0:0:0:
298,192,108000,128,0,108307:0:0:0:0:
469,192,108000,1,0,0:0:0:0:
213,192,108307,128,0,108615:0:0:0:70:click.wav
128,192,108615,128,0,108923:0:0:0:70:click.wav
384,192,108615,1,0,0:0:0:0:
42,192,108923,1,2,0:0:0:0:
298,192,108923,1,0,0:0:0:0:
469,192,108923,128,0,109384:0:0:0:0:
213,192,109230,1,0,0:0:0:70:click.wav
128,192,109384,128,8,109538:0:0:0:0:
298,192,109384,1,0,0:0:0:0:
384,192,109538,128,0,109692:0:0:0:70:click.wav
213,192,109692,128,0,109846:0:0:0:0:
42,192,109846,1,2,0:0:0:0:
298,192,109846,128,0,110153:0:0:0:0:
469,192,109846,1,0,0:0:0:0:
128,192,110153,128,0,110461:0:0:0:70:click.wav
213,192,110461,1,0,0:0:0:70:click.wav
298,192,110461,128,0,110769:0:0:0:0:
42,192,110769,128,2,111076:0:0:0:0:
384,192,110769,1,0,0:0:0:0:
469,192,110769,1,0,0:0:0:0:
298,192,111076,128,0,111384:0:0:0:70:click.wav
128,192,111230,1,8,0:0:0:0:
213,192,111230,1,0,0:0:0:0:
469,192,111384,128,8,111692:0:0:0:0:
42,192,111538,1,8,0:0:0:0:
213,192,111692,128,2,112000:0:0:0:0:
298,192,111692,1,0,0:0:0:0:
384,192,111692,1,0,0:0:0:0:
128,192,112000,128,0,112307:0:0:0:0:
384,192,112000,128,0,112153:0:0:0:0:
298,192,112153,128,0,112307:0:0:0:0:
42,192,112307,128,0,112615:0:0:0:70:click.wav
469,192,112307,128,0,112461:0:0:0:0:
213,192,112615,1,2,0:0:0:0:
298,192,112615,128,0,112923:0:0:0:0:
384,192,112615,1,0,0:0:0:0:
128,192,112923,128,0,113076:0:0:0:70:click.wav
384,192,112923,128,0,113230:0:0:0:0:
213,192,113076,128,8,113230:0:0:0:0:
298,192,113076,1,0,0:0:0:0:
42,192,113230,128,0,113384:0:0:0:0:
469,192,113230,128,0,113538:0:0:0:0:
298,192,113384,1,8,0:0:0:0:
128,192,113538,1,2,0:0:0:0:
213,192,113538,128,0,113846:0:0:0:0:
384,192,113538,1,0,0:0:0:0:
298,192,113846,128,0,114153:0:0:0:70:click.wav
42,192,114000,1,2,0:0:0:0:
128,192,114000,1,0,0:0:0:0:
469,192,114000,1,0,0:0:0:0:
213,192,114153,128,0,114461:0:0:0:70:click.wav
384,192,114153,1,0,0:0:0:0:
298,192,114307,1,8,0:0:0:0:
42,192,114461,1,2,0:0:0:0:
128,192,114461,1,0,0:0:0:0:
469,192,114461,128,0,114769:0:0:0:0:
298,192,114769,128,0,115076:0:0:0:70:click.wav
213,192,114923,1,0,0:0:0:70:click.wav
42,192,115076,128,8,115384:0:0:0:0:
128,192,115076,1,0,0:0:0:0:
469,192,115230,1,8,0:0:0:0:
213,192,115384,1,2,0:0:0:0:
298,192,115384,1,0,0:0:0:0:
384,192,115384,128,0,116307:0:0:0:0:
42,192,115692,1,0,0:0:0:70:click.wav
128,192,116000,1,0,0:0:0:70:click.wav
298,192,116000,1,0,0:0:0:0:
42,192,116307,128,2,116615:0:0:0:0:
213,192,116307,1,0,0:0:0:0:
469,192,116307,1,0,0:0:0:0:
298,192,116615,128,0,116923:0:0:0:70:click.wav
128,192,116769,1,8,0:0:0:0:
213,192,116769,1,0,0:0:0:0:
42,192,116923,128,8,117230:0:0:0:0:
469,192,117076,1,8,0:0:0:0:
128,192,117230,1,2,0:0:0:0:
298,192,117230,1,0,0:0:0:0:
384,192,117230,128,0,118153:0:0:0:0:
42,192,117538,1,0,0:0:0:70:click.wav
213,192,117846,1,0,0:0:0:70:click.wav
298,192,117846,1,0,0:0:0:0:
42,192,118153,1,2,0:0:0:0:
128,192,118153,128,0,118461:0:0:0:0:
469,192,118153,1,0,0:0:0:0:
213,192,118461,128,0,118769:0:0:0:70:click.wav
298,192,118615,1,8,0:0:0:0:
384,192,118615,1,0,0:0:0:0:
469,192,118769,128,8,119076:0:0:0:0:
128,192,118923,1,8,0:0:0:0:
42,192,119076,1,2,0:0:0:0:
298,192,119076,128,0,120000:0:0:0:0:
384,192,119076,1,0,0:0:0:0:
213,192,119384,1,0,0:0:0:70:click.wav
42,192,119692,1,0,0:0:0:70:click.wav
128,192,119692,1,0,0:0:0:0:
213,192,120000,128,2,120307:0:0:0:0:
384,192,120000,1,0,0:0:0:0:
469,192,120000,1,0,0:0:0:0:
42,192,120307,128,0,120615:0:0:0:70:click.wav
298,192,120461,1,8,0:0:0:0:
384,192,120461,1,0,0:0:0:0:
469,192,120615,128,0,120923:0:0:0:0:
213,192,120769,1,8,0:0:0:0:
42,192,120923,1,2,0:0:0:0:
128,192,120923,1,0,0:0:0:0:
298,192,120923,128,0,121846:0:0:0:0:
384,192,121230,1,0,0:0:0:70:click.wav
128,192,121538,1,0,0:0:0:70:click.wav
213,192,121538,1,0,0:0:0:0:
42,192,121846,128,2,122153:0:0:0:0:
384,192,121846,1,0,0:0:0:0:
469,192,121846,1,0,0:0:0:0:
213,192,122153,128,0,122461:0:0:0:70:click.wav
298,192,122307,1,8,0:0:0:0:
384,192,122307,1,0,0:0:0:0:
469,192,122461,128,8,122615:0:0:0:0:
128,192,122615,1,8,0:0:0:0:
42,192,122769,1,2,0:0:0:0:
298,192,122769,1,0,0:0:0:0:
469,192,122769,128,0,123384:0:0:0:0:
128,192,123076,1,2,0:0:0:0:
213,192,123076,1,0,0:0:0:0:
298,192,123230,1,2,0:0:0:0:
384,192,123230,1,0,0:0:0:0:
42,192,123384,1,0,0:0:0:70:click.wav
384,192,123538,1,2,0:0:0:0:
469,192,123538,1,0,0:0:0:0:
128,192,123692,1,2,0:0:0:0:
213,192,123692,1,0,0:0:0:0:
42,192,123846,1,2,0:0:0:0:
298,192,123846,1,0,0:0:0:0:
384,192,124000,1,2,0:0:0:0:
469,192,124000,1,0,0:0:0:0:
128,192,124153,1,2,0:0:0:0:
213,192,124153,1,0,0:0:0:0:
298,192,124307,1,2,0:0:0:0:
469,192,124307,1,0,0:0:0:0:
42,192,124461,1,2,0:0:0:0:
213,192,124461,1,0,0:0:0:0:
298,192,124615,1,4,0:0:0:0:
384,192,124615,1,0,0:0:0:0:
469,192,124615,1,0,0:0:0:0:
128,192,124769,1,2,0:0:0:0:
384,192,124923,1,0,0:0:0:0:
213,192,125076,1,0,0:0:0:0:
42,192,125230,1,0,0:0:0:0:
384,192,125384,1,0,0:0:0:0:
213,192,125538,1,0,0:0:0:0:
469,192,125538,1,0,0:0:0:0:
298,192,125692,1,0,0:0:0:0:
128,192,125846,1,0,0:0:0:0:
213,192,126000,1,0,0:0:0:0:
298,192,126153,1,0,0:0:0:0:
384,192,126307,1,0,0:0:0:0:
42,192,126461,1,0,0:0:0:0:
469,192,126461,1,0,0:0:0:0:
213,192,126615,1,0,0:0:0:0:
298,192,126769,1,0,0:0:0:0:
213,192,126923,1,0,0:0:0:0:
469,192,127076,1,0,0:0:0:0:
213,192,127230,1,0,0:0:0:0:
128,192,127384,1,0,0:0:0:0:
384,192,127384,1,0,0:0:0:0:
42,192,127538,1,0,0:0:0:0:
384,192,127692,1,0,0:0:0:0:
213,192,127846,1,0,0:0:0:0:
384,192,128000,1,0,0:0:0:0:
42,192,128153,1,0,0:0:0:0:
128,192,128307,1,0,0:0:0:0:
469,192,128307,1,0,0:0:0:0:
298,192,128461,1,0,0:0:0:0:
128,192,128615,1,0,0:0:0:0:
384,192,128769,1,0,0:0:0:0:
469,192,128923,1,0,0:0:0:0:
128,192,129076,1,0,0:0:0:0:
42,192,129230,1,0,0:0:0:0:
384,192,129230,1,0,0:0:0:0:
213,192,129384,1,0,0:0:0:0:
298,192,129538,1,0,0:0:0:0:
384,192,129692,1,0,0:0:0:0:
469,192,129846,1,0,0:0:0:0:
128,192,130000,1,0,0:0:0:0:
298,192,130153,1,0,0:0:0:0:
384,192,130153,1,0,0:0:0:0:
42,192,130307,1,0,0:0:0:0:
213,192,130461,1,0,0:0:0:0:
384,192,130615,1,0,0:0:0:0:
128,192,130769,1,0,0:0:0:0:
469,192,130923,1,0,0:0:0:0:
42,192,131076,1,0,0:0:0:0:
298,192,131076,1,0,0:0:0:0:
213,192,131230,1,0,0:0:0:0:
469,192,131384,1,0,0:0:0:0:
128,192,131538,1,0,0:0:0:0:
384,192,131692,1,0,0:0:0:0:
298,192,131846,1,0,0:0:0:0:
42,192,132000,1,4,0:0:0:0:
128,192,132000,1,0,0:0:0:0:
469,192,132000,1,0,0:0:0:0:
213,192,132153,1,0,0:0:0:0:
469,192,132307,1,0,0:0:0:0:
298,192,132461,1,0,0:0:0:0:
42,192,132615,1,0,0:0:0:0:
469,192,132769,1,0,0:0:0:0:
128,192,132923,1,0,0:0:0:0:
298,192,132923,1,0,0:0:0:0:
213,192,133076,1,0,0:0:0:0:
384,192,133230,1,0,0:0:0:0:
298,192,133384,1,0,0:0:0:0:
213,192,133538,1,0,0:0:0:0:
128,192,133692,1,0,0:0:0:0:
42,192,133846,1,0,0:0:0:0:
469,192,133846,1,0,0:0:0:0:
384,192,134000,1,0,0:0:0:0:
213,192,134153,1,0,0:0:0:0:
384,192,134307,1,0,0:0:0:0:
42,192,134461,1,0,0:0:0:0:
384,192,134615,1,0,0:0:0:0:
128,192,134769,1,0,0:0:0:0:
469,192,134769,1,0,0:0:0:0:
298,192,134923,1,0,0:0:0:0:
128,192,135076,1,0,0:0:0:0:
469,192,135230,1,0,0:0:0:0:
128,192,135384,1,0,0:0:0:0:
298,192,135538,1,0,0:0:0:0:
42,192,135692,1,0,0:0:0:0:
384,192,135692,1,0,0:0:0:0:
213,192,135846,1,0,0:0:0:0:
384,192,136000,1,0,0:0:0:0:
128,192,136153,1,0,0:0:0:0:
42,192,136307,1,0,0:0:0:0:
384,192,136461,1,0,0:0:0:0:
128,192,136615,1,0,0:0:0:0:
469,192,136615,1,0,0:0:0:0:
213,192,136769,1,0,0:0:0:0:
298,192,136923,1,0,0:0:0:0:
384,192,137076,1,0,0:0:0:0:
469,192,137230,1,0,0:0:0:0:
42,192,137384,1,0,0:0:0:0:
128,192,138000,1,0,0:0:0:0:
469,192,138000,1,0,0:0:0:0:
