osu file format v14

[General]
AudioFilename: audio.ogg
AudioLeadIn: 0
PreviewTime: 103384
Countdown: 0
SampleSet: Normal
StackLeniency: 0.7
Mode: 3
LetterboxInBreaks: 0
SpecialStyle: 0
WidescreenStoryboard: 1

[Editor]
Bookmarks: 15692,45230,74769,96923
DistanceSpacing: 1.3
BeatDivisor: 4
GridSize: 32
TimelineZoom: 1.1

[Metadata]
Title:Clock Atelier
TitleUnicode:Clock Atelier
Artist:ARForest
ArtistUnicode:ARForest
Creator:yhsh
Version:Lam's Acoustic
Source:Lanota
Tags:Lam- 시계공방 electronic folk instrumental Frost Era AFST-001 noxy games video game mobile Lab Presto chapter K 4 #ffffff Records piano artcore featured artist fa
BeatmapID:3751803
BeatmapSetID:1823582

[Difficulty]
HPDrainRate:7.5
CircleSize:6
OverallDifficulty:7.5
ApproachRate:5
SliderMultiplier:1.4
SliderTickRate:1

[Events]
//Background and Video events
0,0,"bg.jpg",0,0
//Break Periods
//Storyboard Layer 0 (Background)
//Storyboard Layer 1 (Fail)
//Storyboard Layer 2 (Pass)
//Storyboard Layer 3 (Foreground)
//Storyboard Layer 4 (Overlay)
//Storyboard Sound Samples

[TimingPoints]
0,307.692307692308,3,1,1,25,1,0
37846,-100,3,1,1,40,0,0
45230,-100,3,1,1,25,0,0
52615,-100,3,1,1,40,0,0
74769,-100,3,1,1,40,0,1
89538,-100,3,1,1,40,0,0
104307,-100,3,1,1,40,0,1
124615,-100,3,1,1,40,0,0

[HitObjects]
42,192,923,1,0,0:0:0:0:
469,192,1384,1,0,0:0:0:0:
213,192,1846,1,0,0:0:0:0:
384,192,2153,1,0,0:0:0:0:
128,192,2461,1,0,0:0:0:0:
128,192,2769,1,0,0:0:0:0:
384,192,3230,1,0,0:0:0:0:
469,192,3692,1,0,0:0:0:0:
298,192,4000,1,0,0:0:0:0:
213,192,4307,1,0,0:0:0:0:
42,192,4615,1,0,0:0:0:0:
469,192,5076,1,0,0:0:0:0:
298,192,5538,1,0,0:0:0:0:
128,192,5846,1,0,0:0:0:0:
384,192,6153,1,0,0:0:0:0:
384,192,6461,1,0,0:0:0:0:
42,192,6923,1,0,0:0:0:0:
469,192,7384,1,0,0:0:0:0:
384,192,7692,1,0,0:0:0:0:
298,192,8000,1,0,0:0:0:0:
42,192,8307,1,0,0:0:0:0:
128,192,8307,1,0,0:0:0:0:
213,192,8769,1,0,0:0:0:0:
42,192,9230,1,0,0:0:0:0:
128,192,9230,1,0,0:0:0:0:
298,192,9538,1,0,0:0:0:0:
42,192,9846,1,0,0:0:0:0:
213,192,9846,1,0,0:0:0:0:
384,192,10153,1,0,0:0:0:0:
469,192,10153,1,0,0:0:0:0:
128,192,10615,1,0,0:0:0:0:
213,192,11076,1,0,0:0:0:0:
469,192,11076,1,0,0:0:0:0:
42,192,11384,1,0,0:0:0:0:
384,192,11692,1,0,0:0:0:0:
128,192,12000,1,0,0:0:0:0:
213,192,12000,1,0,0:0:0:0:
42,192,12461,1,0,0:0:0:0:
298,192,12923,1,0,0:0:0:0:
384,192,12923,1,0,0:0:0:0:
469,192,13230,1,0,0:0:0:0:
213,192,13538,1,0,0:0:0:0:
384,192,13538,1,0,0:0:0:0:
42,192,13846,1,0,0:0:0:0:
128,192,13846,1,0,0:0:0:0:
298,192,14307,1,0,0:0:0:0:
213,192,14769,1,0,0:0:0:0:
469,192,14769,1,0,0:0:0:0:
128,192,15076,1,0,0:0:0:0:
42,192,15384,1,0,0:0:0:0:
469,192,15384,1,0,0:0:0:0:
298,192,15692,1,0,0:0:0:0:
384,192,15692,128,0,16615:0:0:0:0:
128,192,16615,128,0,17230:0:0:0:0:
213,192,16615,1,0,0:0:0:0:
42,192,17230,128,0,17538:0:0:0:0:
469,192,17230,1,0,0:0:0:0:
298,192,17538,128,0,18153:0:0:0:0:
384,192,17538,1,0,0:0:0:0:
128,192,18153,128,0,18461:0:0:0:0:
213,192,18461,128,0,18769:0:0:0:0:
469,192,18461,1,0,0:0:0:0:
298,192,18769,128,0,19076:0:0:0:0:
42,192,19076,1,0,0:0:0:0:
384,192,19076,128,0,19384:0:0:0:0:
128,192,19384,1,0,0:0:0:0:
213,192,19384,128,0,20307:0:0:0:0:
384,192,20307,1,0,0:0:0:0:
469,192,20307,128,0,21230:0:0:0:0:
42,192,20923,1,0,0:0:0:0:
213,192,21230,128,0,21538:0:0:0:0:
298,192,21230,1,0,0:0:0:0:
128,192,21538,128,0,21846:0:0:0:0:
42,192,21846,128,0,22153:0:0:0:0:
213,192,22153,128,0,22461:0:0:0:0:
384,192,22153,1,0,0:0:0:0:
298,192,22461,128,0,22769:0:0:0:0:
42,192,22769,1,0,0:0:0:0:
469,192,22769,128,0,24000:0:0:0:0:
128,192,23076,1,0,0:0:0:0:
213,192,24000,128,0,24615:0:0:0:0:
298,192,24000,1,0,0:0:0:0:
42,192,24615,128,0,24923:0:0:0:0:
469,192,24615,1,0,0:0:0:0:
298,192,24923,128,0,25538:0:0:0:0:
384,192,24923,1,0,0:0:0:0:
128,192,25538,128,0,25846:0:0:0:0:
213,192,25846,128,0,26153:0:0:0:0:
469,192,25846,1,0,0:0:0:0:
298,192,26153,128,0,26461:0:0:0:0:
384,192,26461,128,0,26769:0:0:0:0:
42,192,26769,1,4,0:0:0:0:
469,192,26769,1,0,0:0:0:0:
128,192,27230,1,0,0:0:0:0:
384,192,27230,1,0,0:0:0:0:
213,192,27692,1,0,0:0:0:0:
298,192,27692,1,0,0:0:0:0:
128,192,28153,1,0,0:0:0:0:
213,192,28307,1,0,0:0:0:0:
298,192,28461,1,0,0:0:0:0:
42,192,28615,1,0,0:0:0:0:
469,192,28615,1,0,0:0:0:0:
128,192,28769,1,0,0:0:0:0:
384,192,28769,1,0,0:0:0:0:
213,192,29076,1,0,0:0:0:0:
298,192,29076,1,0,0:0:0:0:
128,192,29384,1,0,0:0:0:0:
384,192,29384,1,0,0:0:0:0:
469,192,29538,128,0,30461:0:0:0:0:
42,192,30461,1,0,0:0:0:0:
213,192,30461,1,0,0:0:0:0:
298,192,30769,1,0,0:0:0:70:clap2.wav
128,192,30923,1,0,0:0:0:70:clap2.wav
384,192,31076,1,0,0:0:0:70:clap2.wav
213,192,31230,1,0,0:0:0:0:
42,192,31384,1,0,0:0:0:70:clap2.wav
469,192,31384,1,0,0:0:0:0:
384,192,31538,1,0,0:0:0:0:
298,192,31692,1,0,0:0:0:70:clap2.wav
42,192,31846,1,0,0:0:0:70:clap2.wav
128,192,32000,1,0,0:0:0:0:
213,192,32153,1,0,0:0:0:70:clap2.wav
384,192,32307,1,0,0:0:0:0:
469,192,32307,1,0,0:0:0:0:
298,192,32461,1,0,0:0:0:0:
213,192,32615,1,0,0:0:0:70:clap2.wav
128,192,32769,1,0,0:0:0:70:clap2.wav
384,192,32923,1,0,0:0:0:70:clap2.wav
42,192,33076,1,0,0:0:0:0:
213,192,33230,1,0,0:0:0:70:clap2.wav
298,192,33230,1,0,0:0:0:0:
42,192,34153,1,0,0:0:0:0:
469,192,34153,1,0,0:0:0:0:
213,192,34461,1,0,0:0:0:70:clap2.wav
298,192,34615,1,0,0:0:0:70:clap2.wav
128,192,34769,1,0,0:0:0:70:clap2.wav
384,192,34923,1,0,0:0:0:0:
42,192,35076,1,0,0:0:0:70:clap2.wav
469,192,35076,1,0,0:0:0:0:
213,192,35230,1,0,0:0:0:0:
384,192,35384,1,0,0:0:0:70:clap2.wav
128,192,35538,1,0,0:0:0:70:clap2.wav
298,192,35692,1,0,0:0:0:0:
469,192,35846,1,0,0:0:0:70:clap2.wav
42,192,36000,1,0,0:0:0:0:
298,192,36000,1,0,0:0:0:0:
213,192,36153,1,0,0:0:0:0:
384,192,36307,1,0,0:0:0:70:clap2.wav
128,192,36461,1,0,0:0:0:70:kick2.wav
469,192,36615,1,0,0:0:0:70:clap2.wav
42,192,36769,1,0,0:0:0:0:
213,192,36923,1,0,0:0:0:70:clap2.wav
298,192,36923,1,0,0:0:0:0:
128,192,37384,1,0,0:0:0:0:
384,192,37384,1,0,0:0:0:0:
42,192,37846,1,4,0:0:0:0:
469,192,37846,1,0,0:0:0:0:
128,192,38153,1,0,0:0:0:70:snare.wav
213,192,38307,1,8,0:0:0:0:
298,192,38461,1,8,0:0:0:0:
213,192,38769,1,8,0:0:0:0:
469,192,38769,1,0,0:0:0:0:
128,192,38923,1,0,0:0:0:0:
384,192,39076,1,8,0:0:0:0:
42,192,39230,1,0,0:0:0:70:snare.wav
298,192,39384,1,8,0:0:0:0:
213,192,39692,1,8,0:0:0:0:
469,192,39692,1,0,0:0:0:0:
213,192,40000,1,8,0:0:0:0:
384,192,40153,1,0,0:0:0:0:
42,192,40307,1,0,0:0:0:0:
298,192,40461,1,0,0:0:0:70:snare.wav
213,192,40615,1,8,0:0:0:0:
469,192,40615,1,0,0:0:0:0:
128,192,40923,1,8,0:0:0:0:
384,192,41230,1,8,0:0:0:0:
42,192,41538,1,8,0:0:0:0:
469,192,41538,1,0,0:0:0:0:
128,192,41846,1,0,0:0:0:70:snare.wav
213,192,42000,1,8,0:0:0:0:
298,192,42153,1,8,0:0:0:0:
42,192,42461,1,8,0:0:0:0:
469,192,42461,1,0,0:0:0:0:
213,192,42615,1,0,0:0:0:0:
384,192,42769,1,8,0:0:0:0:
128,192,42923,1,0,0:0:0:70:snare.wav
298,192,43076,1,8,0:0:0:0:
469,192,43230,1,0,0:0:0:70:clapkick.wav
213,192,43384,1,8,0:0:0:0:
384,192,43384,1,0,0:0:0:0:
128,192,43538,1,0,0:0:0:70:snare.wav
42,192,43692,1,8,0:0:0:0:
213,192,43846,1,0,0:0:0:0:
469,192,43846,1,0,0:0:0:0:
298,192,44000,1,0,0:0:0:0:
384,192,44153,1,0,0:0:0:70:snare.wav
42,192,44307,1,8,0:0:0:0:
469,192,44307,1,0,0:0:0:0:
128,192,44461,1,0,0:0:0:0:
213,192,44615,1,8,0:0:0:0:
298,192,44769,1,0,0:0:0:70:snare.wav
469,192,44769,1,0,0:0:0:0:
42,192,44923,1,8,0:0:0:0:
213,192,45230,1,4,0:0:0:0:
384,192,45230,1,0,0:0:0:0:
469,192,45384,1,0,0:0:0:0:
128,192,45538,1,0,0:0:0:0:
384,192,45692,1,0,0:0:0:0:
42,192,45846,1,0,0:0:0:70:click.wav
298,192,46000,1,0,0:0:0:0:
128,192,46153,1,0,0:0:0:70:click.wav
213,192,46307,1,0,0:0:0:0:
384,192,46461,1,0,0:0:0:0:
298,192,46615,1,0,0:0:0:0:
42,192,46769,1,0,0:0:0:0:
469,192,46923,1,0,0:0:0:0:
298,192,47076,128,0,48000:0:0:0:70:click.wav
469,192,48000,1,0,0:0:0:70:click.wav
42,192,48153,1,0,0:0:0:0:
128,192,48307,1,0,0:0:0:0:
213,192,48461,1,0,0:0:0:0:
298,192,48615,1,0,0:0:0:70:click.wav
469,192,48769,1,0,0:0:0:0:
213,192,48923,1,0,0:0:0:70:click.wav
42,192,49076,1,0,0:0:0:0:
128,192,49230,1,0,0:0:0:0:
469,192,49384,1,0,0:0:0:0:
384,192,49538,1,0,0:0:0:70:click.wav
298,192,49692,1,0,0:0:0:0:
213,192,49846,1,0,0:0:0:70:click.wav
42,192,50000,1,0,0:0:0:0:
298,192,50153,1,0,0:0:0:0:
128,192,50307,1,0,0:0:0:0:
384,192,50461,1,0,0:0:0:0:
213,192,50615,1,0,0:0:0:0:
469,192,50769,1,0,0:0:0:70:click.wav
42,192,51076,1,0,0:0:0:0:
469,192,51230,1,0,0:0:0:70:click.wav
384,192,51538,1,0,0:0:0:0:
213,192,51692,1,0,0:0:0:70:click.wav
42,192,51846,1,0,0:0:0:0:
298,192,52000,1,0,0:0:0:0:
469,192,52153,1,0,0:0:0:0:
128,192,52307,1,0,0:0:0:0:
384,192,52461,1,0,0:0:0:0:
213,192,52615,1,4,0:0:0:0:
469,192,52615,1,0,0:0:0:0:
42,192,52923,1,0,0:0:0:0:
128,192,53076,1,0,0:0:0:0:
213,192,53230,1,0,0:0:0:0:
298,192,53384,1,0,0:0:0:0:
128,192,53538,1,0,0:0:0:0:
384,192,53538,1,0,0:0:0:0:
469,192,53846,1,0,0:0:0:0:
384,192,54000,1,0,0:0:0:0:
298,192,54153,1,0,0:0:0:0:
213,192,54307,1,0,0:0:0:0:
128,192,54461,128,0,54923:0:0:0:0:
384,192,54769,1,0,0:0:0:0:
298,192,54923,128,0,55384:0:0:0:0:
128,192,55230,1,0,0:0:0:0:
469,192,55384,128,0,55692:0:0:0:0:
213,192,55538,1,0,0:0:0:0:
384,192,55692,128,0,56000:0:0:0:0:
128,192,55846,1,0,0:0:0:0:
298,192,56000,128,0,56307:0:0:0:0:
42,192,56153,1,0,0:0:0:0:
213,192,56307,128,0,58153:0:0:0:0:
298,192,56615,1,0,0:0:0:0:
384,192,56923,1,0,0:0:0:0:
42,192,57230,1,0,0:0:0:0:
128,192,57538,1,0,0:0:0:0:
469,192,57846,1,0,0:0:0:0:
42,192,58153,1,4,0:0:0:0:
384,192,58153,1,0,0:0:0:0:
298,192,59076,1,0,0:0:0:0:
469,192,59076,1,0,0:0:0:0:
213,192,59384,1,0,0:0:0:0:
469,192,59692,1,0,0:0:0:0:
42,192,60000,1,4,0:0:0:0:
298,192,60000,1,0,0:0:0:0:
213,192,60307,1,0,0:0:0:70:snare.wav
384,192,60461,1,0,0:0:0:70:snare.wav
128,192,60615,1,0,0:0:0:70:click.wav
298,192,60769,1,0,0:0:0:0:
42,192,60923,1,2,0:0:0:0:
469,192,60923,1,0,0:0:0:0:
298,192,61230,1,0,0:0:0:70:snare.wav
213,192,61384,1,0,0:0:0:70:snare.wav
469,192,61538,1,0,0:0:0:70:click.wav
42,192,61692,1,0,0:0:0:0:
128,192,61846,1,2,0:0:0:0:
384,192,61846,1,0,0:0:0:0:
469,192,62153,1,0,0:0:0:70:snare.wav
42,192,62307,1,0,0:0:0:70:snare.wav
384,192,62461,1,0,0:0:0:70:click.wav
128,192,62615,1,0,0:0:0:0:
213,192,62769,1,2,0:0:0:0:
298,192,62769,1,0,0:0:0:0:
384,192,63076,1,0,0:0:0:70:click.wav
128,192,63230,1,0,0:0:0:70:click.wav
298,192,63384,1,0,0:0:0:70:click.wav
213,192,63538,1,0,0:0:0:0:
42,192,63692,1,2,0:0:0:0:
469,192,63692,1,0,0:0:0:0:
213,192,64000,1,0,0:0:0:70:snare.wav
384,192,64153,1,0,0:0:0:70:snare.wav
128,192,64307,1,0,0:0:0:70:click.wav
298,192,64461,1,0,0:0:0:0:
42,192,64615,1,2,0:0:0:0:
469,192,64615,1,0,0:0:0:0:
213,192,64923,1,0,0:0:0:70:snare.wav
384,192,65076,1,0,0:0:0:70:snare.wav
128,192,65230,1,0,0:0:0:70:click.wav
298,192,65384,1,0,0:0:0:0:
213,192,65538,1,2,0:0:0:0:
469,192,65538,1,0,0:0:0:0:
128,192,65692,1,0,0:0:0:0:
42,192,65846,1,0,0:0:0:70:snare.wav
298,192,66000,1,0,0:0:0:70:snare.wav
384,192,66153,1,0,0:0:0:70:click.wav
469,192,66307,1,0,0:0:0:70:snare.wav
42,192,66461,1,2,0:0:0:0:
298,192,66461,1,0,0:0:0:0:
128,192,66615,1,0,0:0:0:70:snare.wav
213,192,66769,1,0,0:0:0:70:click.wav
469,192,66923,1,0,0:0:0:70:click.wav
384,192,67076,1,0,0:0:0:70:click.wav
298,192,67230,1,0,0:0:0:70:snare.wav
213,192,67384,1,2,0:0:0:0:
469,192,67384,1,0,0:0:0:0:
298,192,67692,1,0,0:0:0:70:snare.wav
128,192,67846,1,0,0:0:0:70:snare.wav
384,192,68000,1,0,0:0:0:70:click.wav
213,192,68153,1,0,0:0:0:0:
42,192,68307,1,2,0:0:0:0:
469,192,68307,1,0,0:0:0:0:
213,192,68615,1,0,0:0:0:70:snare.wav
298,192,68769,1,0,0:0:0:70:snare.wav
42,192,68923,1,0,0:0:0:70:click.wav
469,192,69076,1,0,0:0:0:0:
128,192,69230,1,2,0:0:0:0:
384,192,69230,1,0,0:0:0:0:
42,192,69538,1,0,0:0:0:70:snare.wav
469,192,69692,1,0,0:0:0:70:snare.wav
128,192,69846,1,0,0:0:0:70:click.wav
384,192,70000,1,0,0:0:0:0:
213,192,70153,1,2,0:0:0:0:
298,192,70153,1,0,0:0:0:0:
128,192,70461,1,0,0:0:0:70:click.wav
384,192,70615,1,0,0:0:0:70:click.wav
213,192,70769,1,0,0:0:0:70:click.wav
298,192,70923,1,0,0:0:0:0:
42,192,71076,1,2,0:0:0:0:
469,192,71076,1,0,0:0:0:0:
213,192,71384,1,0,0:0:0:70:snare.wav
384,192,71538,1,0,0:0:0:70:snare.wav
128,192,71692,1,0,0:0:0:70:click.wav
298,192,71846,1,0,0:0:0:0:
42,192,72000,1,2,0:0:0:0:
469,192,72000,1,0,0:0:0:0:
213,192,72307,1,0,0:0:0:70:snare.wav
384,192,72461,1,0,0:0:0:70:snare.wav
128,192,72615,1,0,0:0:0:70:click.wav
298,192,72769,1,0,0:0:0:0:
213,192,72923,1,2,0:0:0:0:
469,192,72923,1,0,0:0:0:0:
384,192,73076,1,0,0:0:0:0:
298,192,73230,1,0,0:0:0:70:snare.wav
42,192,73384,1,0,0:0:0:70:snare.wav
128,192,73538,1,0,0:0:0:70:click.wav
213,192,73692,1,0,0:0:0:70:snare.wav
42,192,73846,1,2,0:0:0:0:
298,192,73846,1,0,0:0:0:0:
384,192,74000,1,0,0:0:0:70:snare.wav
469,192,74153,1,0,0:0:0:70:click.wav
213,192,74307,1,0,0:0:0:70:click.wav
128,192,74461,1,0,0:0:0:70:click.wav
42,192,74615,1,0,0:0:0:70:snare.wav
384,192,74769,1,4,0:0:0:0:
469,192,74769,1,0,0:0:0:0:
213,192,74923,1,0,0:0:0:0:
42,192,75076,1,0,0:0:0:70:snare.wav
384,192,75230,1,2,0:0:0:0:
469,192,75230,1,0,0:0:0:0:
298,192,75384,1,0,0:0:0:70:snare.wav
128,192,75538,1,0,0:0:0:0:
213,192,75692,1,2,0:0:0:0:
469,192,75692,128,0,76000:0:0:0:0:
128,192,76000,1,2,0:0:0:0:
384,192,76000,128,0,76307:0:0:0:0:
42,192,76307,1,2,0:0:0:0:
298,192,76307,128,0,76615:0:0:0:0:
42,192,76615,1,2,0:0:0:0:
128,192,76615,1,0,0:0:0:0:
213,192,76769,1,0,0:0:0:0:
384,192,76923,1,0,0:0:0:70:snare.wav
42,192,77076,1,2,0:0:0:0:
128,192,77076,1,0,0:0:0:0:
298,192,77230,1,0,0:0:0:70:snare.wav
469,192,77384,1,0,0:0:0:0:
42,192,77538,128,2,78153:0:0:0:0:
384,192,77538,1,0,0:0:0:0:
298,192,78153,128,0,78461:0:0:0:70:snare.wav
384,192,78461,1,2,0:0:0:0:
469,192,78461,1,0,0:0:0:0:
213,192,78615,1,0,0:0:0:0:
42,192,78769,1,0,0:0:0:70:snare.wav
384,192,78923,1,2,0:0:0:0:
469,192,78923,1,0,0:0:0:0:
298,192,79076,1,0,0:0:0:70:snare.wav
128,192,79230,1,0,0:0:0:0:
213,192,79384,1,2,0:0:0:0:
469,192,79384,128,0,79692:0:0:0:0:
128,192,79692,1,2,0:0:0:0:
384,192,79692,128,0,80000:0:0:0:0:
42,192,80000,1,2,0:0:0:0:
298,192,80000,1,0,0:0:0:0:
213,192,80153,1,0,0:0:0:70:snare.wav
128,192,80307,128,2,80923:0:0:0:0:
384,192,80307,1,0,0:0:0:0:
213,192,80923,1,0,0:0:0:70:snare.wav
298,192,81076,1,2,0:0:0:0:
128,192,81230,1,2,0:0:0:0:
384,192,81230,128,0,81692:0:0:0:0:
42,192,81692,1,0,0:0:0:70:snare.wav
213,192,81846,1,0,0:0:0:70:snare.wav
384,192,82000,1,2,0:0:0:0:
42,192,82153,1,2,0:0:0:0:
128,192,82153,1,0,0:0:0:0:
298,192,82307,1,0,0:0:0:0:
469,192,82461,1,0,0:0:0:70:snare.wav
42,192,82615,1,2,0:0:0:0:
128,192,82615,1,0,0:0:0:0:
213,192,82769,1,0,0:0:0:70:snare.wav
384,192,82923,1,0,0:0:0:0:
42,192,83076,128,2,83384:0:0:0:0:
298,192,83076,1,0,0:0:0:0:
128,192,83384,128,2,83692:0:0:0:0:
384,192,83384,1,0,0:0:0:0:
213,192,83692,128,2,84000:0:0:0:0:
469,192,83692,1,0,0:0:0:0:
384,192,84000,1,2,0:0:0:0:
469,192,84000,1,0,0:0:0:0:
298,192,84153,1,0,0:0:0:0:
128,192,84307,1,0,0:0:0:70:snare.wav
384,192,84461,1,2,0:0:0:0:
469,192,84461,1,0,0:0:0:0:
213,192,84615,1,0,0:0:0:70:snare.wav
42,192,84769,1,0,0:0:0:0:
128,192,84923,1,2,0:0:0:0:
469,192,84923,128,0,85538:0:0:0:0:
213,192,85538,128,0,85846:0:0:0:70:snare.wav
42,192,85846,1,2,0:0:0:0:
128,192,85846,1,0,0:0:0:0:
298,192,86000,1,0,0:0:0:0:
469,192,86153,1,0,0:0:0:70:snare.wav
42,192,86307,1,2,0:0:0:0:
128,192,86307,1,0,0:0:0:0:
213,192,86461,1,0,0:0:0:70:snare.wav
384,192,86615,1,0,0:0:0:0:
42,192,86769,128,2,87076:0:0:0:0:
298,192,86769,1,0,0:0:0:0:
128,192,87076,128,2,87384:0:0:0:0:
384,192,87076,1,0,0:0:0:0:
213,192,87384,1,2,0:0:0:0:
469,192,87384,1,0,0:0:0:0:
298,192,87538,1,0,0:0:0:70:snare.wav
128,192,87692,1,2,0:0:0:0:
384,192,87692,128,0,88307:0:0:0:0:
298,192,88307,1,0,0:0:0:70:snare.wav
213,192,88461,1,2,0:0:0:0:
128,192,88615,128,2,89076:0:0:0:0:
384,192,88615,1,0,0:0:0:0:
298,192,89076,1,0,0:0:0:70:snare.wav
469,192,89230,1,0,0:0:0:70:snare.wav
42,192,89384,1,2,0:0:0:0:
128,192,89538,1,4,0:0:0:0:
384,192,89538,1,0,0:0:0:0:
469,192,90153,1,0,0:0:0:0:
213,192,90461,1,0,0:0:0:0:
384,192,90769,1,0,0:0:0:0:
128,192,91076,1,0,0:0:0:0:
42,192,91384,1,0,0:0:0:0:
298,192,91384,1,0,0:0:0:0:
384,192,91692,1,0,0:0:0:0:
469,192,92000,1,0,0:0:0:0:
128,192,92307,1,0,0:0:0:0:
213,192,92307,1,0,0:0:0:0:
298,192,92769,1,0,0:0:0:0:
384,192,92769,1,0,0:0:0:0:
42,192,93230,1,0,0:0:0:0:
128,192,93230,1,0,0:0:0:0:
469,192,93692,1,0,0:0:0:0:
128,192,94153,1,0,0:0:0:0:
213,192,94153,1,0,0:0:0:0:
298,192,94461,1,0,0:0:0:0:
42,192,94615,1,0,0:0:0:0:
384,192,94769,1,0,0:0:0:0:
42,192,95076,1,0,0:0:0:0:
469,192,95076,1,0,0:0:0:0:
128,192,95384,1,0,0:0:0:0:
213,192,95692,1,0,0:0:0:0:
298,192,96000,1,0,0:0:0:0:
384,192,96000,1,0,0:0:0:0:
213,192,96307,1,0,0:0:0:0:
128,192,96615,1,0,0:0:0:0:
42,192,96923,1,4,0:0:0:0:
469,192,96923,1,0,0:0:0:0:
384,192,97384,1,8,0:0:0:0:
128,192,97846,1,8,0:0:0:0:
213,192,98153,1,8,0:0:0:0:
298,192,98461,1,8,0:0:0:0:
42,192,98615,1,0,0:0:0:70:clapkick.wav
128,192,98769,1,8,0:0:0:0:
469,192,98769,1,0,0:0:0:0:
384,192,99076,1,8,0:0:0:0:
298,192,99384,1,8,0:0:0:0:
42,192,99692,1,8,0:0:0:0:
469,192,99692,1,0,0:0:0:0:
213,192,100000,1,8,0:0:0:0:
128,192,100307,1,8,0:0:0:0:
42,192,100615,1,8,0:0:0:0:
384,192,100615,1,0,0:0:0:0:
213,192,100769,1,8,0:0:0:0:
128,192,100923,1,0,0:0:0:70:snare.wav
469,192,101076,1,8,0:0:0:0:
298,192,101230,1,8,0:0:0:0:
213,192,101384,1,0,0:0:0:70:snare.wav
42,192,101538,1,8,0:0:0:0:
128,192,101538,1,0,0:0:0:0:
298,192,101692,1,0,0:0:0:0:
384,192,101846,1,8,0:0:0:0:
42,192,102000,1,0,0:0:0:70:snare.wav
213,192,102153,1,8,0:0:0:0:
298,192,102307,1,0,0:0:0:70:clapkick.wav
384,192,102461,1,8,0:0:0:0:
469,192,102461,1,0,0:0:0:0:
42,192,102615,1,0,0:0:0:70:snare.wav
213,192,102769,1,8,0:0:0:0:
384,192,102923,1,8,0:0:0:0:
128,192,103076,1,8,0:0:0:0:
298,192,103230,1,0,0:0:0:70:snare.wav
42,192,103384,1,8,0:0:0:0:
469,192,103384,1,0,0:0:0:0:
128,192,103692,1,0,0:0:0:0:
213,192,103692,1,0,0:0:0:0:
298,192,104000,1,2,0:0:0:0:
384,192,104000,1,0,0:0:0:0:
42,192,104307,1,4,0:0:0:0:
469,192,104307,128,0,104615:0:0:0:0:
298,192,104615,128,0,104923:0:0:0:70:click.wav
128,192,104923,128,0,105230:0:0:0:70:click.wav
384,192,104923,1,0,0:0:0:0:
42,192,105230,128,2,105692:0:0:0:0:
469,192,105230,1,0,0:0:0:0:
384,192,105692,1,8,0:0:0:0:
298,192,105846,1,8,0:0:0:0:
128,192,106000,1,8,0:0:0:0:
213,192,106153,1,2,0:0:0:0:
469,192,106153,128,0,106461:0:0:0:0:
298,192,106461,128,0,106769:0:0:0:70:click.wav
128,192,106769,128,0,107076:0:0:0:70:click.wav
213,192,106769,1,0,0:0:0:0:
384,192,107076,1,2,0:0:0:0:
469,192,107076,1,0,0:0:0:0:
42,192,107230,1,0,0:0:0:0:
213,192,107384,1,0,0:0:0:70:click.wav
469,192,107538,1,8,0:0:0:0:
298,192,107692,1,8,0:0:0:0:
128,192,107846,1,8,0:0:0:0:
42,192,108000,1,2,0:0:0:0:
384,192,108000,128,0,108307:0:0:0:0:
213,192,108307,128,0,108615:0:0:0:70:click.wav
42,192,108615,128,0,108923:0:0:0:70:click.wav
469,192,108615,1,0,0:0:0:0:
128,192,108923,128,2,109384:0:0:0:0:
384,192,108923,1,0,0:0:0:0:
213,192,109384,1,8,0:0:0:0:
298,192,109538,1,0,0:0:0:70:click.wav
384,192,109692,1,0,0:0:0:0:
42,192,109846,1,2,0:0:0:0:
469,192,109846,128,0,110153:0:0:0:0:
128,192,110153,128,0,110461:0:0:0:70:click.wav
213,192,110461,1,0,0:0:0:70:click.wav
298,192,110461,128,0,110769:0:0:0:0:
42,192,110769,128,2,111076:0:0:0:0:
384,192,110769,1,0,0:0:0:0:
213,192,111076,128,0,111384:0:0:0:70:click.wav
469,192,111230,1,8,0:0:0:0:
384,192,111384,128,8,111692:0:0:0:0:
213,192,111692,128,2,112000:0:0:0:0:
298,192,111692,1,0,0:0:0:0:
128,192,112000,128,0,112307:0:0:0:0:
42,192,112307,128,0,112615:0:0:0:70:click.wav
469,192,112307,1,0,0:0:0:0:
298,192,112615,128,2,112923:0:0:0:0:
384,192,112615,1,0,0:0:0:0:
213,192,112923,128,0,113230:0:0:0:70:click.wav
42,192,113230,1,0,0:0:0:0:
128,192,113230,128,0,113538:0:0:0:0:
384,192,113538,128,2,113846:0:0:0:0:
469,192,113538,1,0,0:0:0:0:
298,192,113846,128,0,114153:0:0:0:70:click.wav
42,192,114000,1,2,0:0:0:0:
213,192,114153,128,0,114461:0:0:0:70:click.wav
128,192,114461,1,2,0:0:0:0:
469,192,114461,128,0,114769:0:0:0:0:
384,192,114769,128,0,115076:0:0:0:70:click.wav
42,192,115076,1,8,0:0:0:0:
298,192,115076,128,0,115384:0:0:0:0:
128,192,115384,128,2,116307:0:0:0:0:
469,192,115384,1,0,0:0:0:0:
42,192,116307,128,2,116615:0:0:0:0:
298,192,116307,1,0,0:0:0:0:
469,192,116615,128,0,116923:0:0:0:70:click.wav
213,192,116769,1,8,0:0:0:0:
298,192,116923,128,8,117230:0:0:0:0:
42,192,117230,1,2,0:0:0:0:
384,192,117230,128,0,118153:0:0:0:0:
128,192,118153,1,2,0:0:0:0:
469,192,118153,128,0,118461:0:0:0:0:
42,192,118461,128,0,118769:0:0:0:70:click.wav
298,192,118615,1,8,0:0:0:0:
213,192,118769,128,8,119076:0:0:0:0:
384,192,119076,1,2,0:0:0:0:
469,192,119076,128,0,120000:0:0:0:0:
128,192,120000,1,2,0:0:0:0:
298,192,120000,128,0,120307:0:0:0:0:
42,192,120307,128,0,120615:0:0:0:70:click.wav
384,192,120461,1,8,0:0:0:0:
213,192,120615,128,0,120923:0:0:0:0:
298,192,120923,1,2,0:0:0:0:
469,192,120923,128,0,121846:0:0:0:0:
42,192,121846,128,2,122153:0:0:0:0:
128,192,121846,1,0,0:0:0:0:
213,192,122153,128,0,122461:0:0:0:70:click.wav
469,192,122307,1,8,0:0:0:0:
298,192,122461,128,8,122769:0:0:0:0:
128,192,122769,1,2,0:0:0:0:
384,192,122769,128,0,123692:0:0:0:0:
42,192,123076,1,2,0:0:0:0:
213,192,123230,1,2,0:0:0:0:
128,192,123538,1,2,0:0:0:0:
42,192,123692,1,2,0:0:0:0:
469,192,123846,1,2,0:0:0:0:
128,192,124000,1,2,0:0:0:0:
384,192,124153,1,2,0:0:0:0:
213,192,124307,1,2,0:0:0:0:
298,192,124461,1,2,0:0:0:0:
42,192,124615,128,4,126461:0:0:0:0:
384,192,124615,1,0,0:0:0:0:
469,192,124615,1,0,0:0:0:0:
128,192,125538,1,0,0:0:0:0:
213,192,125538,1,0,0:0:0:0:
298,192,126461,1,0,0:0:0:0:
384,192,126461,1,0,0:0:0:0:
42,192,127384,1,0,0:0:0:0:
469,192,127384,1,0,0:0:0:0:
213,192,128307,1,0,0:0:0:0:
469,192,128307,1,0,0:0:0:0:
42,192,129230,1,0,0:0:0:0:
298,192,129230,1,0,0:0:0:0:
128,192,130153,1,0,0:0:0:0:
384,192,130153,1,0,0:0:0:0:
213,192,131076,1,0,0:0:0:0:
469,192,131076,1,0,0:0:0:0:
42,192,132000,1,4,0:0:0:0:
469,192,132000,1,0,0:0:0:0:
213,192,132923,1,0,0:0:0:0:
298,192,132923,1,0,0:0:0:0:
128,192,133846,1,0,0:0:0:0:
384,192,133846,1,0,0:0:0:0:
42,192,134769,1,0,0:0:0:0:
469,192,134769,1,0,0:0:0:0:
213,192,135692,1,0,0:0:0:0:
469,192,135692,1,0,0:0:0:0:
42,192,136615,1,0,0:0:0:0:
298,192,136615,1,0,0:0:0:0:
128,192,138000,1,0,0:0:0:0:
384,192,138000,1,0,0:0:0:0:
