osu file format v14

[General]
AudioFilename: audio.ogg
AudioLeadIn: 0
PreviewTime: 28546
Countdown: 0
SampleSet: Soft
StackLeniency: 0.7
Mode: 3
LetterboxInBreaks: 0
SpecialStyle: 0
WidescreenStoryboard: 1

[Editor]
DistanceSpacing: 1
BeatDivisor: 8
GridSize: 8
TimelineZoom: 2

[Metadata]
Title:Capella
TitleUnicode:Capella
Artist:ARForest
ArtistUnicode:ARForest
Creator:SilentWuffer
Version:Past
Source:Arcaea
Tags:lowiro limited original ost soundtrack kou (winter) memory archive star northern constellation auriga artcore instrumental electronic ln long note hytex ultra_rotten y0gurt homwu mobile video rhythm game keysound vietnamese national mania championship 2023 oblitus requiem vnmc vnmc2023 23
BeatmapID:4299169
BeatmapSetID:1971952

[Difficulty]
HPDrainRate:6.5
CircleSize:4
OverallDifficulty:6.5
ApproachRate:5
SliderMultiplier:1.4
SliderTickRate:1

[Events]
//Background and Video events
0,0,"capellabg.jpg",0,0
//Break Periods
2,65317,73059
//Storyboard Layer 0 (Background)
//Storyboard Layer 1 (Fail)
//Storyboard Layer 2 (Pass)
//Storyboard Layer 3 (Foreground)
//Storyboard Layer 4 (Overlay)
//Storyboard Sound Samples
Sample,5117,0,"G7S.wav",70
Sample,5545,0,"G#6S_Ab6S.wav",70
Sample,15117,0,"G#5S_Ab5S.wav",70
Sample,15688,0,"D#5S_Eb5S.wav",70
Sample,15974,0,"A#5S_Bb5S.wav",70
Sample,16831,0,"D#6S_Eb6S.wav",70
Sample,17117,0,"G#6S_Ab6S.wav",70
Sample,17545,0,"G6S.wav",70
Sample,17974,0,"D#6S_Eb6S.wav",70
Sample,18259,0,"F6S.wav",70
Sample,18545,0,"D#6S_Eb6S.wav",70
Sample,18831,0,"A#5S_Bb5S.wav",70
Sample,19117,0,"G#5S_Ab5S.wav",70
Sample,19402,0,"G#5S_Ab5S.wav",70
Sample,19831,0,"A#5S_Bb5S.wav",70
Sample,20259,0,"C6S.wav",70
Sample,20545,0,"A#5S_Bb5S.wav",70
Sample,20974,0,"C6S.wav",70
Sample,21402,0,"D#6S_Eb6S.wav",70
Sample,21688,0,"G#6S_Ab6S.wav",70
Sample,22117,0,"LR_Hat Synth.wav",40
Sample,22117,0,"A#6S_Bb6S.wav",70
Sample,22545,0,"D#7S_Eb7S.wav",70
Sample,23402,0,"A#6S_Bb6S.wav",70
Sample,23974,0,"D#4S_Eb4S.wav",70
Sample,26259,0,"D#4S_Eb4S.wav",70
Sample,26831,0,"D#4S_Eb4S.wav",70
Sample,39402,0,"G#5S_Ab5S.wav",70
Sample,39545,0,"G5S.wav",70
Sample,39688,0,"D#5S_Eb5S.wav",70
Sample,39831,0,"G#4S_Ab4S.wav",70
Sample,55974,0,"D#6S_Eb6S.wav",70
Sample,63974,0,"D#7S_Eb7S.wav",70
Sample,78831,0,"G#6S_Ab6S.wav",70
Sample,79402,0,"A#6S_Bb6S.wav",70
Sample,79974,0,"C7S.wav",70
Sample,80545,0,"D#7S_Eb7S.wav",70
Sample,81117,0,"G#5S_Ab5S.wav",70
Sample,81117,0,"G7S.wav",70
Sample,81688,0,"G#5S_Ab5S.wav",70
Sample,81688,0,"G#7S_Ab7S.wav",70
Sample,89688,0,"D#6S_Eb6S.wav",70
Sample,89831,0,"D#6S_Eb6S.wav",70
Sample,89974,0,"D#6S_Eb6S.wav",70
Sample,101117,0,"G#6S_Ab6S.wav",70
Sample,101259,0,"D#6S_Eb6S.wav",70
Sample,101402,0,"G#5S_Ab5S.wav",70
Sample,110259,0,"D#5S_Eb5S.wav",70
Sample,110402,0,"D#5S_Eb5S.wav",70
Sample,110545,0,"D#5S_Eb5S.wav",70
Sample,122545,0,"LR_Hat Synth.wav",40
Sample,123545,0,"LR_Hat Synth.wav",40
Sample,124402,0,"LR_Hat Synth.wav",40
Sample,124831,0,"LR_Hat Synth.wav",40
Sample,127117,0,"LR_Hat Synth.wav",40
Sample,128974,0,"LR_Hat Synth.wav",40

[TimingPoints]
1117,285.714285714286,4,2,1,70,1,0
5545,-100,4,2,1,40,0,0
28545,-100,4,2,1,40,0,1
35402,-100,4,2,1,40,0,0
37688,-100,4,2,1,40,0,1
39402,-100,4,2,1,40,0,0
39974,-100,4,2,1,40,0,1
45688,-100,4,2,1,40,0,0
65117,-100,4,2,1,20,0,0
78831,-100,4,2,1,50,0,0
83259,-100,4,2,1,50,0,1
101545,-100,4,2,1,50,0,0
103831,-100,4,2,1,50,0,1
115402,-100,4,2,1,20,0,0
129117,-100,4,2,1,10,0,0

[HitObjects]
64,192,1117,5,0,0:0:0:70:G#5S_Ab5S.wav
192,192,1545,1,0,0:0:0:70:A#5S_Bb5S.wav
320,192,2117,1,0,0:0:0:70:D#6S_Eb6S.wav
448,192,2688,1,0,0:0:0:70:G#6S_Ab6S.wav
64,192,3259,1,0,0:0:0:70:A#6S_Bb6S.wav
192,192,3831,1,0,0:0:0:70:D#7S_Eb7S.wav
320,192,4402,1,0,0:0:0:70:G#7S_Ab7S.wav
64,192,5117,1,0,0:0:0:70:G#5S_Ab5S.wav
192,192,5545,1,0,0:0:0:70:A#5S_Bb5S.wav
320,192,6259,1,0,0:0:0:70:C6S.wav
448,192,6688,1,0,0:0:0:70:D#6S_Eb6S.wav
192,192,7402,1,0,0:0:0:70:G#5S_Ab5S.wav
64,192,7831,1,0,0:0:0:70:G5S.wav
320,192,8545,1,0,0:0:0:70:G#5S_Ab5S.wav
192,192,8974,1,0,0:0:0:70:D#5S_Eb5S.wav
64,192,9688,1,0,0:0:0:70:G#5S_Ab5S.wav
192,192,10117,1,0,0:0:0:70:A#5S_Bb5S.wav
320,192,10831,1,0,0:0:0:70:C6S.wav
448,192,11259,1,0,0:0:0:70:D#6S_Eb6S.wav
64,192,11974,1,0,0:0:0:70:G#5S_Ab5S.wav
192,192,12402,1,0,0:0:0:70:A#5S_Bb5S.wav
320,192,13117,1,0,0:0:0:70:C6S.wav
448,192,13545,1,0,0:0:0:70:G#6S_Ab6S.wav
320,192,13974,1,0,0:0:0:70:G6S.wav
192,192,14259,1,0,0:0:0:70:D#6S_Eb6S.wav
64,192,14545,1,0,0:0:0:70:A#5S_Bb5S.wav
320,192,14831,1,2,0:0:0:0:
448,192,14831,1,0,0:0:0:0:
192,192,15117,1,0,0:0:0:40:LR_Hat Synth.wav
64,192,15688,1,2,0:0:0:0:
192,192,15974,1,2,0:0:0:0:
320,192,16402,1,0,0:0:0:70:C6S.wav
64,192,16831,1,2,0:0:0:0:
448,192,17117,1,2,0:0:0:0:
320,192,17545,1,2,0:0:0:0:
64,192,17974,1,2,0:0:0:0:
448,192,18259,1,2,0:0:0:0:
192,192,18545,1,0,0:0:0:40:LR_Drum Click.wav
320,192,18831,1,8,0:0:0:0:
64,192,19117,1,2,0:0:0:0:
320,192,19402,1,2,0:0:0:0:
192,192,19831,1,2,0:0:0:0:
448,192,20259,1,2,0:0:0:0:
64,192,20545,1,2,0:0:0:0:
320,192,20974,1,2,0:0:0:0:
448,192,21402,1,2,0:0:0:0:
64,192,21688,1,2,0:0:0:0:
192,192,22117,1,2,0:0:0:0:
320,192,22545,1,2,0:0:0:0:
448,192,23117,1,0,0:0:0:70:G7S.wav
320,192,23402,1,8,0:0:0:0:
192,192,23688,1,0,0:0:0:70:G6S.wav
64,192,23974,128,2,24259:0:0:0:0:
448,192,24545,128,0,24831:0:0:0:70:D#4S_Eb4S.wav
64,192,25117,128,0,25402:0:0:0:70:D#4S_Eb4S.wav
448,192,25688,128,0,25974:0:0:0:70:D#4S_Eb4S.wav
64,192,26259,128,2,26545:0:0:0:0:
448,192,26831,128,2,27117:0:0:0:0:
64,192,27402,1,2,0:0:0:0:
192,192,27402,1,0,0:0:0:40:LR_Drum Click.wav
320,192,28545,1,2,0:0:0:0:
448,192,28545,128,4,28831:0:0:0:0:
64,192,29117,128,8,29402:0:0:0:0:
320,192,29545,128,8,29831:0:0:0:0:
64,192,29831,1,2,0:0:0:0:
192,192,29974,1,2,0:0:0:0:
320,192,30117,1,10,0:0:0:0:
64,192,30259,1,2,0:0:0:0:
448,192,30545,1,10,0:0:0:0:
192,192,30688,1,2,0:0:0:0:
320,192,30831,128,2,31117:0:0:0:0:
64,192,31259,1,2,0:0:0:0:
192,192,31402,1,10,0:0:0:0:
448,192,31545,1,2,0:0:0:0:
320,192,31688,1,2,0:0:0:0:
192,192,31831,128,10,32117:0:0:0:0:
320,192,32117,1,2,0:0:0:0:
64,192,32259,1,10,0:0:0:0:
448,192,32545,1,8,0:0:0:0:
192,192,32688,1,8,0:0:0:0:
320,192,32831,1,8,0:0:0:0:
64,192,32974,1,10,0:0:0:0:
192,192,33117,128,2,33402:0:0:0:0:
448,192,33117,1,0,0:0:0:0:
448,192,33688,128,10,33974:0:0:0:0:
64,192,34117,128,10,34402:0:0:0:0:
320,192,34545,1,10,0:0:0:0:
448,192,34831,1,2,0:0:0:0:
320,192,34974,1,2,0:0:0:0:
192,192,35117,1,10,0:0:0:0:
64,192,35259,1,2,0:0:0:0:
320,192,35402,128,2,35974:0:0:0:0:
64,192,35974,128,10,36545:0:0:0:0:
192,192,36545,128,2,37117:0:0:0:0:
448,192,37117,128,10,37688:0:0:0:0:
64,192,37688,1,2,0:0:0:0:
192,192,37688,1,4,0:0:0:0:
320,192,38117,1,2,0:0:0:0:
64,192,38259,1,10,0:0:0:0:
448,192,38545,1,2,0:0:0:0:
192,192,38688,1,2,0:0:0:0:
192,192,38974,1,2,0:0:0:0:
448,192,39117,1,10,0:0:0:0:
448,192,39402,1,0,0:0:0:70:G#7S_Ab7S.wav
320,192,39545,1,0,0:0:0:70:G7S.wav
192,192,39688,1,0,0:0:0:70:D#7S_Eb7S.wav
64,192,39831,1,0,0:0:0:70:G#6S_Ab6S.wav
448,192,39974,1,2,0:0:0:0:
320,192,40402,1,2,0:0:0:0:
448,192,40545,1,10,0:0:0:0:
64,192,40831,1,2,0:0:0:0:
192,192,40974,1,2,0:0:0:0:
192,192,41259,1,2,0:0:0:0:
64,192,41402,1,10,0:0:0:0:
448,192,41688,1,10,0:0:0:0:
320,192,41831,1,2,0:0:0:0:
64,192,41974,1,10,0:0:0:0:
192,192,42117,1,2,0:0:0:0:
320,192,42259,1,4,0:0:0:0:
448,192,42259,128,2,42688:0:0:0:0:
64,192,42688,128,4,43117:0:0:0:0:
192,192,42688,1,8,0:0:0:0:
320,192,43117,128,2,43545:0:0:0:0:
448,192,43117,1,4,0:0:0:0:
64,192,43545,1,8,0:0:0:0:
192,192,43545,128,4,43974:0:0:0:0:
320,192,43974,1,8,0:0:0:0:
448,192,43974,1,4,0:0:0:0:
64,192,46831,1,4,0:0:0:0:
192,192,46831,1,0,0:0:0:70:D#6S_Eb6S.wav
320,192,47402,1,0,0:0:0:70:G6S.wav
448,192,47974,1,0,0:0:0:70:G#6S_Ab6S.wav
64,192,48545,1,0,0:0:0:70:D#7S_Eb7S.wav
448,192,49117,1,0,0:0:0:70:G#7S_Ab7S.wav
320,192,49688,1,0,0:0:0:70:G7S.wav
64,192,50259,1,0,0:0:0:70:D#7S_Eb7S.wav
192,192,50688,1,0,0:0:0:70:A#6S_Bb6S.wav
320,192,51117,1,0,0:0:0:70:G#6S_Ab6S.wav
64,192,51402,1,0,0:0:0:70:D#6S_Eb6S.wav
320,192,51974,1,0,0:0:0:70:G6S.wav
448,192,52545,1,0,0:0:0:70:G#6S_Ab6S.wav
192,192,53117,1,0,0:0:0:70:D#7S_Eb7S.wav
448,192,53688,1,0,0:0:0:70:G#7S_Ab7S.wav
320,192,54259,1,0,0:0:0:70:G7S.wav
64,192,54831,1,0,0:0:0:70:D#7S_Eb7S.wav
192,192,55259,1,0,0:0:0:70:A#7S_Bb7S.wav
448,192,55688,1,0,0:0:0:70:C8S.wav
64,192,55974,1,0,0:0:0:70:LR_TomSnare.wav
320,192,56259,1,0,0:0:0:70:LR_TomSnare.wav
320,192,56831,1,0,0:0:0:0:
192,192,57402,1,0,0:0:0:70:LR_TomSnare.wav
192,192,57974,1,0,0:0:0:0:
320,192,58545,1,0,0:0:0:70:LR_TomSnare.wav
320,192,59117,1,0,0:0:0:0:
192,192,59688,1,0,0:0:0:70:LR_TomSnare.wav
448,192,60259,1,0,0:0:0:70:G#6S_Ab6S.wav
192,192,60831,1,0,0:0:0:70:LR_TomSnare.wav
192,192,61402,1,0,0:0:0:0:
64,192,61974,1,0,0:0:0:70:LR_TomSnare.wav
64,192,62545,1,0,0:0:0:70:LR_TomSnare.wav
320,192,63117,1,0,0:0:0:70:LR_TomSnare.wav
448,192,63688,1,0,0:0:0:70:LR_Hat Synth.wav
64,192,63974,128,0,65117:0:0:0:70:LR_TomSnare.wav
320,192,65117,1,2,0:0:0:0:
448,192,65117,1,4,0:0:0:0:
64,192,74259,5,8,0:0:0:0:
192,192,74259,1,0,0:0:0:0:
320,192,78831,1,8,0:0:0:0:
448,192,78831,128,0,79402:0:0:0:70:G#5S_Ab5S.wav
64,192,79402,128,0,79974:0:0:0:70:G#5S_Ab5S.wav
448,192,79974,128,0,80545:0:0:0:70:G#5S_Ab5S.wav
64,192,80545,128,0,81117:0:0:0:70:G#5S_Ab5S.wav
448,192,81117,128,2,81688:0:0:0:0:
64,192,81688,128,2,82259:0:0:0:0:
192,192,82259,1,2,0:0:0:0:
320,192,82259,1,0,0:0:0:70:hp_clear.wav
320,192,83259,128,2,83688:0:0:0:0:
448,192,83259,1,4,0:0:0:0:
64,192,83688,1,2,0:0:0:0:
320,192,83974,1,8,0:0:0:0:
192,192,84117,1,2,0:0:0:0:
64,192,84259,1,8,0:0:0:0:
448,192,84402,128,2,84831:0:0:0:0:
64,192,84831,1,2,0:0:0:0:
320,192,85117,1,8,0:0:0:0:
64,192,85259,1,2,0:0:0:0:
448,192,85402,1,8,0:0:0:0:
192,192,85545,128,2,85974:0:0:0:0:
64,192,85974,1,2,0:0:0:0:
448,192,86259,1,8,0:0:0:0:
192,192,86402,1,2,0:0:0:0:
448,192,86545,1,8,0:0:0:0:
64,192,86688,128,2,87117:0:0:0:0:
320,192,87117,1,8,0:0:0:0:
192,192,87259,1,2,0:0:0:0:
448,192,87402,1,8,0:0:0:0:
64,192,87688,1,8,0:0:0:0:
320,192,87831,128,2,88259:0:0:0:0:
64,192,88259,1,2,0:0:0:0:
320,192,88545,1,8,0:0:0:0:
192,192,88688,1,2,0:0:0:0:
64,192,88831,1,8,0:0:0:0:
448,192,88974,128,2,89402:0:0:0:0:
64,192,89402,1,2,0:0:0:0:
320,192,89688,1,8,0:0:0:0:
192,192,89831,1,2,0:0:0:0:
320,192,89974,1,8,0:0:0:0:
64,192,90117,128,2,90545:0:0:0:0:
192,192,90545,1,8,0:0:0:0:
448,192,90831,128,8,91117:0:0:0:0:
64,192,91117,1,2,0:0:0:0:
320,192,91259,128,8,91688:0:0:0:0:
192,192,91688,1,8,0:0:0:0:
448,192,91974,1,8,0:0:0:0:
64,192,92117,1,8,0:0:0:0:
192,192,92259,1,8,0:0:0:0:
320,192,92402,128,2,92831:0:0:0:0:
448,192,92402,1,4,0:0:0:0:
64,192,92831,1,2,0:0:0:0:
320,192,93117,1,8,0:0:0:0:
192,192,93259,1,2,0:0:0:0:
64,192,93402,1,8,0:0:0:0:
448,192,93545,128,2,93974:0:0:0:0:
64,192,93974,1,2,0:0:0:0:
320,192,94259,1,8,0:0:0:0:
64,192,94402,1,2,0:0:0:0:
448,192,94545,1,8,0:0:0:0:
192,192,94688,128,2,95117:0:0:0:0:
320,192,95117,1,2,0:0:0:0:
448,192,95402,1,8,0:0:0:0:
192,192,95545,1,2,0:0:0:0:
448,192,95688,1,8,0:0:0:0:
64,192,95831,128,2,96259:0:0:0:0:
320,192,96259,1,8,0:0:0:0:
448,192,96545,1,8,0:0:0:0:
64,192,96831,1,8,0:0:0:0:
320,192,96974,1,4,0:0:0:0:
448,192,96974,1,2,0:0:0:0:
192,192,97402,1,2,0:0:0:0:
448,192,97688,1,8,0:0:0:0:
64,192,97974,1,8,0:0:0:0:
320,192,98117,1,2,0:0:0:0:
448,192,98117,1,4,0:0:0:0:
192,192,98545,1,2,0:0:0:0:
448,192,98831,1,8,0:0:0:0:
192,192,99117,1,8,0:0:0:0:
64,192,99259,1,2,0:0:0:0:
320,192,99259,1,4,0:0:0:0:
448,192,99688,1,8,0:0:0:0:
64,192,99974,1,8,0:0:0:0:
192,192,100402,1,8,0:0:0:0:
448,192,100402,1,0,0:0:0:0:
320,192,100831,1,8,0:0:0:0:
448,192,101117,1,8,0:0:0:0:
192,192,101259,1,8,0:0:0:0:
64,192,101402,1,8,0:0:0:0:
320,192,101545,1,6,0:0:0:0:
448,192,101545,1,0,0:0:0:70:A#6S_Bb6S.wav
64,192,102259,1,0,0:0:0:70:C7S.wav
448,192,102688,1,0,0:0:0:70:D#7S_Eb7S.wav
64,192,103402,1,8,0:0:0:0:
192,192,103545,1,8,0:0:0:0:
448,192,103688,1,8,0:0:0:0:
64,192,103831,1,4,0:0:0:0:
320,192,103831,128,2,104259:0:0:0:0:
448,192,104259,1,8,0:0:0:0:
192,192,104545,1,0,0:0:0:0:
320,192,104831,1,8,0:0:0:0:
64,192,104974,128,2,105402:0:0:0:0:
448,192,105402,1,8,0:0:0:0:
192,192,105688,1,8,0:0:0:0:
64,192,105974,1,8,0:0:0:0:
320,192,106117,128,6,106545:0:0:0:0:
192,192,106545,1,8,0:0:0:0:
320,192,106831,1,2,0:0:0:0:
64,192,107117,1,8,0:0:0:0:
448,192,107259,128,2,107688:0:0:0:0:
192,192,107688,1,8,0:0:0:0:
320,192,107974,1,8,0:0:0:0:
64,192,108259,1,8,0:0:0:0:
192,192,108402,1,2,0:0:0:0:
448,192,108402,1,4,0:0:0:0:
320,192,108831,1,8,0:0:0:0:
64,192,109117,1,4,0:0:0:0:
192,192,109117,1,8,0:0:0:0:
320,192,109545,1,8,0:0:0:0:
448,192,109545,1,4,0:0:0:0:
64,192,109974,1,8,0:0:0:0:
192,192,109974,1,4,0:0:0:0:
448,192,110259,1,8,0:0:0:0:
192,192,110402,1,8,0:0:0:0:
448,192,110545,1,8,0:0:0:0:
64,192,110688,1,2,0:0:0:0:
320,192,110688,128,4,111117:0:0:0:0:
192,192,111117,1,8,0:0:0:0:
64,192,111402,1,0,0:0:0:0:
448,192,111831,128,2,112259:0:0:0:0:
192,192,112259,1,8,0:0:0:0:
448,192,112545,1,0,0:0:0:0:
64,192,112831,1,2,0:0:0:0:
320,192,112974,128,8,113259:0:0:0:0:
448,192,112974,1,4,0:0:0:0:
192,192,113259,1,2,0:0:0:0:
64,192,113545,1,8,0:0:0:0:
320,192,113831,1,8,0:0:0:0:
448,192,113974,1,2,0:0:0:0:
64,192,114117,1,8,0:0:0:0:
192,192,114117,128,4,114545:0:0:0:0:
448,192,114545,1,8,0:0:0:0:
320,192,114831,1,8,0:0:0:0:
64,192,114974,1,8,0:0:0:0:
192,192,115117,1,8,0:0:0:0:
448,192,115259,1,8,0:0:0:0:
64,192,115402,1,6,0:0:0:0:
192,192,115402,1,0,0:0:0:70:A#6S_Bb6S.wav
448,192,119974,1,2,0:0:0:0:
320,192,120117,1,2,0:0:0:0:
192,192,120259,1,2,0:0:0:0:
64,192,120402,1,2,0:0:0:0:
320,192,120831,1,2,0:0:0:0:
192,192,121117,1,2,0:0:0:0:
64,192,121259,1,2,0:0:0:0:
320,192,121545,1,2,0:0:0:0:
448,192,121688,1,8,0:0:0:0:
192,192,121974,1,2,0:0:0:0:
320,192,122117,1,2,0:0:0:0:
64,192,122259,1,2,0:0:0:0:
192,192,122402,1,2,0:0:0:0:
320,192,122545,1,2,0:0:0:0:
64,192,122974,1,0,0:0:0:40:LR_Hat Synth.wav
448,192,123117,1,2,0:0:0:0:
320,192,123259,1,2,0:0:0:0:
192,192,123402,1,2,0:0:0:0:
448,192,123545,1,2,0:0:0:0:
64,192,123831,1,2,0:0:0:0:
320,192,123974,1,8,0:0:0:0:
192,192,124117,1,2,0:0:0:0:
64,192,124259,1,2,0:0:0:0:
320,192,124402,1,2,0:0:0:0:
192,192,124831,1,2,0:0:0:0:
448,192,124974,1,2,0:0:0:0:
64,192,125259,1,0,0:0:0:40:LR_Hat Synth.wav
320,192,125402,1,2,0:0:0:0:
192,192,125688,1,2,0:0:0:0:
64,192,125831,1,2,0:0:0:0:
320,192,126117,1,2,0:0:0:0:
448,192,126259,1,8,0:0:0:0:
192,192,126545,1,2,0:0:0:0:
320,192,126688,1,2,0:0:0:0:
64,192,126831,1,2,0:0:0:0:
192,192,126974,1,2,0:0:0:0:
320,192,127117,1,2,0:0:0:0:
448,192,127545,1,0,0:0:0:40:LR_Hat Synth.wav
192,192,127688,1,2,0:0:0:0:
320,192,127831,1,2,0:0:0:0:
448,192,127974,1,2,0:0:0:0:
192,192,128117,1,8,0:0:0:0:
320,192,128402,1,2,0:0:0:0:
64,192,128545,1,8,0:0:0:0:
448,192,128831,1,2,0:0:0:0:
320,192,128974,1,2,0:0:0:0:
64,192,129117,1,2,0:0:0:0:
192,192,129117,128,4,134831:0:0:0:0:
320,192,133259,128,0,134831:0:0:0:0:
