osu file format v14

[General]
AudioFilename: audio.ogg
AudioLeadIn: 0
PreviewTime: 28546
Countdown: 0
SampleSet: Soft
StackLeniency: 0.7
Mode: 3
LetterboxInBreaks: 0
SpecialStyle: 0
WidescreenStoryboard: 0

[Editor]
DistanceSpacing: 1
BeatDivisor: 16
GridSize: 8
TimelineZoom: 2

[Metadata]
Title:Capella
TitleUnicode:Capella
Artist:ARForest
ArtistUnicode:ARForest
Creator:SilentWuffer
Version:Beyond
Source:Arcaea
Tags:lowiro limited original ost soundtrack kou (winter) memory archive star northern constellation auriga artcore instrumental electronic ln long note hytex ultra_rotten y0gurt homwu mobile video rhythm game keysound vietnamese national mania championship 2023 oblitus requiem vnmc vnmc2023 23
BeatmapID:4299167
BeatmapSetID:1971952

[Difficulty]
HPDrainRate:8
CircleSize:4
OverallDifficulty:7.6
ApproachRate:5
SliderMultiplier:1.4
SliderTickRate:1

[Events]
//Background and Video events
0,0,"capellabg.jpg",0,0
//Break Periods
//Storyboard Layer 0 (Background)
//Storyboard Layer 1 (Fail)
//Storyboard Layer 2 (Pass)
//Storyboard Layer 3 (Foreground)
//Storyboard Layer 4 (Overlay)
//Storyboard Sound Samples
Sample,5117,0,"G7S.wav",70
Sample,15117,0,"G#5S_Ab5S.wav",70
Sample,19259,0,"LR_Hat Synth.wav",40
Sample,19688,0,"LR_Hat Synth.wav",40
Sample,19831,0,"A#5S_Bb5S.wav",70
Sample,20259,0,"C6S.wav",70
Sample,20974,0,"C6S.wav",70
Sample,21402,0,"D#6S_Eb6S.wav",70
Sample,22117,0,"A#6S_Bb6S.wav",70
Sample,22974,0,"G#7S_Ab7S.wav",70
Sample,23402,0,"A#6S_Bb6S.wav",70
Sample,39402,0,"G#5S_Ab5S.wav",70
Sample,39545,0,"G5S.wav",70
Sample,39688,0,"D#5S_Eb5S.wav",70
Sample,39831,0,"G#4S_Ab4S.wav",70
Sample,56545,0,"G6S.wav",70
Sample,57688,0,"D#7S_Eb7S.wav",70
Sample,58831,0,"G7S.wav",70
Sample,61117,0,"G6S.wav",70
Sample,63402,0,"G7S.wav",70
Sample,78974,0,"G6S.wav",70
Sample,79117,0,"D#6S_Eb6S.wav",70
Sample,79259,0,"C6S.wav",70
Sample,79545,0,"G#6S_Ab6S.wav",70
Sample,79688,0,"D#6S_Eb6S.wav",70
Sample,79831,0,"C6S.wav",70
Sample,80117,0,"G#6S_Ab6S.wav",70
Sample,80259,0,"G6S.wav",70
Sample,80402,0,"D#6S_Eb6S.wav",70
Sample,80688,0,"A#6S_Bb6S.wav",70
Sample,80831,0,"G#6S_Ab6S.wav",70
Sample,80974,0,"D#6S_Eb6S.wav",70
Sample,81117,0,"G7S.wav",70
Sample,81259,0,"D#7S_Eb7S.wav",70
Sample,81402,0,"A#6S_Bb6S.wav",70
Sample,81545,0,"G#6S_Ab6S.wav",70
Sample,81688,0,"G#7S_Ab7S.wav",70
Sample,81831,0,"G7S.wav",70
Sample,81974,0,"D#7S_Eb7S.wav",70
Sample,82117,0,"A#6S_Bb6S.wav",70
Sample,89902,0,"D#6S_Eb6S.wav",70

[TimingPoints]
1117,285.714285714286,4,2,1,70,1,0
5545,-100,4,2,1,40,0,0
28545,-100,4,2,1,40,0,1
35402,-100,4,2,1,40,0,0
37688,-100,4,2,1,40,0,1
39402,-100,4,2,1,40,0,0
39974,-100,4,2,1,40,0,1
45688,-100,4,2,1,40,0,0
65117,-100,4,2,1,20,0,0
78831,-100,4,2,1,50,0,0
83259,-100,4,2,1,50,0,1
101545,-100,4,2,1,50,0,0
103831,-100,4,2,1,50,0,1
115402,-100,4,2,1,20,0,0
129117,-100,4,2,1,10,0,0

[HitObjects]
448,192,1117,128,0,1545:0:0:0:70:G#5S_Ab5S.wav
320,192,1259,128,0,1545:0:0:0:70:D#5S_Eb5S.wav
192,192,1402,128,0,1545:0:0:0:70:G#5S_Ab5S.wav
64,192,1545,128,0,1974:0:0:0:70:A#5S_Bb5S.wav
192,192,1831,128,0,2117:0:0:0:70:G#5S_Ab5S.wav
320,192,1974,128,0,2117:0:0:0:70:A#5S_Bb5S.wav
448,192,2117,128,0,2545:0:0:0:70:D#6S_Eb6S.wav
320,192,2402,128,0,2688:0:0:0:70:A#5S_Bb5S.wav
192,192,2545,128,0,2688:0:0:0:70:D#6S_Eb6S.wav
64,192,2688,128,0,3117:0:0:0:70:G#6S_Ab6S.wav
192,192,2974,128,0,3259:0:0:0:70:D#6S_Eb6S.wav
320,192,3117,128,0,3259:0:0:0:70:G#6S_Ab6S.wav
448,192,3259,128,0,3688:0:0:0:70:A#6S_Bb6S.wav
320,192,3545,128,0,3831:0:0:0:70:G#6S_Ab6S.wav
64,192,3688,128,0,3831:0:0:0:70:A#6S_Bb6S.wav
192,192,3831,128,0,4259:0:0:0:70:D#7S_Eb7S.wav
64,192,4117,128,0,4402:0:0:0:70:A#6S_Bb6S.wav
448,192,4259,128,0,4402:0:0:0:70:D#7S_Eb7S.wav
320,192,4402,128,0,4831:0:0:0:70:G#7S_Ab7S.wav
448,192,4688,128,0,4974:0:0:0:70:D#8S_Eb8S.wav
64,192,4831,128,0,5117:0:0:0:70:A#7S_Bb7S.wav
320,192,4974,128,0,5259:0:0:0:70:G#7S_Ab7S.wav
192,192,5117,128,0,5402:0:0:0:70:G#5S_Ab5S.wav
64,192,5259,128,0,5402:0:0:0:70:D#7S_Eb7S.wav
448,192,5402,128,0,5545:0:0:0:70:A#6S_Bb6S.wav
64,192,5545,1,0,0:0:0:70:A#5S_Bb5S.wav
192,192,5545,128,0,5688:0:0:0:70:G#6S_Ab6S.wav
320,192,5545,128,0,5902:0:0:0:0:
64,192,5831,128,0,5902:0:0:0:70:C5S.wav
192,192,5974,128,0,6045:0:0:0:70:D#5S_Eb5S.wav
320,192,6117,128,0,6188:0:0:0:70:G#5S_Ab5S.wav
448,192,6259,128,0,6545:0:0:0:70:C6S.wav
64,192,6402,128,0,6474:0:0:0:0:
192,192,6545,128,0,6617:0:0:0:0:
320,192,6688,128,0,7045:0:0:0:70:D#6S_Eb6S.wav
448,192,6688,128,0,6831:0:0:0:0:
192,192,6974,128,0,7045:0:0:0:70:G#5S_Ab5S.wav
64,192,7117,128,0,7188:0:0:0:70:D#5S_Eb5S.wav
320,192,7259,128,0,7331:0:0:0:70:A#4S_Bb4S.wav
192,192,7402,128,0,7759:0:0:0:70:G#5S_Ab5S.wav
448,192,7545,128,0,7617:0:0:0:0:
320,192,7688,128,0,7759:0:0:0:0:
64,192,7831,128,0,8188:0:0:0:70:G5S.wav
192,192,7831,128,0,7974:0:0:0:0:
320,192,8117,128,0,8188:0:0:0:70:G#4S_Ab4S.wav
448,192,8259,128,0,8331:0:0:0:70:A#4S_Bb4S.wav
192,192,8402,128,0,8474:0:0:0:70:D#5S_Eb5S.wav
320,192,8545,128,0,8902:0:0:0:70:G#5S_Ab5S.wav
448,192,8688,128,0,8759:0:0:0:0:
64,192,8831,128,0,8902:0:0:0:0:
192,192,8974,128,0,9331:0:0:0:70:D#5S_Eb5S.wav
320,192,8974,128,0,9117:0:0:0:0:
448,192,9259,128,0,9331:0:0:0:70:D#5S_Eb5S.wav
320,192,9402,128,0,9474:0:0:0:70:G#4S_Ab4S.wav
64,192,9545,128,0,9617:0:0:0:70:C5S.wav
192,192,9688,128,0,10045:0:0:0:70:G#5S_Ab5S.wav
320,192,9831,128,0,9902:0:0:0:0:
448,192,9974,128,0,10045:0:0:0:0:
192,192,10117,128,0,10259:0:0:0:70:A#5S_Bb5S.wav
320,192,10117,128,0,10474:0:0:0:0:
64,192,10402,128,0,10474:0:0:0:70:C5S.wav
192,192,10545,128,0,10617:0:0:0:70:D#5S_Eb5S.wav
320,192,10688,128,0,10759:0:0:0:70:G#5S_Ab5S.wav
448,192,10831,128,0,11188:0:0:0:70:C6S.wav
64,192,10974,128,0,11045:0:0:0:0:
192,192,11117,128,0,11188:0:0:0:0:
320,192,11259,128,0,11617:0:0:0:70:D#6S_Eb6S.wav
448,192,11259,128,0,11402:0:0:0:0:
192,192,11545,128,0,11617:0:0:0:70:G#5S_Ab5S.wav
64,192,11688,128,0,11759:0:0:0:70:D#5S_Eb5S.wav
320,192,11831,128,0,11902:0:0:0:70:A#4S_Bb4S.wav
192,192,11974,128,0,12331:0:0:0:70:G#5S_Ab5S.wav
448,192,12117,128,0,12188:0:0:0:0:
320,192,12259,128,0,12331:0:0:0:0:
64,192,12402,128,0,12759:0:0:0:70:A#5S_Bb5S.wav
192,192,12402,128,0,12545:0:0:0:0:
320,192,12688,128,0,12759:0:0:0:70:C5S.wav
448,192,12831,128,0,12902:0:0:0:70:D#5S_Eb5S.wav
192,192,12974,128,0,13045:0:0:0:70:G#5S_Ab5S.wav
320,192,13117,128,0,13474:0:0:0:70:C6S.wav
448,192,13259,128,0,13331:0:0:0:0:
64,192,13402,128,0,13474:0:0:0:0:
192,192,13545,128,0,13688:0:0:0:70:G#6S_Ab6S.wav
448,192,13545,128,0,13902:0:0:0:0:
64,192,13831,128,0,13902:0:0:0:0:
192,192,13974,128,0,14117:0:0:0:70:G6S.wav
320,192,13974,128,0,14402:0:0:0:0:
192,192,14259,128,0,14688:0:0:0:70:D#6S_Eb6S.wav
448,192,14259,128,0,14402:0:0:0:0:
64,192,14545,128,0,14831:0:0:0:70:A#5S_Bb5S.wav
320,192,14545,128,0,14688:0:0:0:0:
320,192,14831,1,2,0:0:0:0:
448,192,14831,1,0,0:0:0:0:
192,192,14974,1,2,0:0:0:0:
448,192,15117,128,0,15259:0:0:0:40:LR_Hat Synth.wav
64,192,15259,1,0,0:0:0:40:LR_Drum Click.wav
320,192,15545,1,0,0:0:0:40:LR_Hat Synth.wav
64,192,15688,128,2,15831:0:0:0:0:
192,192,15688,1,0,0:0:0:70:D#5S_Eb5S.wav
192,192,15974,128,2,16117:0:0:0:0:
320,192,15974,1,0,0:0:0:70:A#5S_Bb5S.wav
448,192,16117,1,2,0:0:0:0:
64,192,16402,1,0,0:0:0:70:C6S.wav
320,192,16402,128,0,16545:0:0:0:0:
192,192,16545,1,8,0:0:0:0:
448,192,16545,1,0,0:0:0:40:LR_Hat Synth.wav
64,192,16831,1,2,0:0:0:0:
448,192,16831,128,0,16974:0:0:0:70:D#6S_Eb6S.wav
192,192,16974,1,2,0:0:0:0:
64,192,17117,128,2,17259:0:0:0:0:
320,192,17117,1,0,0:0:0:70:G#6S_Ab6S.wav
192,192,17259,1,2,0:0:0:0:
320,192,17545,128,2,17688:0:0:0:0:
448,192,17545,1,0,0:0:0:70:G6S.wav
192,192,17974,128,2,18117:0:0:0:0:
320,192,17974,1,0,0:0:0:70:D#6S_Eb6S.wav
64,192,18117,1,2,0:0:0:0:
320,192,18259,128,2,18402:0:0:0:0:
448,192,18259,1,0,0:0:0:70:F6S.wav
64,192,18545,1,0,0:0:0:40:LR_Drum Click.wav
192,192,18545,128,0,18688:0:0:0:70:D#6S_Eb6S.wav
64,192,18831,1,8,0:0:0:0:
448,192,18831,128,0,18974:0:0:0:70:A#5S_Bb5S.wav
320,192,18974,1,2,0:0:0:0:
64,192,19117,128,2,19259:0:0:0:0:
192,192,19117,1,0,0:0:0:70:G#5S_Ab5S.wav
448,192,19259,1,2,0:0:0:0:
192,192,19402,128,2,19545:0:0:0:0:
320,192,19402,1,0,0:0:0:70:G#5S_Ab5S.wav
448,192,19545,1,2,0:0:0:0:
64,192,19688,1,2,0:0:0:0:
320,192,19831,128,2,19974:0:0:0:0:
192,192,20117,1,0,0:0:0:40:LR_Hat Synth.wav
448,192,20259,128,2,20402:0:0:0:0:
64,192,20545,128,2,20688:0:0:0:0:
192,192,20545,1,0,0:0:0:70:A#5S_Bb5S.wav
320,192,20688,1,2,0:0:0:0:
192,192,20974,128,2,21117:0:0:0:0:
64,192,21117,1,8,0:0:0:0:
448,192,21117,1,0,0:0:0:0:
320,192,21402,128,2,21545:0:0:0:0:
192,192,21545,1,2,0:0:0:0:
64,192,21688,1,2,0:0:0:0:
448,192,21688,128,0,21831:0:0:0:70:G#6S_Ab6S.wav
320,192,21831,1,2,0:0:0:0:
64,192,22117,1,2,0:0:0:0:
192,192,22117,128,0,22259:0:0:0:40:LR_Hat Synth.wav
64,192,22545,128,2,22688:0:0:0:0:
320,192,22545,1,0,0:0:0:70:D#7S_Eb7S.wav
192,192,22688,1,2,0:0:0:0:
192,192,22831,1,2,0:0:0:0:
448,192,22974,128,8,23259:0:0:0:0:
320,192,23117,128,0,23402:0:0:0:70:G7S.wav
192,192,23259,128,0,23545:0:0:0:70:D#7S_Eb7S.wav
64,192,23402,128,8,23545:0:0:0:0:
448,192,23545,128,0,23688:0:0:0:70:G#6S_Ab6S.wav
320,192,23688,128,0,23831:0:0:0:70:G6S.wav
192,192,23831,128,0,23974:0:0:0:70:D#6S_Eb6S.wav
64,192,23974,128,2,24045:0:0:0:0:
448,192,23974,128,0,24045:0:0:0:70:D#4S_Eb4S.wav
320,192,24117,1,0,0:0:0:0:
192,192,24188,1,0,0:0:0:0:
64,192,24259,1,0,0:0:0:0:
320,192,24331,1,0,0:0:0:0:
192,192,24402,1,0,0:0:0:0:
320,192,24474,1,0,0:0:0:0:
64,192,24545,128,0,24634:0:0:0:70:D#4S_Eb4S.wav
448,192,24545,128,0,24634:0:0:0:0:
192,192,24688,1,0,0:0:0:0:
64,192,24759,1,0,0:0:0:0:
320,192,24831,1,0,0:0:0:0:
448,192,24902,1,0,0:0:0:0:
192,192,24974,1,0,0:0:0:0:
320,192,25045,1,0,0:0:0:0:
64,192,25117,128,0,25224:0:0:0:70:D#4S_Eb4S.wav
448,192,25117,128,0,25224:0:0:0:0:
320,192,25259,1,0,0:0:0:0:
192,192,25331,1,0,0:0:0:0:
448,192,25402,1,0,0:0:0:0:
64,192,25474,1,0,0:0:0:0:
192,192,25545,1,0,0:0:0:0:
320,192,25617,1,0,0:0:0:0:
64,192,25688,128,0,25813:0:0:0:70:D#4S_Eb4S.wav
448,192,25688,128,0,25813:0:0:0:0:
192,192,25831,1,0,0:0:0:0:
320,192,25902,1,0,0:0:0:0:
192,192,25974,1,0,0:0:0:0:
448,192,26045,1,0,0:0:0:0:
64,192,26117,1,0,0:0:0:0:
192,192,26188,1,0,0:0:0:0:
64,192,26259,128,2,26402:0:0:0:0:
448,192,26259,128,0,26402:0:0:0:70:D#4S_Eb4S.wav
320,192,26402,1,0,0:0:0:0:
192,192,26474,1,0,0:0:0:0:
448,192,26545,1,0,0:0:0:0:
64,192,26617,1,0,0:0:0:0:
320,192,26688,1,0,0:0:0:0:
192,192,26759,1,0,0:0:0:0:
64,192,26831,128,2,26992:0:0:0:0:
448,192,26831,128,0,26992:0:0:0:70:D#4S_Eb4S.wav
192,192,26974,1,0,0:0:0:0:
320,192,27045,1,0,0:0:0:0:
64,192,27117,1,0,0:0:0:0:
192,192,27188,1,0,0:0:0:0:
448,192,27259,1,0,0:0:0:0:
320,192,27331,1,0,0:0:0:0:
64,192,27402,1,2,0:0:0:0:
192,192,27402,1,0,0:0:0:40:LR_Drum Click.wav
448,192,27474,128,0,27545:0:0:0:0:
320,192,27545,128,0,27617:0:0:0:0:
448,192,27617,128,0,27688:0:0:0:0:
192,192,27688,128,0,27759:0:0:0:0:
320,192,27759,128,0,27831:0:0:0:0:
64,192,27831,128,0,27902:0:0:0:0:
192,192,27902,128,0,27974:0:0:0:0:
64,192,27974,1,0,0:0:0:0:
448,192,28045,1,0,0:0:0:0:
320,192,28117,1,0,0:0:0:0:
192,192,28188,1,0,0:0:0:0:
64,192,28259,1,0,0:0:0:0:
448,192,28331,1,0,0:0:0:0:
320,192,28402,1,0,0:0:0:0:
192,192,28474,1,0,0:0:0:0:
64,192,28545,1,2,0:0:0:0:
320,192,28545,128,4,28831:0:0:0:0:
448,192,28545,1,0,0:0:0:0:
448,192,28831,1,0,0:0:0:0:
192,192,28902,1,0,0:0:0:0:
320,192,28974,1,0,0:0:0:0:
64,192,29045,1,0,0:0:0:0:
192,192,29117,128,8,29402:0:0:0:0:
320,192,29117,1,0,0:0:0:0:
448,192,29117,1,0,0:0:0:0:
448,192,29259,1,0,0:0:0:0:
64,192,29402,1,2,0:0:0:0:
320,192,29402,1,0,0:0:0:0:
64,192,29545,128,8,29831:0:0:0:0:
192,192,29545,1,0,0:0:0:0:
448,192,29545,1,0,0:0:0:0:
192,192,29831,1,2,0:0:0:0:
320,192,29831,1,0,0:0:0:0:
320,192,29974,1,2,0:0:0:0:
448,192,29974,1,0,0:0:0:0:
64,192,30117,1,2,0:0:0:0:
320,192,30117,1,8,0:0:0:0:
448,192,30117,1,0,0:0:0:0:
192,192,30259,1,2,0:0:0:0:
448,192,30259,1,0,0:0:0:0:
64,192,30402,1,2,0:0:0:0:
192,192,30402,1,0,0:0:0:0:
64,192,30545,1,8,0:0:0:0:
192,192,30545,1,2,0:0:0:0:
448,192,30545,1,0,0:0:0:0:
192,192,30688,1,2,0:0:0:0:
320,192,30688,1,0,0:0:0:0:
64,192,30831,128,2,31117:0:0:0:0:
320,192,30831,1,0,0:0:0:0:
448,192,30974,1,0,0:0:0:70:G#6S_Ab6S.wav
192,192,31117,1,8,0:0:0:0:
320,192,31117,1,0,0:0:0:70:D#6S_Eb6S.wav
448,192,31117,1,0,0:0:0:0:
64,192,31259,1,2,0:0:0:0:
192,192,31259,1,0,0:0:0:0:
320,192,31331,1,2,0:0:0:0:
64,192,31402,1,2,0:0:0:0:
192,192,31402,1,8,0:0:0:0:
448,192,31402,1,0,0:0:0:0:
64,192,31545,1,2,0:0:0:0:
320,192,31545,1,0,0:0:0:0:
320,192,31688,1,2,0:0:0:0:
448,192,31688,1,0,0:0:0:0:
64,192,31831,1,8,0:0:0:0:
192,192,31831,128,2,32117:0:0:0:0:
448,192,31831,1,0,0:0:0:0:
64,192,32117,1,2,0:0:0:0:
320,192,32117,1,0,0:0:0:0:
192,192,32259,1,2,0:0:0:0:
320,192,32259,128,8,32402:0:0:0:0:
448,192,32259,1,0,0:0:0:0:
64,192,32402,1,2,0:0:0:0:
192,192,32402,1,0,0:0:0:0:
64,192,32545,1,8,0:0:0:0:
320,192,32545,1,0,0:0:0:0:
448,192,32545,1,0,0:0:0:0:
64,192,32688,1,8,0:0:0:0:
192,192,32688,1,0,0:0:0:0:
448,192,32688,1,0,0:0:0:0:
64,192,32831,1,8,0:0:0:0:
320,192,32831,1,0,0:0:0:0:
448,192,32831,1,0,0:0:0:0:
192,192,32974,1,2,0:0:0:0:
320,192,32974,1,8,0:0:0:0:
448,192,32974,1,0,0:0:0:0:
64,192,33117,1,2,0:0:0:0:
320,192,33117,128,0,33402:0:0:0:0:
192,192,33402,1,0,0:0:0:70:G#5S_Ab5S.wav
64,192,33474,1,0,0:0:0:70:D#6S_Eb6S.wav
320,192,33545,1,0,0:0:0:70:G#6S_Ab6S.wav
192,192,33617,1,0,0:0:0:70:A#6S_Bb6S.wav
64,192,33688,1,2,0:0:0:0:
320,192,33688,1,8,0:0:0:0:
448,192,33688,128,0,33831:0:0:0:0:
192,192,33831,1,2,0:0:0:0:
320,192,33831,1,0,0:0:0:0:
64,192,34117,1,2,0:0:0:0:
320,192,34117,128,8,34402:0:0:0:0:
448,192,34117,1,0,0:0:0:0:
64,192,34402,1,2,0:0:0:0:
192,192,34402,1,0,0:0:0:0:
192,192,34545,1,8,0:0:0:0:
320,192,34545,1,2,0:0:0:0:
448,192,34545,1,0,0:0:0:0:
64,192,34688,1,2,0:0:0:0:
192,192,34688,1,0,0:0:0:0:
320,192,34831,1,2,0:0:0:0:
448,192,34831,1,0,0:0:0:0:
64,192,34902,1,2,0:0:0:0:
192,192,34902,1,0,0:0:0:0:
320,192,34974,128,2,35117:0:0:0:0:
448,192,34974,1,0,0:0:0:0:
64,192,35117,1,2,0:0:0:0:
192,192,35117,1,8,0:0:0:0:
448,192,35117,1,0,0:0:0:0:
64,192,35259,1,2,0:0:0:0:
320,192,35259,1,0,0:0:0:0:
64,192,35402,128,2,35974:0:0:0:0:
192,192,35402,1,0,0:0:0:0:
320,192,35902,1,2,0:0:0:0:
448,192,35902,1,0,0:0:0:0:
192,192,35974,1,8,0:0:0:0:
320,192,35974,128,2,36545:0:0:0:0:
448,192,35974,1,0,0:0:0:0:
64,192,36259,1,2,0:0:0:0:
192,192,36259,1,0,0:0:0:0:
64,192,36545,1,2,0:0:0:0:
192,192,36545,128,0,37117:0:0:0:0:
320,192,36831,1,2,0:0:0:0:
448,192,36831,1,0,0:0:0:0:
64,192,37117,1,2,0:0:0:0:
320,192,37117,1,8,0:0:0:0:
448,192,37117,128,0,37617:0:0:0:0:
192,192,37259,1,2,0:0:0:0:
320,192,37259,1,0,0:0:0:0:
64,192,37402,1,8,0:0:0:0:
320,192,37402,1,0,0:0:0:0:
192,192,37474,1,8,0:0:0:0:
64,192,37545,1,8,0:0:0:0:
320,192,37617,1,8,0:0:0:0:
64,192,37688,1,2,0:0:0:0:
192,192,37688,1,4,0:0:0:0:
448,192,37688,1,0,0:0:0:0:
64,192,37831,1,2,0:0:0:0:
192,192,37831,1,0,0:0:0:0:
320,192,37902,1,0,0:0:0:0:
448,192,37974,1,0,0:0:0:0:
320,192,38117,1,2,0:0:0:0:
448,192,38117,1,0,0:0:0:0:
64,192,38259,1,2,0:0:0:0:
320,192,38259,1,8,0:0:0:0:
448,192,38259,1,0,0:0:0:0:
192,192,38331,1,0,0:0:0:0:
64,192,38402,1,0,0:0:0:0:
192,192,38545,1,2,0:0:0:0:
448,192,38545,1,0,0:0:0:0:
192,192,38688,1,2,0:0:0:0:
448,192,38688,1,0,0:0:0:0:
320,192,38759,1,0,0:0:0:0:
64,192,38831,1,0,0:0:0:0:
64,192,38974,1,2,0:0:0:0:
320,192,38974,1,0,0:0:0:0:
64,192,39117,1,8,0:0:0:0:
320,192,39117,1,2,0:0:0:0:
448,192,39117,1,0,0:0:0:0:
192,192,39188,1,0,0:0:0:0:
448,192,39259,1,0,0:0:0:0:
448,192,39402,128,0,39474:0:0:0:70:G#7S_Ab7S.wav
192,192,39545,128,0,39617:0:0:0:70:G7S.wav
320,192,39688,128,0,39759:0:0:0:70:D#7S_Eb7S.wav
64,192,39831,128,0,39902:0:0:0:70:G#6S_Ab6S.wav
64,192,39974,1,2,0:0:0:0:
192,192,39974,1,0,0:0:0:0:
64,192,40117,1,2,0:0:0:0:
192,192,40117,1,0,0:0:0:0:
320,192,40188,1,0,0:0:0:0:
192,192,40259,1,0,0:0:0:0:
320,192,40402,1,2,0:0:0:0:
448,192,40402,1,0,0:0:0:0:
64,192,40545,1,8,0:0:0:0:
320,192,40545,1,2,0:0:0:0:
448,192,40545,1,0,0:0:0:0:
192,192,40617,1,0,0:0:0:0:
64,192,40688,1,0,0:0:0:0:
192,192,40831,1,2,0:0:0:0:
448,192,40831,1,0,0:0:0:0:
192,192,40974,1,2,0:0:0:0:
448,192,40974,1,0,0:0:0:0:
320,192,41045,1,0,0:0:0:0:
448,192,41117,1,0,0:0:0:0:
64,192,41259,1,2,0:0:0:0:
320,192,41259,1,0,0:0:0:0:
64,192,41402,1,2,0:0:0:0:
320,192,41402,1,8,0:0:0:0:
448,192,41402,1,0,0:0:0:0:
192,192,41474,1,0,0:0:0:0:
320,192,41545,1,0,0:0:0:0:
64,192,41688,1,2,0:0:0:0:
192,192,41688,1,8,0:0:0:0:
448,192,41688,1,0,0:0:0:0:
320,192,41831,1,2,0:0:0:0:
448,192,41831,1,0,0:0:0:0:
64,192,41902,1,2,0:0:0:0:
192,192,41902,1,0,0:0:0:0:
64,192,41974,1,2,0:0:0:0:
320,192,41974,1,8,0:0:0:0:
448,192,41974,1,0,0:0:0:0:
192,192,42117,1,2,0:0:0:0:
320,192,42117,1,0,0:0:0:0:
64,192,42259,128,4,42402:0:0:0:0:
192,192,42259,128,2,42402:0:0:0:0:
448,192,42259,128,0,42545:0:0:0:0:
192,192,42545,1,2,0:0:0:0:
320,192,42545,1,0,0:0:0:0:
64,192,42688,128,4,42831:0:0:0:0:
320,192,42688,128,8,42974:0:0:0:0:
448,192,42688,128,0,42831:0:0:0:0:
64,192,42974,1,2,0:0:0:0:
192,192,42974,1,0,0:0:0:0:
192,192,43117,128,2,43402:0:0:0:0:
320,192,43117,128,4,43259:0:0:0:0:
448,192,43117,128,0,43259:0:0:0:0:
64,192,43402,1,2,0:0:0:0:
320,192,43474,1,2,0:0:0:0:
64,192,43545,128,8,43831:0:0:0:0:
192,192,43545,128,4,43688:0:0:0:0:
448,192,43545,1,0,0:0:0:0:
320,192,43688,1,2,0:0:0:0:
448,192,43688,1,0,0:0:0:0:
192,192,43831,1,2,0:0:0:0:
64,192,43974,128,8,44117:0:0:0:0:
192,192,43974,128,4,45688:0:0:0:0:
320,192,43974,128,0,44117:0:0:0:0:
320,192,45688,128,0,45974:0:0:0:0:
448,192,45688,1,0,0:0:0:0:
448,192,46117,128,0,46402:0:0:0:0:
192,192,46545,128,0,46831:0:0:0:0:
320,192,46831,128,4,46974:0:0:0:0:
448,192,46831,128,0,46974:0:0:0:70:D#6S_Eb6S.wav
64,192,46855,1,0,0:0:0:0:
64,192,47117,128,0,47188:0:0:0:0:
320,192,47259,128,0,47331:0:0:0:0:
192,192,47402,128,0,47474:0:0:0:70:G6S.wav
64,192,47426,1,0,0:0:0:0:
448,192,47545,128,0,47617:0:0:0:0:
192,192,47617,1,0,0:0:0:0:
320,192,47688,128,0,47759:0:0:0:0:
64,192,47759,1,0,0:0:0:0:
192,192,47831,128,0,47902:0:0:0:0:
320,192,47902,1,0,0:0:0:0:
64,192,47974,128,0,48117:0:0:0:70:G#6S_Ab6S.wav
448,192,47974,128,0,48117:0:0:0:0:
192,192,47997,1,0,0:0:0:0:
320,192,48259,128,0,48331:0:0:0:0:
192,192,48402,128,0,48474:0:0:0:0:
448,192,48545,128,0,48617:0:0:0:70:D#7S_Eb7S.wav
320,192,48569,1,0,0:0:0:0:
192,192,48688,128,0,48759:0:0:0:0:
320,192,48831,128,0,48902:0:0:0:0:
64,192,48974,128,0,49045:0:0:0:0:
192,192,49117,128,0,49259:0:0:0:70:G#7S_Ab7S.wav
448,192,49117,128,0,49259:0:0:0:0:
320,192,49140,1,0,0:0:0:0:
320,192,49402,128,0,49474:0:0:0:0:
64,192,49545,128,0,49617:0:0:0:0:
192,192,49688,128,0,49759:0:0:0:70:G7S.wav
320,192,49712,1,0,0:0:0:0:
64,192,49831,128,0,49902:0:0:0:0:
448,192,49902,1,0,0:0:0:0:
320,192,49974,128,0,50045:0:0:0:0:
192,192,50045,1,0,0:0:0:0:
448,192,50117,128,0,50188:0:0:0:0:
320,192,50188,1,0,0:0:0:0:
64,192,50259,128,0,50402:0:0:0:70:D#7S_Eb7S.wav
192,192,50259,128,0,50402:0:0:0:0:
448,192,50283,1,0,0:0:0:0:
320,192,50545,128,0,50617:0:0:0:0:
192,192,50688,128,0,50759:0:0:0:70:A#6S_Bb6S.wav
448,192,50712,1,0,0:0:0:0:
64,192,50831,128,0,50902:0:0:0:0:
448,192,50974,128,0,51045:0:0:0:0:
320,192,51117,128,0,51188:0:0:0:70:G#6S_Ab6S.wav
192,192,51140,1,0,0:0:0:0:
64,192,51259,128,0,51331:0:0:0:0:
192,192,51402,128,0,51545:0:0:0:70:D#6S_Eb6S.wav
320,192,51402,128,0,51545:0:0:0:0:
448,192,51426,1,0,0:0:0:0:
64,192,51688,128,0,51759:0:0:0:0:
320,192,51831,128,0,51902:0:0:0:0:
192,192,51974,128,0,52045:0:0:0:70:G6S.wav
64,192,51997,1,0,0:0:0:0:
448,192,52117,128,0,52188:0:0:0:0:
192,192,52188,1,0,0:0:0:0:
320,192,52259,128,0,52331:0:0:0:0:
64,192,52331,1,0,0:0:0:0:
192,192,52402,128,0,52474:0:0:0:0:
320,192,52474,1,0,0:0:0:0:
64,192,52545,128,0,52688:0:0:0:70:G#6S_Ab6S.wav
448,192,52545,128,0,52688:0:0:0:0:
192,192,52569,1,0,0:0:0:0:
320,192,52831,128,0,52902:0:0:0:0:
192,192,52974,128,0,53045:0:0:0:0:
448,192,53117,128,0,53188:0:0:0:70:D#7S_Eb7S.wav
320,192,53140,1,0,0:0:0:0:
192,192,53259,128,0,53331:0:0:0:0:
320,192,53402,128,0,53474:0:0:0:0:
64,192,53545,128,0,53617:0:0:0:0:
192,192,53688,128,0,53831:0:0:0:70:G#7S_Ab7S.wav
448,192,53688,128,0,53831:0:0:0:0:
320,192,53712,1,0,0:0:0:0:
320,192,53974,128,0,54045:0:0:0:0:
64,192,54117,128,0,54188:0:0:0:0:
192,192,54259,128,0,54331:0:0:0:70:G7S.wav
320,192,54283,1,0,0:0:0:0:
64,192,54402,128,0,54474:0:0:0:0:
448,192,54474,1,0,0:0:0:0:
320,192,54545,128,0,54617:0:0:0:0:
192,192,54617,1,0,0:0:0:0:
448,192,54688,128,0,54759:0:0:0:0:
320,192,54759,1,0,0:0:0:0:
64,192,54831,128,0,54974:0:0:0:70:D#7S_Eb7S.wav
192,192,54831,128,0,54974:0:0:0:0:
448,192,54855,1,0,0:0:0:0:
320,192,55117,128,0,55188:0:0:0:0:
192,192,55259,128,0,55331:0:0:0:70:A#7S_Bb7S.wav
64,192,55283,1,0,0:0:0:0:
448,192,55402,128,0,55474:0:0:0:0:
64,192,55545,128,0,55617:0:0:0:0:
192,192,55688,128,0,55759:0:0:0:70:C8S.wav
448,192,55712,1,0,0:0:0:0:
320,192,55831,128,0,55902:0:0:0:0:
192,192,55974,1,0,0:0:0:70:LR_TomSnare.wav
448,192,55974,128,0,56117:0:0:0:70:D#6S_Eb6S.wav
64,192,55997,128,0,56140:0:0:0:0:
320,192,56259,128,0,56331:0:0:0:70:LR_TomSnare.wav
448,192,56283,128,0,56402:0:0:0:0:
192,192,56402,128,0,56474:0:0:0:0:
64,192,56545,128,0,56617:0:0:0:70:LR_Hat Synth.wav
320,192,56688,128,0,56783:0:0:0:0:
64,192,56759,1,0,0:0:0:0:
192,192,56831,128,0,56902:0:0:0:0:
448,192,56855,128,0,56974:0:0:0:0:
320,192,56902,1,0,0:0:0:0:
64,192,56974,128,0,57045:0:0:0:70:LR_Hat Synth.wav
192,192,57045,1,0,0:0:0:0:
64,192,57117,1,0,0:0:0:70:LR_TomSnare.wav
320,192,57117,128,0,57259:0:0:0:70:G#6S_Ab6S.wav
448,192,57140,128,0,57283:0:0:0:0:
192,192,57259,1,0,0:0:0:70:LR_TomSnare.wav
320,192,57402,128,0,57474:0:0:0:70:LR_TomSnare.wav
64,192,57426,128,0,57545:0:0:0:0:
192,192,57545,128,0,57617:0:0:0:0:
448,192,57688,128,0,57759:0:0:0:70:LR_Hat Synth.wav
64,192,57831,128,0,57926:0:0:0:0:
192,192,57974,128,0,58045:0:0:0:0:
448,192,57997,128,0,58117:0:0:0:0:
320,192,58117,128,0,58188:0:0:0:0:
192,192,58259,128,0,58402:0:0:0:70:LR_TomSnare.wav
448,192,58259,1,0,0:0:0:70:G#7S_Ab7S.wav
64,192,58283,128,0,58426:0:0:0:0:
192,192,58545,128,0,58617:0:0:0:70:LR_TomSnare.wav
320,192,58569,128,0,58688:0:0:0:0:
64,192,58688,128,0,58759:0:0:0:0:
448,192,58831,128,0,58902:0:0:0:70:LR_Hat Synth.wav
192,192,58974,128,0,59069:0:0:0:0:
448,192,59045,1,0,0:0:0:0:
64,192,59117,128,0,59188:0:0:0:0:
320,192,59140,128,0,59259:0:0:0:0:
192,192,59188,1,0,0:0:0:0:
448,192,59259,128,0,59331:0:0:0:70:LR_Hat Synth.wav
64,192,59331,1,0,0:0:0:0:
320,192,59402,128,0,59545:0:0:0:70:D#7S_Eb7S.wav
448,192,59402,1,0,0:0:0:0:
192,192,59426,128,0,59569:0:0:0:0:
64,192,59545,1,0,0:0:0:70:LR_Hat Synth.wav
320,192,59688,128,0,59759:0:0:0:70:LR_TomSnare.wav
448,192,59712,128,0,59831:0:0:0:0:
64,192,59831,128,0,59902:0:0:0:70:A#6S_Bb6S.wav
192,192,59974,1,0,0:0:0:70:LR_Hat Synth.wav
320,192,60117,128,0,60188:0:0:0:0:
192,192,60188,128,0,60259:0:0:0:0:
320,192,60259,128,0,60331:0:0:0:70:G#6S_Ab6S.wav
448,192,60283,128,0,60402:0:0:0:0:
64,192,60402,128,0,60497:0:0:0:0:
320,192,60545,128,0,60688:0:0:0:70:LR_TomSnare.wav
448,192,60545,1,0,0:0:0:70:D#6S_Eb6S.wav
192,192,60569,128,0,60712:0:0:0:0:
64,192,60688,1,0,0:0:0:0:
320,192,60831,128,0,60902:0:0:0:70:LR_TomSnare.wav
448,192,60855,128,0,60974:0:0:0:0:
192,192,60974,128,0,61045:0:0:0:0:
448,192,61117,128,0,61188:0:0:0:70:LR_Hat Synth.wav
64,192,61259,128,0,61331:0:0:0:0:
320,192,61331,1,0,0:0:0:0:
192,192,61402,128,0,61474:0:0:0:0:
448,192,61426,128,0,61545:0:0:0:0:
64,192,61474,1,0,0:0:0:0:
320,192,61545,128,0,61617:0:0:0:70:LR_Hat Synth.wav
192,192,61617,1,0,0:0:0:0:
64,192,61688,128,0,61831:0:0:0:70:G#6S_Ab6S.wav
320,192,61688,1,0,0:0:0:0:
448,192,61712,128,0,61855:0:0:0:0:
192,192,61831,1,0,0:0:0:70:LR_TomSnare.wav
320,192,61974,128,0,62045:0:0:0:70:LR_TomSnare.wav
64,192,61997,128,0,62117:0:0:0:0:
192,192,62117,128,0,62188:0:0:0:0:
448,192,62259,128,0,62331:0:0:0:70:D#7S_Eb7S.wav
64,192,62402,128,0,62497:0:0:0:70:LR_TomSnare.wav
192,192,62545,128,0,62617:0:0:0:70:LR_TomSnare.wav
320,192,62569,128,0,62688:0:0:0:0:
64,192,62688,128,0,62759:0:0:0:0:
320,192,62831,128,0,62974:0:0:0:70:LR_TomSnare.wav
448,192,62831,1,0,0:0:0:70:G#7S_Ab7S.wav
192,192,62855,128,0,62997:0:0:0:0:
64,192,62974,1,0,0:0:0:0:
320,192,63117,128,0,63188:0:0:0:70:LR_TomSnare.wav
448,192,63140,128,0,63259:0:0:0:0:
192,192,63259,128,0,63355:0:0:0:0:
64,192,63402,128,0,63474:0:0:0:70:LR_Hat Synth.wav
320,192,63545,128,0,63640:0:0:0:0:
64,192,63617,1,0,0:0:0:0:
192,192,63688,128,0,63759:0:0:0:70:LR_Hat Synth.wav
448,192,63712,128,0,63831:0:0:0:0:
320,192,63759,1,0,0:0:0:0:
64,192,63831,128,0,63902:0:0:0:0:
192,192,63902,1,0,0:0:0:0:
64,192,63974,1,0,0:0:0:70:LR_TomSnare.wav
448,192,63974,128,0,64117:0:0:0:70:D#7S_Eb7S.wav
320,192,63997,128,0,64140:0:0:0:0:
192,192,64117,1,0,0:0:0:70:LR_Hat Synth.wav
448,192,64259,128,0,64688:0:0:0:70:LR_TomSnare.wav
64,192,64402,128,0,64688:0:0:0:70:A#7S_Bb7S.wav
192,192,64545,128,0,64974:0:0:0:70:LR_Hat Synth.wav
320,192,64688,128,0,64974:0:0:0:0:
64,192,64831,128,0,64974:0:0:0:70:C8S.wav
448,192,64974,128,0,65402:0:0:0:0:
64,192,65117,128,2,65974:0:0:0:0:
192,192,65117,128,4,66545:0:0:0:0:
320,192,65117,128,0,68259:0:0:0:0:
448,192,65688,128,0,67117:0:0:0:0:
64,192,66259,128,0,67688:0:0:0:0:
192,192,66831,128,0,68688:0:0:0:0:
448,192,67402,128,0,69117:0:0:0:0:
64,192,67974,128,0,70545:0:0:0:0:
320,192,68545,128,0,69402:0:0:0:0:
192,192,68974,128,0,71117:0:0:0:0:
448,192,69402,128,0,69974:0:0:0:0:
320,192,69688,128,0,73259:0:0:0:0:
448,192,70259,128,0,71688:0:0:0:0:
64,192,70831,128,0,72259:0:0:0:0:
192,192,71402,128,0,72831:0:0:0:0:
448,192,71974,128,0,73688:0:0:0:0:
64,192,72545,128,0,74117:0:0:0:0:
192,192,73117,128,0,74117:0:0:0:0:
320,192,73545,128,0,74117:0:0:0:0:
448,192,73974,128,0,75688:0:0:0:0:
64,192,74259,128,8,75117:0:0:0:0:
192,192,74259,128,0,76831:0:0:0:0:
320,192,74259,128,0,74545:0:0:0:0:
320,192,74831,128,0,76259:0:0:0:0:
64,192,75402,128,0,77831:0:0:0:0:
448,192,75974,128,0,78259:0:0:0:0:
320,192,76545,128,0,77402:0:0:0:0:
192,192,77117,128,0,78688:0:0:0:0:
320,192,77688,128,0,78688:0:0:0:0:
64,192,78117,128,0,78688:0:0:0:0:
448,192,78545,128,0,78831:0:0:0:0:
64,192,78831,128,8,78878:0:0:0:0:
192,192,78831,128,0,78902:0:0:0:70:G#5S_Ab5S.wav
320,192,78831,1,0,0:0:0:70:G#6S_Ab6S.wav
448,192,78974,128,0,79021:0:0:0:70:G5S.wav
320,192,79117,128,0,79164:0:0:0:70:D#5S_Eb5S.wav
192,192,79259,128,0,79307:0:0:0:70:A#4S_Bb4S.wav
320,192,79402,128,0,79474:0:0:0:70:G#5S_Ab5S.wav
448,192,79402,128,0,79450:0:0:0:70:A#6S_Bb6S.wav
64,192,79545,128,0,79593:0:0:0:70:G5S.wav
192,192,79688,128,0,79736:0:0:0:70:D#5S_Eb5S.wav
320,192,79831,128,0,79878:0:0:0:70:A#4S_Bb4S.wav
64,192,79974,128,0,80045:0:0:0:70:G#5S_Ab5S.wav
192,192,79974,128,0,80069:0:0:0:70:C7S.wav
448,192,80117,128,0,80188:0:0:0:70:G5S.wav
320,192,80259,128,0,80331:0:0:0:70:D#5S_Eb5S.wav
192,192,80402,128,0,80474:0:0:0:70:A#4S_Bb4S.wav
320,192,80545,128,0,80640:0:0:0:70:G#5S_Ab5S.wav
448,192,80545,128,0,80617:0:0:0:70:D#7S_Eb7S.wav
64,192,80688,128,0,80759:0:0:0:70:G5S.wav
192,192,80831,128,0,80902:0:0:0:70:D#5S_Eb5S.wav
320,192,80974,128,0,81045:0:0:0:70:A#4S_Bb4S.wav
64,192,81117,128,2,81212:0:0:0:0:
192,192,81117,128,0,81236:0:0:0:70:G#5S_Ab5S.wav
448,192,81259,128,0,81355:0:0:0:70:G5S.wav
320,192,81402,128,0,81497:0:0:0:70:D#5S_Eb5S.wav
192,192,81545,128,0,81640:0:0:0:70:A#4S_Bb4S.wav
320,192,81688,128,2,81807:0:0:0:0:
448,192,81688,128,0,81783:0:0:0:70:G#5S_Ab5S.wav
64,192,81831,128,0,81926:0:0:0:70:G5S.wav
192,192,81974,128,0,82069:0:0:0:70:D#5S_Eb5S.wav
320,192,82117,128,0,82212:0:0:0:70:A#4S_Bb4S.wav
64,192,82259,1,2,0:0:0:0:
192,192,82259,1,0,0:0:0:70:hp_clear.wav
448,192,82259,1,0,0:0:0:0:
448,192,82402,1,0,0:0:0:0:
320,192,82474,1,0,0:0:0:0:
64,192,82545,128,0,82617:0:0:0:0:
192,192,82617,128,0,82688:0:0:0:0:
320,192,82688,128,0,82759:0:0:0:0:
448,192,82759,128,0,82831:0:0:0:0:
192,192,82831,128,0,82974:0:0:0:0:
64,192,82902,1,0,0:0:0:0:
320,192,82974,128,0,83117:0:0:0:0:
448,192,83045,1,0,0:0:0:0:
64,192,83117,128,0,83188:0:0:0:0:
192,192,83188,1,0,0:0:0:0:
64,192,83259,1,2,0:0:0:0:
320,192,83259,128,4,83545:0:0:0:0:
448,192,83259,128,0,83617:0:0:0:0:
64,192,83545,1,2,0:0:0:0:
192,192,83545,1,0,0:0:0:0:
320,192,83617,1,0,0:0:0:0:
192,192,83688,128,2,83831:0:0:0:0:
448,192,83688,1,0,0:0:0:0:
64,192,83831,1,0,0:0:0:0:
192,192,83902,1,0,0:0:0:0:
64,192,83974,1,8,0:0:0:0:
320,192,83974,1,0,0:0:0:0:
448,192,83974,1,0,0:0:0:0:
192,192,84117,1,2,0:0:0:0:
320,192,84117,1,0,0:0:0:0:
64,192,84259,1,8,0:0:0:0:
192,192,84259,1,0,0:0:0:0:
448,192,84259,1,0,0:0:0:0:
320,192,84402,128,2,84688:0:0:0:0:
448,192,84402,128,0,84759:0:0:0:0:
64,192,84688,1,2,0:0:0:0:
192,192,84688,1,0,0:0:0:0:
320,192,84759,1,0,0:0:0:0:
192,192,84831,1,2,0:0:0:0:
448,192,84831,128,0,84974:0:0:0:0:
64,192,84974,128,0,85117:0:0:0:0:
192,192,85117,1,8,0:0:0:0:
320,192,85117,128,0,85259:0:0:0:0:
448,192,85117,1,0,0:0:0:0:
64,192,85259,1,2,0:0:0:0:
192,192,85259,1,0,0:0:0:0:
320,192,85331,1,2,0:0:0:0:
64,192,85402,1,8,0:0:0:0:
192,192,85402,1,0,0:0:0:0:
448,192,85402,1,0,0:0:0:0:
64,192,85545,128,2,85902:0:0:0:0:
320,192,85545,128,0,85831:0:0:0:0:
192,192,85831,1,2,0:0:0:0:
448,192,85831,1,0,0:0:0:0:
320,192,85902,1,0,0:0:0:0:
64,192,85974,1,2,0:0:0:0:
192,192,85974,128,0,86117:0:0:0:0:
64,192,86117,128,0,86259:0:0:0:0:
192,192,86259,1,8,0:0:0:0:
320,192,86259,128,0,86402:0:0:0:0:
448,192,86259,128,0,86402:0:0:0:0:
64,192,86402,1,2,0:0:0:0:
192,192,86402,1,0,0:0:0:0:
64,192,86545,1,8,0:0:0:0:
320,192,86545,1,0,0:0:0:0:
448,192,86545,128,0,86688:0:0:0:0:
192,192,86688,128,2,86974:0:0:0:0:
320,192,86688,128,0,87045:0:0:0:0:
64,192,86974,1,2,0:0:0:0:
448,192,86974,1,0,0:0:0:0:
192,192,87045,1,2,0:0:0:0:
64,192,87117,1,8,0:0:0:0:
320,192,87117,1,0,0:0:0:0:
448,192,87117,1,0,0:0:0:0:
192,192,87259,1,2,0:0:0:0:
320,192,87259,1,0,0:0:0:0:
64,192,87402,1,8,0:0:0:0:
192,192,87402,1,0,0:0:0:0:
448,192,87402,1,0,0:0:0:0:
320,192,87545,1,2,0:0:0:0:
448,192,87545,1,0,0:0:0:0:
192,192,87617,1,2,0:0:0:0:
64,192,87688,1,8,0:0:0:0:
320,192,87688,1,0,0:0:0:0:
448,192,87688,1,0,0:0:0:0:
64,192,87831,128,2,88188:0:0:0:0:
192,192,87831,128,0,88117:0:0:0:0:
320,192,88117,1,2,0:0:0:0:
448,192,88117,1,0,0:0:0:0:
192,192,88188,1,0,0:0:0:0:
64,192,88259,1,2,0:0:0:0:
320,192,88259,128,0,88402:0:0:0:0:
448,192,88402,1,0,0:0:0:0:
320,192,88474,1,0,0:0:0:0:
64,192,88545,1,8,0:0:0:0:
192,192,88545,1,0,0:0:0:0:
448,192,88545,1,0,0:0:0:0:
192,192,88688,1,2,0:0:0:0:
320,192,88688,1,0,0:0:0:0:
64,192,88831,1,8,0:0:0:0:
320,192,88831,1,0,0:0:0:0:
448,192,88831,1,0,0:0:0:0:
192,192,88974,128,2,89259:0:0:0:0:
448,192,88974,128,0,89331:0:0:0:0:
64,192,89259,1,2,0:0:0:0:
320,192,89259,1,0,0:0:0:0:
192,192,89331,1,0,0:0:0:0:
320,192,89402,1,2,0:0:0:0:
448,192,89402,1,0,0:0:0:0:
64,192,89545,1,2,0:0:0:0:
192,192,89545,1,0,0:0:0:0:
64,192,89688,1,8,0:0:0:0:
192,192,89688,128,0,89831:0:0:0:70:D#6S_Eb6S.wav
448,192,89688,1,0,0:0:0:0:
320,192,89831,128,2,89902:0:0:0:0:
448,192,89831,1,0,0:0:0:70:D#6S_Eb6S.wav
192,192,89902,128,2,89974:0:0:0:0:
64,192,89974,1,8,0:0:0:0:
320,192,89974,128,0,90117:0:0:0:70:D#6S_Eb6S.wav
448,192,89974,1,0,0:0:0:0:
64,192,90117,128,2,90474:0:0:0:0:
192,192,90117,128,0,90402:0:0:0:0:
320,192,90402,1,2,0:0:0:0:
448,192,90402,1,0,0:0:0:0:
192,192,90474,1,2,0:0:0:0:
64,192,90545,1,8,0:0:0:0:
320,192,90545,128,0,90688:0:0:0:0:
448,192,90545,1,0,0:0:0:0:
64,192,90688,1,2,0:0:0:0:
192,192,90688,1,0,0:0:0:0:
192,192,90831,1,8,0:0:0:0:
320,192,90831,1,0,0:0:0:0:
448,192,90831,128,0,90974:0:0:0:0:
64,192,90974,1,2,0:0:0:0:
320,192,90974,1,0,0:0:0:0:
64,192,91117,128,2,91259:0:0:0:0:
192,192,91117,1,0,0:0:0:0:
192,192,91259,128,8,91617:0:0:0:0:
320,192,91259,128,0,91545:0:0:0:0:
448,192,91259,1,0,0:0:0:0:
64,192,91545,1,2,0:0:0:0:
448,192,91545,1,0,0:0:0:0:
320,192,91617,1,2,0:0:0:0:
64,192,91688,1,8,0:0:0:0:
192,192,91688,1,0,0:0:0:0:
448,192,91688,1,0,0:0:0:0:
320,192,91759,1,8,0:0:0:0:
64,192,91831,1,2,0:0:0:0:
192,192,91902,1,2,0:0:0:0:
64,192,91974,1,8,0:0:0:0:
320,192,91974,1,0,0:0:0:0:
448,192,91974,1,0,0:0:0:0:
192,192,92117,1,8,0:0:0:0:
320,192,92117,1,0,0:0:0:0:
448,192,92117,1,0,0:0:0:0:
64,192,92259,1,8,0:0:0:0:
192,192,92259,1,0,0:0:0:0:
448,192,92259,1,0,0:0:0:0:
64,192,92402,128,2,92759:0:0:0:0:
192,192,92402,128,4,92688:0:0:0:0:
320,192,92402,1,0,0:0:0:0:
448,192,92402,1,0,0:0:0:0:
320,192,92688,1,2,0:0:0:0:
448,192,92688,1,0,0:0:0:0:
192,192,92759,1,0,0:0:0:0:
64,192,92831,1,2,0:0:0:0:
320,192,92831,128,0,92974:0:0:0:0:
448,192,92974,1,0,0:0:0:0:
320,192,93045,1,0,0:0:0:0:
64,192,93117,1,8,0:0:0:0:
192,192,93117,1,0,0:0:0:0:
448,192,93117,1,0,0:0:0:0:
192,192,93259,1,2,0:0:0:0:
320,192,93259,1,0,0:0:0:0:
64,192,93402,1,8,0:0:0:0:
320,192,93402,1,0,0:0:0:0:
448,192,93402,1,0,0:0:0:0:
192,192,93545,128,2,93831:0:0:0:0:
448,192,93545,128,0,93902:0:0:0:0:
64,192,93831,1,2,0:0:0:0:
320,192,93831,1,0,0:0:0:0:
192,192,93902,1,0,0:0:0:0:
320,192,93974,128,2,94117:0:0:0:0:
448,192,93974,1,0,0:0:0:0:
64,192,94117,128,2,94259:0:0:0:0:
192,192,94259,1,8,0:0:0:0:
320,192,94259,1,0,0:0:0:0:
448,192,94259,1,0,0:0:0:0:
64,192,94331,1,2,0:0:0:0:
320,192,94402,1,2,0:0:0:0:
192,192,94474,1,2,0:0:0:0:
64,192,94545,1,8,0:0:0:0:
320,192,94545,1,0,0:0:0:0:
448,192,94545,1,0,0:0:0:0:
64,192,94688,128,2,95045:0:0:0:0:
192,192,94688,128,0,94974:0:0:0:0:
320,192,94974,1,2,0:0:0:0:
448,192,94974,1,0,0:0:0:0:
192,192,95045,1,0,0:0:0:0:
64,192,95117,1,2,0:0:0:0:
448,192,95117,1,0,0:0:0:0:
320,192,95152,1,0,0:0:0:0:
192,192,95188,1,0,0:0:0:0:
448,192,95259,128,0,95402:0:0:0:0:
64,192,95402,128,8,95545:0:0:0:0:
192,192,95402,128,0,95545:0:0:0:0:
320,192,95402,1,0,0:0:0:0:
320,192,95545,1,2,0:0:0:0:
448,192,95545,1,0,0:0:0:0:
64,192,95688,1,8,0:0:0:0:
192,192,95688,1,0,0:0:0:0:
448,192,95688,128,0,95831:0:0:0:0:
192,192,95831,128,2,96117:0:0:0:0:
320,192,95831,128,0,96188:0:0:0:0:
64,192,96117,1,2,0:0:0:0:
448,192,96117,1,0,0:0:0:0:
192,192,96188,1,2,0:0:0:0:
64,192,96259,1,8,0:0:0:0:
320,192,96259,1,0,0:0:0:0:
448,192,96259,1,0,0:0:0:0:
64,192,96402,1,2,0:0:0:0:
192,192,96402,1,0,0:0:0:0:
192,192,96545,1,8,0:0:0:0:
320,192,96545,1,0,0:0:0:0:
448,192,96545,128,0,96688:0:0:0:0:
64,192,96688,1,2,0:0:0:0:
320,192,96688,1,0,0:0:0:0:
192,192,96759,1,2,0:0:0:0:
64,192,96831,128,8,96974:0:0:0:0:
320,192,96831,1,0,0:0:0:0:
448,192,96831,1,0,0:0:0:0:
192,192,96974,1,4,0:0:0:0:
320,192,96974,128,2,97259:0:0:0:0:
448,192,96974,128,0,97117:0:0:0:0:
64,192,97117,128,0,97402:0:0:0:0:
192,192,97259,128,2,97402:0:0:0:0:
448,192,97259,1,0,0:0:0:0:
320,192,97402,1,2,0:0:0:0:
448,192,97402,1,0,0:0:0:0:
192,192,97474,1,0,0:0:0:0:
64,192,97545,1,0,0:0:0:0:
320,192,97617,1,0,0:0:0:0:
64,192,97688,1,8,0:0:0:0:
192,192,97688,1,0,0:0:0:0:
448,192,97688,128,0,97831:0:0:0:0:
192,192,97831,1,2,0:0:0:0:
320,192,97831,1,0,0:0:0:0:
64,192,97974,128,8,98117:0:0:0:0:
320,192,97974,1,0,0:0:0:0:
448,192,97974,1,0,0:0:0:0:
192,192,98117,1,2,0:0:0:0:
320,192,98117,128,4,98402:0:0:0:0:
448,192,98117,128,0,98259:0:0:0:0:
64,192,98259,128,0,98545:0:0:0:0:
192,192,98402,128,2,98545:0:0:0:0:
448,192,98402,1,0,0:0:0:0:
320,192,98545,1,2,0:0:0:0:
448,192,98545,1,0,0:0:0:0:
192,192,98617,1,0,0:0:0:0:
64,192,98688,1,0,0:0:0:0:
448,192,98759,1,0,0:0:0:0:
64,192,98831,1,8,0:0:0:0:
192,192,98831,1,0,0:0:0:0:
320,192,98831,128,0,98974:0:0:0:0:
192,192,98974,1,2,0:0:0:0:
448,192,98974,1,0,0:0:0:0:
64,192,99117,1,8,0:0:0:0:
320,192,99117,1,0,0:0:0:0:
448,192,99117,1,0,0:0:0:0:
64,192,99259,1,2,0:0:0:0:
192,192,99259,128,4,99402:0:0:0:0:
320,192,99259,128,0,99545:0:0:0:0:
448,192,99402,128,0,99545:0:0:0:0:
64,192,99545,1,2,0:0:0:0:
192,192,99545,1,0,0:0:0:0:
320,192,99617,1,2,0:0:0:0:
64,192,99688,1,8,0:0:0:0:
192,192,99688,1,0,0:0:0:0:
448,192,99688,1,0,0:0:0:0:
320,192,99759,1,0,0:0:0:0:
192,192,99831,1,2,0:0:0:0:
64,192,99902,1,0,0:0:0:0:
320,192,99974,1,8,0:0:0:0:
448,192,99974,1,0,0:0:0:0:
64,192,100045,1,8,0:0:0:0:
192,192,100045,1,0,0:0:0:0:
320,192,100117,1,2,0:0:0:0:
448,192,100188,1,2,0:0:0:0:
192,192,100259,1,2,0:0:0:0:
320,192,100331,1,0,0:0:0:0:
64,192,100402,128,8,100545:0:0:0:0:
192,192,100402,1,0,0:0:0:0:
448,192,100402,128,0,100545:0:0:0:0:
320,192,100545,1,0,0:0:0:0:
192,192,100617,1,0,0:0:0:0:
64,192,100688,1,2,0:0:0:0:
448,192,100688,1,0,0:0:0:0:
320,192,100759,1,2,0:0:0:0:
64,192,100831,1,8,0:0:0:0:
192,192,100831,1,0,0:0:0:0:
320,192,100902,1,8,0:0:0:0:
448,192,100902,1,0,0:0:0:0:
64,192,100974,1,2,0:0:0:0:
192,192,101045,1,2,0:0:0:0:
320,192,101117,1,8,0:0:0:0:
448,192,101117,1,0,0:0:0:70:G#6S_Ab6S.wav
192,192,101259,1,8,0:0:0:0:
448,192,101259,1,0,0:0:0:70:D#6S_Eb6S.wav
64,192,101402,1,8,0:0:0:0:
192,192,101402,1,0,0:0:0:70:G#5S_Ab5S.wav
64,192,101545,1,2,0:0:0:0:
320,192,101545,128,4,101688:0:0:0:0:
448,192,101545,128,0,101831:0:0:0:70:A#6S_Bb6S.wav
192,192,101688,128,0,101974:0:0:0:70:G#6S_Ab6S.wav
64,192,101831,128,0,102117:0:0:0:70:D#6S_Eb6S.wav
320,192,101974,128,0,102259:0:0:0:70:G#5S_Ab5S.wav
192,192,102117,128,0,102402:0:0:0:70:D#6S_Eb6S.wav
64,192,102259,128,0,102402:0:0:0:70:C7S.wav
448,192,102259,128,0,102545:0:0:0:0:
320,192,102402,128,0,102688:0:0:0:70:D#6S_Eb6S.wav
64,192,102545,128,0,102831:0:0:0:70:G#5S_Ab5S.wav
192,192,102688,128,0,102831:0:0:0:70:D#7S_Eb7S.wav
448,192,102688,128,0,102974:0:0:0:0:
320,192,102831,128,0,103117:0:0:0:70:G#6S_Ab6S.wav
64,192,102974,128,0,103259:0:0:0:70:D#6S_Eb6S.wav
192,192,103117,128,0,103259:0:0:0:70:A#5S_Bb5S.wav
320,192,103259,128,0,103402:0:0:0:70:D#6S_Eb6S.wav
64,192,103402,1,8,0:0:0:0:
192,192,103402,1,0,0:0:0:0:
448,192,103402,1,0,0:0:0:0:
192,192,103545,1,8,0:0:0:0:
320,192,103545,1,0,0:0:0:0:
448,192,103545,1,0,0:0:0:0:
64,192,103688,1,8,0:0:0:0:
320,192,103688,1,0,0:0:0:0:
448,192,103688,1,0,0:0:0:0:
64,192,103831,128,4,104045:0:0:0:0:
192,192,103831,128,2,103974:0:0:0:0:
320,192,103831,1,0,0:0:0:0:
448,192,103974,1,0,0:0:0:0:
320,192,104045,1,0,0:0:0:0:
64,192,104117,1,2,0:0:0:0:
192,192,104117,1,0,0:0:0:0:
448,192,104188,1,0,0:0:0:0:
64,192,104259,1,8,0:0:0:0:
192,192,104259,1,0,0:0:0:0:
320,192,104259,1,0,0:0:0:0:
448,192,104331,1,0,0:0:0:0:
320,192,104402,1,2,0:0:0:0:
64,192,104474,1,0,0:0:0:0:
192,192,104545,1,0,0:0:0:0:
320,192,104617,1,0,0:0:0:0:
64,192,104688,1,2,0:0:0:0:
448,192,104688,1,0,0:0:0:0:
192,192,104759,1,0,0:0:0:0:
64,192,104831,1,8,0:0:0:0:
320,192,104831,1,0,0:0:0:0:
448,192,104831,1,0,0:0:0:0:
192,192,104902,1,0,0:0:0:0:
320,192,104974,128,2,105117:0:0:0:0:
192,192,105117,1,0,0:0:0:0:
64,192,105188,1,0,0:0:0:0:
448,192,105259,1,0,0:0:0:0:
192,192,105331,1,2,0:0:0:0:
320,192,105331,1,0,0:0:0:0:
64,192,105402,1,8,0:0:0:0:
448,192,105402,1,0,0:0:0:0:
320,192,105474,1,0,0:0:0:0:
64,192,105545,1,2,0:0:0:0:
192,192,105545,1,0,0:0:0:0:
64,192,105688,1,8,0:0:0:0:
320,192,105688,1,0,0:0:0:0:
448,192,105688,1,0,0:0:0:0:
192,192,105759,1,0,0:0:0:0:
320,192,105831,1,2,0:0:0:0:
448,192,105902,1,0,0:0:0:0:
64,192,105974,1,8,0:0:0:0:
192,192,105974,1,0,0:0:0:0:
320,192,105974,1,0,0:0:0:0:
64,192,106117,128,2,106331:0:0:0:0:
192,192,106117,128,4,106259:0:0:0:0:
448,192,106117,1,0,0:0:0:0:
320,192,106331,1,0,0:0:0:0:
64,192,106402,1,2,0:0:0:0:
192,192,106402,1,0,0:0:0:0:
448,192,106474,1,0,0:0:0:0:
64,192,106545,1,8,0:0:0:0:
192,192,106545,128,0,106831:0:0:0:0:
320,192,106545,1,0,0:0:0:0:
320,192,106688,128,0,106831:0:0:0:0:
64,192,106831,1,2,0:0:0:0:
448,192,106831,1,0,0:0:0:0:
320,192,106974,1,2,0:0:0:0:
448,192,106974,1,0,0:0:0:0:
64,192,107117,1,8,0:0:0:0:
192,192,107117,1,0,0:0:0:0:
320,192,107117,1,0,0:0:0:0:
320,192,107259,128,2,107402:0:0:0:0:
448,192,107259,128,0,107474:0:0:0:0:
64,192,107402,1,0,0:0:0:0:
192,192,107474,1,0,0:0:0:0:
448,192,107545,1,0,0:0:0:0:
192,192,107617,1,2,0:0:0:0:
320,192,107617,1,0,0:0:0:0:
64,192,107688,1,8,0:0:0:0:
448,192,107688,1,0,0:0:0:0:
192,192,107831,1,2,0:0:0:0:
320,192,107831,1,0,0:0:0:0:
64,192,107974,1,8,0:0:0:0:
320,192,107974,1,0,0:0:0:0:
448,192,107974,1,0,0:0:0:0:
64,192,108117,1,2,0:0:0:0:
192,192,108117,1,0,0:0:0:0:
192,192,108259,1,8,0:0:0:0:
320,192,108259,1,0,0:0:0:0:
448,192,108259,128,0,108402:0:0:0:0:
64,192,108402,1,2,0:0:0:0:
192,192,108402,128,4,108617:0:0:0:0:
320,192,108402,128,0,108545:0:0:0:0:
448,192,108545,1,0,0:0:0:0:
64,192,108617,1,0,0:0:0:0:
448,192,108688,1,0,0:0:0:0:
192,192,108759,1,2,0:0:0:0:
320,192,108759,1,0,0:0:0:0:
64,192,108831,1,8,0:0:0:0:
448,192,108831,1,0,0:0:0:0:
320,192,108902,1,0,0:0:0:0:
64,192,108974,1,2,0:0:0:0:
192,192,108974,1,0,0:0:0:0:
64,192,109117,128,4,109259:0:0:0:0:
320,192,109117,1,8,0:0:0:0:
448,192,109117,128,0,109331:0:0:0:0:
192,192,109259,1,0,0:0:0:0:
320,192,109331,1,0,0:0:0:0:
64,192,109402,1,2,0:0:0:0:
192,192,109402,1,0,0:0:0:0:
64,192,109545,1,8,0:0:0:0:
320,192,109545,1,4,0:0:0:0:
448,192,109545,1,0,0:0:0:0:
192,192,109617,1,0,0:0:0:0:
320,192,109688,1,0,0:0:0:0:
64,192,109759,1,0,0:0:0:0:
192,192,109831,1,2,0:0:0:0:
448,192,109831,1,0,0:0:0:0:
320,192,109902,1,0,0:0:0:0:
64,192,109974,1,8,0:0:0:0:
192,192,109974,1,4,0:0:0:0:
448,192,109974,1,0,0:0:0:0:
320,192,110045,1,0,0:0:0:0:
64,192,110117,1,2,0:0:0:0:
192,192,110188,1,2,0:0:0:0:
64,192,110259,1,8,0:0:0:0:
320,192,110259,128,0,110331:0:0:0:70:D#5S_Eb5S.wav
448,192,110259,1,0,0:0:0:0:
64,192,110402,1,8,0:0:0:0:
320,192,110402,128,0,110474:0:0:0:70:D#5S_Eb5S.wav
448,192,110402,1,0,0:0:0:0:
64,192,110545,1,8,0:0:0:0:
320,192,110545,128,0,110617:0:0:0:70:D#5S_Eb5S.wav
448,192,110545,1,0,0:0:0:0:
64,192,110688,128,2,110902:0:0:0:0:
192,192,110688,128,4,110831:0:0:0:0:
320,192,110688,1,0,0:0:0:0:
448,192,110831,1,0,0:0:0:0:
320,192,110902,1,0,0:0:0:0:
64,192,110974,1,2,0:0:0:0:
192,192,110974,1,0,0:0:0:0:
64,192,111117,1,8,0:0:0:0:
320,192,111117,1,0,0:0:0:0:
448,192,111117,1,0,0:0:0:0:
192,192,111188,1,0,0:0:0:0:
320,192,111259,1,2,0:0:0:0:
448,192,111259,1,0,0:0:0:0:
192,192,111331,1,0,0:0:0:0:
64,192,111402,1,0,0:0:0:0:
320,192,111474,1,0,0:0:0:0:
64,192,111545,1,2,0:0:0:0:
448,192,111545,1,0,0:0:0:0:
192,192,111617,1,0,0:0:0:0:
64,192,111688,1,8,0:0:0:0:
320,192,111688,1,0,0:0:0:0:
448,192,111688,1,0,0:0:0:0:
192,192,111831,128,2,111974:0:0:0:0:
320,192,111831,128,0,111974:0:0:0:0:
64,192,111974,1,0,0:0:0:0:
448,192,112045,1,0,0:0:0:0:
320,192,112117,1,0,0:0:0:0:
64,192,112188,1,2,0:0:0:0:
192,192,112188,1,0,0:0:0:0:
320,192,112259,1,8,0:0:0:0:
448,192,112259,1,0,0:0:0:0:
64,192,112402,1,2,0:0:0:0:
448,192,112402,1,0,0:0:0:0:
192,192,112474,1,0,0:0:0:0:
320,192,112545,1,0,0:0:0:0:
64,192,112617,1,0,0:0:0:0:
192,192,112688,1,2,0:0:0:0:
448,192,112688,1,0,0:0:0:0:
320,192,112759,1,0,0:0:0:0:
192,192,112831,128,2,112974:0:0:0:0:
64,192,112974,1,8,0:0:0:0:
320,192,112974,128,4,113117:0:0:0:0:
448,192,112974,128,0,113117:0:0:0:0:
192,192,113117,1,0,0:0:0:0:
64,192,113188,1,0,0:0:0:0:
320,192,113259,1,2,0:0:0:0:
448,192,113259,1,0,0:0:0:0:
64,192,113331,1,2,0:0:0:0:
192,192,113331,1,0,0:0:0:0:
448,192,113402,1,2,0:0:0:0:
320,192,113474,1,0,0:0:0:0:
64,192,113545,1,8,0:0:0:0:
192,192,113545,1,0,0:0:0:0:
448,192,113545,1,0,0:0:0:0:
64,192,113688,1,2,0:0:0:0:
320,192,113688,1,0,0:0:0:0:
192,192,113759,1,2,0:0:0:0:
64,192,113831,1,8,0:0:0:0:
320,192,113831,1,0,0:0:0:0:
448,192,113831,1,0,0:0:0:0:
192,192,113974,1,2,0:0:0:0:
448,192,113974,128,0,114117:0:0:0:0:
64,192,114117,1,8,0:0:0:0:
192,192,114117,128,4,114259:0:0:0:0:
320,192,114117,128,0,114259:0:0:0:0:
448,192,114259,1,0,0:0:0:0:
64,192,114331,1,0,0:0:0:0:
192,192,114402,1,2,0:0:0:0:
320,192,114402,1,0,0:0:0:0:
448,192,114474,1,2,0:0:0:0:
64,192,114545,1,8,0:0:0:0:
192,192,114545,1,0,0:0:0:0:
320,192,114617,1,8,0:0:0:0:
448,192,114617,1,0,0:0:0:0:
64,192,114688,1,2,0:0:0:0:
192,192,114688,1,0,0:0:0:0:
320,192,114759,1,2,0:0:0:0:
64,192,114831,1,8,0:0:0:0:
192,192,114831,1,0,0:0:0:0:
448,192,114831,1,0,0:0:0:0:
64,192,114974,1,8,0:0:0:0:
320,192,114974,1,0,0:0:0:0:
448,192,114974,1,0,0:0:0:0:
64,192,115117,1,8,0:0:0:0:
192,192,115117,1,0,0:0:0:0:
320,192,115117,1,0,0:0:0:0:
192,192,115259,1,8,0:0:0:0:
320,192,115259,1,0,0:0:0:0:
448,192,115259,1,0,0:0:0:0:
64,192,115402,1,2,0:0:0:0:
192,192,115402,1,4,0:0:0:0:
320,192,115402,128,0,116117:0:0:0:70:A#6S_Bb6S.wav
448,192,115402,1,0,0:0:0:0:
64,192,115545,128,0,115831:0:0:0:70:G#6S_Ab6S.wav
192,192,115688,128,0,115974:0:0:0:70:D#6S_Eb6S.wav
448,192,115831,128,0,116259:0:0:0:70:A#5S_Bb5S.wav
64,192,115974,1,0,0:0:0:70:G#5S_Ab5S.wav
192,192,116117,1,0,0:0:0:70:D#6S_Eb6S.wav
320,192,116259,1,0,0:0:0:70:D#6S_Eb6S.wav
448,192,116402,128,0,117259:0:0:0:70:A#6S_Bb6S.wav
320,192,116688,128,0,116974:0:0:0:70:G6S.wav
192,192,116831,128,0,117117:0:0:0:70:D#6S_Eb6S.wav
64,192,116974,128,0,117259:0:0:0:70:A#5S_Bb5S.wav
320,192,117117,128,0,117402:0:0:0:70:G#5S_Ab5S.wav
192,192,117259,1,0,0:0:0:70:D#6S_Eb6S.wav
448,192,117402,1,0,0:0:0:70:C7S.wav
320,192,117545,128,0,118117:0:0:0:70:A#6S_Bb6S.wav
448,192,117831,128,0,118545:0:0:0:70:G#6S_Ab6S.wav
192,192,117974,128,0,118259:0:0:0:70:D#6S_Eb6S.wav
64,192,118117,128,0,118402:0:0:0:70:A#5S_Bb5S.wav
320,192,118259,128,0,118402:0:0:0:70:C6S.wav
192,192,118402,1,0,0:0:0:70:D#6S_Eb6S.wav
320,192,118545,1,0,0:0:0:70:G#6S_Ab6S.wav
448,192,118688,128,0,119402:0:0:0:70:A#6S_Bb6S.wav
64,192,118974,128,0,119402:0:0:0:0:
320,192,119402,128,0,119545:0:0:0:0:
320,192,119617,1,0,0:0:0:0:
192,192,119688,128,0,119974:0:0:0:0:
64,192,119974,1,2,0:0:0:0:
320,192,119974,1,0,0:0:0:0:
448,192,119974,1,0,0:0:0:0:
192,192,120117,1,2,0:0:0:0:
320,192,120117,1,0,0:0:0:0:
64,192,120259,1,2,0:0:0:0:
192,192,120259,1,0,0:0:0:0:
64,192,120402,1,2,0:0:0:0:
320,192,120402,1,0,0:0:0:0:
192,192,120545,1,0,0:0:0:0:
448,192,120688,1,0,0:0:0:0:
64,192,120831,1,2,0:0:0:0:
192,192,120831,1,0,0:0:0:0:
320,192,120974,1,0,0:0:0:0:
192,192,121117,1,2,0:0:0:0:
448,192,121117,1,0,0:0:0:0:
320,192,121259,1,2,0:0:0:0:
448,192,121259,1,0,0:0:0:0:
64,192,121402,1,0,0:0:0:0:
192,192,121545,1,2,0:0:0:0:
320,192,121545,1,0,0:0:0:0:
64,192,121688,1,8,0:0:0:0:
192,192,121688,1,0,0:0:0:0:
448,192,121688,1,0,0:0:0:0:
320,192,121974,1,2,0:0:0:0:
448,192,121974,1,0,0:0:0:0:
192,192,122117,1,2,0:0:0:0:
320,192,122117,1,0,0:0:0:0:
64,192,122259,1,2,0:0:0:0:
192,192,122259,1,0,0:0:0:0:
64,192,122402,1,2,0:0:0:0:
320,192,122402,1,0,0:0:0:0:
320,192,122545,1,2,0:0:0:0:
448,192,122545,128,0,122688:0:0:0:40:LR_Hat Synth.wav
64,192,122688,1,2,0:0:0:0:
192,192,122688,1,0,0:0:0:0:
320,192,122831,1,0,0:0:0:0:
448,192,122974,128,0,123117:0:0:0:40:LR_Hat Synth.wav
64,192,123117,1,2,0:0:0:0:
192,192,123117,1,0,0:0:0:0:
192,192,123259,1,2,0:0:0:0:
320,192,123259,1,0,0:0:0:0:
64,192,123402,1,2,0:0:0:0:
320,192,123402,1,0,0:0:0:0:
64,192,123545,1,2,0:0:0:0:
448,192,123545,128,0,123688:0:0:0:40:LR_Hat Synth.wav
192,192,123688,1,2,0:0:0:0:
320,192,123688,1,0,0:0:0:0:
64,192,123831,1,2,0:0:0:0:
192,192,123831,1,0,0:0:0:0:
64,192,123974,1,8,0:0:0:0:
320,192,123974,1,0,0:0:0:0:
448,192,123974,1,0,0:0:0:0:
192,192,124117,1,2,0:0:0:0:
320,192,124117,1,0,0:0:0:0:
64,192,124259,1,2,0:0:0:0:
192,192,124259,1,0,0:0:0:0:
64,192,124402,1,2,0:0:0:0:
448,192,124402,128,0,124545:0:0:0:40:LR_Hat Synth.wav
192,192,124545,1,2,0:0:0:0:
320,192,124545,1,0,0:0:0:0:
64,192,124688,1,2,0:0:0:0:
192,192,124688,1,0,0:0:0:0:
64,192,124831,1,2,0:0:0:0:
448,192,124831,128,0,124974:0:0:0:40:LR_Hat Synth.wav
192,192,124974,1,2,0:0:0:0:
320,192,124974,1,0,0:0:0:0:
64,192,125117,1,0,0:0:0:0:
448,192,125259,128,0,125402:0:0:0:40:LR_Hat Synth.wav
64,192,125402,1,2,0:0:0:0:
192,192,125402,1,0,0:0:0:0:
320,192,125545,1,0,0:0:0:0:
192,192,125688,1,2,0:0:0:0:
448,192,125688,1,0,0:0:0:0:
64,192,125831,1,2,0:0:0:0:
192,192,125831,1,0,0:0:0:0:
448,192,125974,1,0,0:0:0:0:
192,192,126117,1,2,0:0:0:0:
320,192,126117,1,0,0:0:0:0:
64,192,126259,1,8,0:0:0:0:
320,192,126259,1,0,0:0:0:0:
448,192,126259,1,0,0:0:0:0:
64,192,126545,1,2,0:0:0:0:
192,192,126545,1,0,0:0:0:0:
192,192,126688,1,2,0:0:0:0:
448,192,126688,1,0,0:0:0:0:
320,192,126831,1,2,0:0:0:0:
448,192,126831,1,0,0:0:0:0:
192,192,126974,1,2,0:0:0:0:
320,192,126974,1,0,0:0:0:0:
64,192,127117,1,2,0:0:0:0:
448,192,127117,128,0,127259:0:0:0:40:LR_Hat Synth.wav
64,192,127259,1,2,0:0:0:0:
192,192,127259,1,0,0:0:0:0:
320,192,127402,1,0,0:0:0:0:
448,192,127545,128,0,127688:0:0:0:40:LR_Hat Synth.wav
64,192,127688,1,2,0:0:0:0:
320,192,127688,1,0,0:0:0:0:
192,192,127831,1,2,0:0:0:0:
320,192,127831,1,0,0:0:0:0:
64,192,127974,1,2,0:0:0:0:
192,192,127974,1,0,0:0:0:0:
64,192,128117,1,8,0:0:0:0:
320,192,128117,1,0,0:0:0:0:
448,192,128117,1,0,0:0:0:0:
192,192,128259,1,2,0:0:0:0:
320,192,128259,1,0,0:0:0:0:
64,192,128402,1,2,0:0:0:0:
192,192,128402,1,0,0:0:0:0:
64,192,128545,1,8,0:0:0:0:
320,192,128545,1,0,0:0:0:0:
448,192,128545,1,0,0:0:0:0:
192,192,128688,1,2,0:0:0:0:
320,192,128688,1,0,0:0:0:0:
64,192,128831,1,2,0:0:0:0:
192,192,128831,1,0,0:0:0:0:
320,192,128974,1,2,0:0:0:0:
448,192,128974,128,0,129117:0:0:0:40:LR_Hat Synth.wav
64,192,129117,1,2,0:0:0:0:
192,192,129117,128,4,133117:0:0:0:0:
320,192,129117,128,0,133259:0:0:0:0:
448,192,129545,128,0,130117:0:0:0:0:
64,192,130402,128,0,130974:0:0:0:0:
448,192,131259,128,0,131831:0:0:0:0:
64,192,132117,128,0,132688:0:0:0:0:
192,192,133259,128,0,133474:0:0:0:0:
320,192,133402,128,0,133617:0:0:0:0:
192,192,133545,128,0,133759:0:0:0:0:
320,192,133688,128,0,133902:0:0:0:0:
192,192,133831,128,0,134045:0:0:0:0:
320,192,133974,128,0,134188:0:0:0:0:
192,192,134117,128,0,134331:0:0:0:0:
320,192,134259,128,0,134474:0:0:0:0:
192,192,134402,128,0,134617:0:0:0:0:
320,192,134545,128,0,134759:0:0:0:0:
192,192,134688,128,0,135259:0:0:0:0:
320,192,134902,128,0,135402:0:0:0:0:
448,192,135117,128,0,135545:0:0:0:0:
