osu file format v14

[General]
AudioFilename: audio.mp3
AudioLeadIn: 0
PreviewTime: 114781
Countdown: 0
SampleSet: Normal
StackLeniency: 0.7
Mode: 1
LetterboxInBreaks: 0
WidescreenStoryboard: 0

[Editor]
Bookmarks: 781,9781,14581,19381,24181,28981,33781,38581,43381,48181,52981,57781,62581,67381,72181,76981,81781,86581,91381,96181,100981,105781,110581,115381,124681,124981,133981,134581,144181,151381,153781
DistanceSpacing: 0.8
BeatDivisor: 4
GridSize: 32
TimelineZoom: 2.5

[Metadata]
Title:Birds of Plague
TitleUnicode:Birds of Plague
Artist:ARForest
ArtistUnicode:ARForest
Creator:eiri-
Version:Muzukashii
Source:osu!
Tags:Ayyri Featured Artist FA Skull Kid Skid Electronic Instrumental Frost Era
BeatmapID:2588191
BeatmapSetID:1241060

[Difficulty]
HPDrainRate:6
CircleSize:2
OverallDifficulty:5
ApproachRate:10
SliderMultiplier:1.4
SliderTickRate:1

[Events]
//Background and Video events
0,0,"Birds of Plague.jpg",0,120
//Break Periods
//Storyboard Layer 0 (Background)
//Storyboard Layer 1 (Fail)
//Storyboard Layer 2 (Pass)
//Storyboard Layer 3 (Foreground)
//Storyboard Layer 4 (Overlay)
//Storyboard Sound Samples

[TimingPoints]
781,300,4,1,0,25,1,0
781,-125,4,1,0,25,0,0
5581,300,4,1,0,25,1,8
5581,-125,4,1,0,25,0,0
6181,300,4,1,0,25,1,0
6181,-125,4,1,0,25,0,0
9781,300,4,1,0,50,1,0
9781,-125,4,1,0,50,0,0
10943,-126.582278481013,4,1,0,50,0,0
12143,-128.205128205128,4,1,0,50,0,0
13343,-129.87012987013,4,1,0,50,0,0
14543,-131.578947368421,4,1,0,50,0,0
15743,-133.333333333333,4,1,0,50,0,0
16943,-135.135135135135,4,1,0,50,0,0
18143,-136.986301369863,4,1,0,50,0,0
19343,-138.888888888889,4,1,0,50,0,0
20543,-140.845070422535,4,1,0,50,0,0
21743,-142.857142857143,4,1,0,50,0,0
22943,-144.927536231884,4,1,0,50,0,0
24143,-147.058823529412,4,1,0,50,0,0
25343,-149.253731343284,4,1,0,50,0,0
26543,-151.515151515152,4,1,0,50,0,0
27593,-83.3333333333333,4,1,0,50,0,0
27893,-84.7457627118644,4,1,0,50,0,0
28043,-86.2068965517241,4,1,0,50,0,0
28193,-87.719298245614,4,1,0,50,0,0
28343,-89.2857142857143,4,1,0,50,0,0
28493,-90.9090909090909,4,1,0,50,0,0
28568,-92.5925925925926,4,1,0,50,0,0
28643,-94.3396226415094,4,1,0,50,0,0
28718,-96.1538461538461,4,1,0,50,0,0
28793,-98.0392156862745,4,1,0,50,0,0
28905,-80,4,1,0,75,0,0
29018,-80,4,1,0,75,0,0
29243,-125,4,1,0,75,0,0
33593,-80,4,1,0,75,0,0
33818,-80,4,1,0,75,0,0
34043,-125,4,1,0,75,0,0
37793,-90.9090909090909,4,1,0,75,0,0
38093,-93.4579439252336,4,1,0,75,0,0
38243,-95.2380952380952,4,1,0,75,0,0
38318,-96.1538461538461,4,1,0,75,0,0
38393,-97.0873786407767,4,1,0,75,0,0
38543,-100,4,1,0,75,0,0
38693,-125,4,1,0,75,0,0
43493,-121.951219512195,4,1,0,75,0,0
43643,-119.047619047619,4,1,0,75,0,0
43943,-113.636363636364,4,1,0,75,0,0
44093,-111.111111111111,4,1,0,75,0,0
44243,-108.695652173913,4,1,0,75,0,0
44543,-104.166666666667,4,1,0,75,0,0
44693,-102.040816326531,4,1,0,75,0,0
44843,-100,4,1,0,75,0,0
45143,-96.1538461538461,4,1,0,75,0,0
45293,-94.3396226415094,4,1,0,75,0,0
45443,-92.5925925925926,4,1,0,75,0,0
45743,-89.2857142857143,4,1,0,75,0,0
47843,-111.111111111111,4,1,0,75,0,0
47993,-105.263157894737,4,1,0,75,0,0
48143,-100,4,1,0,75,0,0
67418,-100,4,1,0,25,0,0
67643,-125,4,1,0,25,0,0
76868,-125,4,1,0,25,0,0
77543,-125.786163522013,4,1,0,25,0,0
78143,-126.582278481013,4,1,0,25,0,0
79343,-128.205128205128,4,1,0,25,0,0
79943,-129.032258064516,4,1,0,25,0,0
80543,-129.87012987013,4,1,0,25,0,0
81743,-131.578947368421,4,1,0,25,0,0
82343,-132.450331125828,4,1,0,25,0,0
82943,-133.333333333333,4,1,0,25,0,0
84143,-135.135135135135,4,1,0,25,0,0
84743,-136.054421768707,4,1,0,25,0,0
85343,-136.986301369863,4,1,0,25,0,0
86543,-138.888888888889,4,1,0,25,0,0
87143,-139.86013986014,4,1,0,25,0,0
87743,-140.845070422535,4,1,0,25,0,0
88943,-142.857142857143,4,1,0,25,0,0
89543,-143.884892086331,4,1,0,25,0,0
90143,-144.927536231884,4,1,0,25,0,0
91343,-147.058823529412,4,1,0,25,0,0
91943,-148.148148148148,4,1,0,25,0,0
92543,-149.253731343284,4,1,0,25,0,0
93743,-151.515151515152,4,1,0,25,0,0
94343,-152.671755725191,4,1,0,25,0,0
94943,-153.846153846154,4,1,0,25,0,0
96068,-100,4,1,0,50,0,0
96293,-125,4,1,0,50,0,0
97343,-126.582278481013,4,1,0,50,0,0
98543,-128.205128205128,4,1,0,50,0,0
99743,-129.87012987013,4,1,0,50,0,0
100943,-131.578947368421,4,1,0,50,0,0
102143,-133.333333333333,4,1,0,50,0,0
103343,-135.135135135135,4,1,0,50,0,0
104543,-136.986301369863,4,1,0,50,0,0
105593,-111.111111111111,4,1,0,75,0,0
108143,-105.263157894737,4,1,0,75,0,0
110543,-100,4,1,0,75,0,0
113093,-125,4,1,0,75,0,0
114743,-90.9090909090909,4,1,0,75,0,0
114893,-94.3396226415094,4,1,0,75,0,0
115043,-96.1538461538461,4,1,0,75,0,0
115193,-98.0392156862745,4,1,0,75,0,0
115381,-100,4,1,0,100,0,1
124681,-100,4,1,0,100,0,0
124981,-100,4,1,0,100,0,1
132631,-125,4,1,0,100,0,1
133981,-90.9090909090909,4,1,0,100,0,0
134093,-92.5925925925926,4,1,0,100,0,0
134243,-94.3396226415094,4,1,0,100,0,0
134581,-100,4,1,0,100,0,1
144181,-100,4,1,0,100,0,0
144293,-142.857142857143,4,1,0,75,0,0
146505,-142.857142857143,4,1,0,75,0,0
148905,-142.857142857143,4,1,0,50,0,0
150705,-142.857142857143,4,1,0,40,0,0
151005,-142.857142857143,4,1,0,30,0,0
151305,-142.857142857143,4,1,0,25,0,0
151905,-142.857142857143,4,1,0,20,0,0
152505,-142.857142857143,4,1,0,15,0,0
153105,-142.857142857143,4,1,0,10,0,0
153705,-142.857142857143,4,1,0,5,0,0

[HitObjects]
256,192,781,8,0,8581,0:0:0:0:
256,192,9781,5,0,0:0:0:0:
256,192,10381,1,8,0:0:0:0:
256,192,11281,1,0,0:0:0:0:
256,192,11581,1,8,0:0:0:0:
256,192,12181,1,0,0:0:0:0:
256,192,12781,1,8,0:0:0:0:
256,192,13081,1,0,0:0:0:0:
256,192,13681,1,0,0:0:0:0:
256,192,13981,1,8,0:0:0:0:
256,192,14581,1,0,0:0:0:0:
256,192,15181,1,8,0:0:0:0:
256,192,16081,1,0,0:0:0:0:
256,192,16381,1,8,0:0:0:0:
256,192,16981,1,0,0:0:0:0:
256,192,17581,1,8,0:0:0:0:
256,192,17881,1,0,0:0:0:0:
256,192,18481,1,0,0:0:0:0:
256,192,18781,1,8,0:0:0:0:
256,192,19381,1,0,0:0:0:0:
256,192,19981,1,8,0:0:0:0:
256,192,20881,1,0,0:0:0:0:
256,192,21181,1,8,0:0:0:0:
256,192,21781,1,0,0:0:0:0:
256,192,22381,1,8,0:0:0:0:
256,192,22681,1,0,0:0:0:0:
256,192,23281,1,0,0:0:0:0:
256,192,23581,1,8,0:0:0:0:
256,192,24181,1,0,0:0:0:0:
256,192,24781,1,8,0:0:0:0:
256,192,25681,1,0,0:0:0:0:
256,192,25981,1,8,0:0:0:0:
256,192,26581,1,0,0:0:0:0:
256,192,27181,1,8,0:0:0:0:
256,192,27481,1,0,0:0:0:0:
256,192,27781,1,0,0:0:0:0:
256,192,27931,1,0,0:0:0:0:
256,192,28081,1,8,0:0:0:0:
256,192,28381,1,8,0:0:0:0:
256,192,28531,1,0,0:0:0:0:
256,192,28606,1,0,0:0:0:0:
256,192,28681,1,0,0:0:0:0:
256,192,28831,1,0,0:0:0:0:
256,192,28981,1,12,0:0:0:0:
256,192,29131,8,0,31381,0:0:0:0:
256,192,33781,5,4,0:0:0:0:
256,192,33931,8,0,36181,0:0:0:0:
256,192,37981,5,8,0:0:0:0:
256,192,38131,1,8,0:0:0:0:
256,192,38281,1,0,0:0:0:0:
256,192,38356,1,0,0:0:0:0:
256,192,38431,1,0,0:0:0:0:
256,192,38581,1,12,0:0:0:0:
256,192,38881,1,0,0:0:0:0:
256,192,39181,1,0,0:0:0:0:
256,192,39481,1,0,0:0:0:0:
256,192,39781,1,0,0:0:0:0:
256,192,40081,1,0,0:0:0:0:
256,192,40381,1,0,0:0:0:0:
256,192,40681,1,0,0:0:0:0:
256,192,40981,1,0,0:0:0:0:
256,192,41581,1,0,0:0:0:0:
256,192,42181,1,0,0:0:0:0:
256,192,42781,1,0,0:0:0:0:
256,192,43381,1,0,0:0:0:0:
256,192,43531,1,0,0:0:0:0:
256,192,43681,1,8,0:0:0:0:
256,192,43981,1,0,0:0:0:0:
256,192,44131,1,0,0:0:0:0:
256,192,44281,1,8,0:0:0:0:
256,192,44581,1,0,0:0:0:0:
256,192,44731,1,0,0:0:0:0:
256,192,44881,1,8,0:0:0:0:
256,192,45181,1,0,0:0:0:0:
256,192,45331,1,0,0:0:0:0:
256,192,45481,1,8,0:0:0:0:
256,192,45781,1,0,0:0:0:0:
256,192,45931,1,0,0:0:0:0:
256,192,46081,1,8,0:0:0:0:
256,192,46231,1,8,0:0:0:0:
256,192,46381,1,0,0:0:0:0:
256,192,46531,1,8,0:0:0:0:
256,192,46681,1,8,0:0:0:0:
256,192,46756,1,8,0:0:0:0:
256,192,46831,1,8,0:0:0:0:
256,192,46981,1,0,0:0:0:0:
256,192,47881,1,0,0:0:0:0:
256,192,48031,1,0,0:0:0:0:
256,192,48181,1,12,0:0:0:0:
256,192,48781,1,8,0:0:0:0:
256,192,48931,1,0,0:0:0:0:
256,192,49231,1,8,0:0:0:0:
256,192,49381,1,0,0:0:0:0:
256,192,49456,1,0,0:0:0:0:
256,192,49531,1,0,0:0:0:0:
256,192,49681,1,0,0:0:0:0:
256,192,49831,1,0,0:0:0:0:
256,192,49981,1,8,0:0:0:0:
256,192,50281,1,0,0:0:0:0:
256,192,50581,1,0,0:0:0:0:
256,192,51181,1,8,0:0:0:0:
256,192,51331,1,0,0:0:0:0:
256,192,51631,1,8,0:0:0:0:
256,192,51781,1,0,0:0:0:0:
256,192,51856,1,0,0:0:0:0:
256,192,51931,1,0,0:0:0:0:
256,192,52081,1,0,0:0:0:0:
256,192,52381,1,8,0:0:0:0:
256,192,52681,1,0,0:0:0:0:
256,192,52981,1,0,0:0:0:0:
256,192,53581,1,8,0:0:0:0:
256,192,53731,1,0,0:0:0:0:
256,192,54031,1,8,0:0:0:0:
256,192,54181,1,0,0:0:0:0:
256,192,54256,1,0,0:0:0:0:
256,192,54331,1,0,0:0:0:0:
256,192,54481,1,0,0:0:0:0:
256,192,54631,1,0,0:0:0:0:
256,192,54781,1,8,0:0:0:0:
256,192,55081,1,0,0:0:0:0:
256,192,55381,1,0,0:0:0:0:
256,192,55681,1,0,0:0:0:0:
256,192,55981,1,8,0:0:0:0:
256,192,56281,1,0,0:0:0:0:
256,192,56581,1,8,0:0:0:0:
256,192,56881,1,8,0:0:0:0:
256,192,57106,1,8,0:0:0:0:
256,192,57331,1,0,0:0:0:0:
256,192,57481,1,8,0:0:0:0:
256,192,57781,1,0,0:0:0:0:
256,192,58381,1,12,0:0:0:0:
256,192,58531,1,8,0:0:0:0:
256,192,58831,1,8,0:0:0:0:
256,192,58981,1,0,0:0:0:0:
256,192,59131,1,8,0:0:0:0:
256,192,59431,1,8,0:0:0:0:
256,192,59581,1,0,0:0:0:0:
256,192,59731,1,8,0:0:0:0:
256,192,60031,1,8,0:0:0:0:
256,192,60181,1,0,0:0:0:0:
256,192,60781,1,0,0:0:0:0:
256,192,60931,1,8,0:0:0:0:
256,192,61231,1,8,0:0:0:0:
256,192,61381,1,0,0:0:0:0:
256,192,61531,1,8,0:0:0:0:
256,192,61831,1,8,0:0:0:0:
256,192,61981,1,0,0:0:0:0:
256,192,62131,1,0,0:0:0:0:
256,192,62431,1,8,0:0:0:0:
256,192,62581,1,0,0:0:0:0:
256,192,62881,1,0,0:0:0:0:
256,192,62956,1,0,0:0:0:0:
256,192,63031,1,0,0:0:0:0:
256,192,63181,1,12,0:0:0:0:
256,192,63331,1,8,0:0:0:0:
256,192,63631,1,8,0:0:0:0:
256,192,63781,1,0,0:0:0:0:
256,192,63931,1,8,0:0:0:0:
256,192,64231,1,8,0:0:0:0:
256,192,64381,1,0,0:0:0:0:
256,192,64531,1,8,0:0:0:0:
256,192,64831,1,0,0:0:0:0:
256,192,64981,1,12,0:0:0:0:
256,192,65581,1,8,0:0:0:0:
256,192,65731,1,8,0:0:0:0:
256,192,65881,1,4,0:0:0:0:
256,192,66031,1,8,0:0:0:0:
256,192,66181,1,0,0:0:0:0:
256,192,66481,1,8,0:0:0:0:
256,192,66556,1,8,0:0:0:0:
256,192,66706,1,8,0:0:0:0:
256,192,66781,1,8,0:0:0:0:
256,192,66931,1,0,0:0:0:0:
256,192,67081,1,8,0:0:0:0:
256,192,67156,1,8,0:0:0:0:
256,192,67231,1,8,0:0:0:0:
256,192,67381,1,12,0:0:0:0:
256,192,67531,8,0,69781,0:0:0:0:
256,192,74581,8,0,76831,0:0:0:0:
256,192,76981,5,8,0:0:0:0:
256,192,77431,1,0,0:0:0:0:
256,192,77731,1,0,0:0:0:0:
256,192,77881,1,0,0:0:0:0:
256,192,78031,1,8,0:0:0:0:
256,192,78331,1,0,0:0:0:0:
256,192,78631,1,0,0:0:0:0:
256,192,78781,1,0,0:0:0:0:
256,192,79381,1,0,0:0:0:0:
256,192,79831,1,0,0:0:0:0:
256,192,80131,1,0,0:0:0:0:
256,192,80281,1,0,0:0:0:0:
256,192,80431,1,8,0:0:0:0:
256,192,80731,1,0,0:0:0:0:
256,192,81031,1,0,0:0:0:0:
256,192,81181,1,0,0:0:0:0:
256,192,81481,1,8,0:0:0:0:
256,192,81781,1,0,0:0:0:0:
256,192,82231,1,0,0:0:0:0:
256,192,82531,1,0,0:0:0:0:
256,192,82681,1,0,0:0:0:0:
256,192,82831,1,8,0:0:0:0:
256,192,83131,1,0,0:0:0:0:
256,192,83431,1,0,0:0:0:0:
256,192,83581,1,0,0:0:0:0:
256,192,84181,1,0,0:0:0:0:
256,192,84631,1,0,0:0:0:0:
256,192,84931,1,0,0:0:0:0:
256,192,85081,1,0,0:0:0:0:
256,192,85231,1,8,0:0:0:0:
256,192,85531,1,0,0:0:0:0:
256,192,85831,1,0,0:0:0:0:
256,192,85981,1,0,0:0:0:0:
256,192,86281,1,8,0:0:0:0:
256,192,86581,1,0,0:0:0:0:
256,192,87031,1,0,0:0:0:0:
256,192,87331,1,0,0:0:0:0:
256,192,87481,1,0,0:0:0:0:
256,192,87631,1,8,0:0:0:0:
256,192,87931,1,0,0:0:0:0:
256,192,88231,1,0,0:0:0:0:
256,192,88381,1,0,0:0:0:0:
256,192,88981,1,0,0:0:0:0:
256,192,89431,1,0,0:0:0:0:
256,192,89731,1,0,0:0:0:0:
256,192,89881,1,0,0:0:0:0:
256,192,90031,1,8,0:0:0:0:
256,192,90331,1,0,0:0:0:0:
256,192,90631,1,0,0:0:0:0:
256,192,90781,1,0,0:0:0:0:
256,192,91081,1,8,0:0:0:0:
256,192,91381,1,0,0:0:0:0:
256,192,91831,1,0,0:0:0:0:
256,192,92131,1,0,0:0:0:0:
256,192,92281,1,0,0:0:0:0:
256,192,92431,1,8,0:0:0:0:
256,192,92731,1,0,0:0:0:0:
256,192,93031,1,0,0:0:0:0:
256,192,93181,1,0,0:0:0:0:
256,192,93781,1,0,0:0:0:0:
256,192,94231,1,0,0:0:0:0:
256,192,94531,1,0,0:0:0:0:
256,192,94681,1,0,0:0:0:0:
256,192,94831,1,8,0:0:0:0:
256,192,95131,1,0,0:0:0:0:
256,192,95431,1,0,0:0:0:0:
256,192,95581,1,0,0:0:0:0:
256,192,95881,1,8,0:0:0:0:
256,192,96181,1,4,0:0:0:0:
256,192,96631,1,0,0:0:0:0:
256,192,97081,1,0,0:0:0:0:
256,192,97531,1,0,0:0:0:0:
256,192,97831,1,0,0:0:0:0:
256,192,97981,1,0,0:0:0:0:
256,192,98281,1,0,0:0:0:0:
256,192,98581,1,0,0:0:0:0:
256,192,99031,1,0,0:0:0:0:
256,192,99481,1,0,0:0:0:0:
256,192,99931,1,0,0:0:0:0:
256,192,100231,1,0,0:0:0:0:
256,192,100381,1,0,0:0:0:0:
256,192,100681,1,0,0:0:0:0:
256,192,100981,1,0,0:0:0:0:
256,192,101431,1,0,0:0:0:0:
256,192,101881,1,0,0:0:0:0:
256,192,102331,1,0,0:0:0:0:
256,192,102631,1,0,0:0:0:0:
256,192,102781,1,0,0:0:0:0:
256,192,103081,1,0,0:0:0:0:
256,192,103381,1,0,0:0:0:0:
256,192,103831,1,0,0:0:0:0:
256,192,104281,1,0,0:0:0:0:
256,192,104731,1,0,0:0:0:0:
256,192,105031,1,0,0:0:0:0:
256,192,105181,1,0,0:0:0:0:
256,192,105481,1,0,0:0:0:0:
256,192,105781,1,12,0:0:0:0:
256,192,106081,1,8,0:0:0:0:
256,192,106231,1,0,0:0:0:0:
256,192,106381,1,8,0:0:0:0:
256,192,106681,1,8,0:0:0:0:
256,192,106981,1,8,0:0:0:0:
256,192,107581,1,8,0:0:0:0:
256,192,107881,1,8,0:0:0:0:
256,192,108181,1,8,0:0:0:0:
256,192,108331,1,8,0:0:0:0:
256,192,108481,1,8,0:0:0:0:
256,192,108631,1,0,0:0:0:0:
256,192,108781,1,8,0:0:0:0:
256,192,109081,1,8,0:0:0:0:
256,192,109381,1,8,0:0:0:0:
256,192,109531,1,0,0:0:0:0:
256,192,109681,1,8,0:0:0:0:
256,192,109831,1,0,0:0:0:0:
256,192,109981,1,8,0:0:0:0:
256,192,110281,1,0,0:0:0:0:
256,192,110581,1,8,0:0:0:0:
256,192,110731,1,8,0:0:0:0:
256,192,110881,1,8,0:0:0:0:
256,192,111031,1,0,0:0:0:0:
256,192,111181,1,8,0:0:0:0:
256,192,111331,1,8,0:0:0:0:
256,192,111481,1,8,0:0:0:0:
256,192,111781,1,8,0:0:0:0:
256,192,111931,1,8,0:0:0:0:
256,192,112081,1,0,0:0:0:0:
256,192,112231,1,8,0:0:0:0:
256,192,112381,1,8,0:0:0:0:
256,192,112456,1,8,0:0:0:0:
256,192,112531,1,8,0:0:0:0:
256,192,112681,1,8,0:0:0:0:
256,192,112831,1,0,0:0:0:0:
256,192,112981,1,8,0:0:0:0:
256,192,114781,1,0,0:0:0:0:
256,192,114931,1,0,0:0:0:0:
256,192,115081,1,8,0:0:0:0:
256,192,115231,1,8,0:0:0:0:
256,192,115381,1,4,0:0:0:0:
256,192,115681,1,0,0:0:0:0:
256,192,115831,1,8,0:0:0:0:
256,192,115906,1,8,0:0:0:0:
256,192,115981,1,8,0:0:0:0:
256,192,116131,1,0,0:0:0:0:
256,192,116281,1,8,0:0:0:0:
256,192,116581,1,8,0:0:0:0:
256,192,116806,1,8,0:0:0:0:
256,192,117031,1,8,0:0:0:0:
256,192,117256,1,8,0:0:0:0:
256,192,117481,1,8,0:0:0:0:
256,192,117631,1,8,0:0:0:0:
256,192,117781,1,4,0:0:0:0:
256,192,118381,1,8,0:0:0:0:
256,192,118531,1,0,0:0:0:0:
256,192,118681,1,8,0:0:0:0:
256,192,118756,1,8,0:0:0:0:
256,192,118831,1,8,0:0:0:0:
256,192,118981,1,8,0:0:0:0:
256,192,119206,1,8,0:0:0:0:
256,192,119431,1,8,0:0:0:0:
256,192,119656,1,8,0:0:0:0:
256,192,119881,1,8,0:0:0:0:
256,192,120031,1,8,0:0:0:0:
256,192,120181,1,4,0:0:0:0:
256,192,120481,1,0,0:0:0:0:
256,192,120631,1,8,0:0:0:0:
256,192,120706,1,8,0:0:0:0:
256,192,120781,1,8,0:0:0:0:
256,192,120931,1,0,0:0:0:0:
256,192,121081,1,8,0:0:0:0:
256,192,121381,1,8,0:0:0:0:
256,192,121606,1,8,0:0:0:0:
256,192,121831,1,8,0:0:0:0:
256,192,122056,1,8,0:0:0:0:
256,192,122281,1,8,0:0:0:0:
256,192,122431,1,8,0:0:0:0:
256,192,122581,1,4,0:0:0:0:
256,192,123181,1,8,0:0:0:0:
256,192,123331,1,0,0:0:0:0:
256,192,123481,1,8,0:0:0:0:
256,192,123556,1,8,0:0:0:0:
256,192,123631,1,8,0:0:0:0:
256,192,123781,1,12,0:0:0:0:
256,192,124006,1,0,0:0:0:0:
256,192,124231,1,12,0:0:0:0:
256,192,124456,1,0,0:0:0:0:
256,192,124681,1,12,0:0:0:0:
256,192,124831,1,12,0:0:0:0:
256,192,124981,1,4,0:0:0:0:
256,192,125281,1,0,0:0:0:0:
256,192,125431,1,8,0:0:0:0:
256,192,125506,1,8,0:0:0:0:
256,192,125581,1,8,0:0:0:0:
256,192,125731,1,0,0:0:0:0:
256,192,125881,1,8,0:0:0:0:
256,192,126181,1,8,0:0:0:0:
256,192,126406,1,8,0:0:0:0:
256,192,126631,1,8,0:0:0:0:
256,192,126856,1,8,0:0:0:0:
256,192,127081,1,8,0:0:0:0:
256,192,127231,1,8,0:0:0:0:
256,192,127381,1,4,0:0:0:0:
256,192,127981,1,8,0:0:0:0:
256,192,128131,1,0,0:0:0:0:
256,192,128281,1,8,0:0:0:0:
256,192,128356,1,8,0:0:0:0:
256,192,128431,1,8,0:0:0:0:
256,192,128581,1,8,0:0:0:0:
256,192,128806,1,8,0:0:0:0:
256,192,129031,1,8,0:0:0:0:
256,192,129256,1,8,0:0:0:0:
256,192,129481,1,8,0:0:0:0:
256,192,129631,1,8,0:0:0:0:
256,192,129781,1,4,0:0:0:0:
256,192,130081,1,0,0:0:0:0:
256,192,130231,1,8,0:0:0:0:
256,192,130306,1,8,0:0:0:0:
256,192,130381,1,8,0:0:0:0:
256,192,130531,1,0,0:0:0:0:
256,192,130681,1,8,0:0:0:0:
256,192,130981,1,8,0:0:0:0:
256,192,131206,1,8,0:0:0:0:
256,192,131431,1,8,0:0:0:0:
256,192,131656,1,8,0:0:0:0:
256,192,131881,1,8,0:0:0:0:
256,192,132031,1,8,0:0:0:0:
256,192,132181,1,4,0:0:0:0:
256,192,132781,1,8,0:0:0:0:
256,192,133081,1,0,0:0:0:0:
256,192,133231,1,0,0:0:0:0:
256,192,133531,1,0,0:0:0:0:
256,192,133681,1,0,0:0:0:0:
256,192,133981,1,8,0:0:0:0:
256,192,134131,1,0,0:0:0:0:
256,192,134281,1,8,0:0:0:0:
256,192,134581,1,4,0:0:0:0:
256,192,134881,1,0,0:0:0:0:
256,192,135031,1,8,0:0:0:0:
256,192,135106,1,8,0:0:0:0:
256,192,135181,1,8,0:0:0:0:
256,192,135331,1,0,0:0:0:0:
256,192,135481,1,8,0:0:0:0:
256,192,135781,1,8,0:0:0:0:
256,192,136006,1,8,0:0:0:0:
256,192,136231,1,8,0:0:0:0:
256,192,136456,1,8,0:0:0:0:
256,192,136681,1,8,0:0:0:0:
256,192,136831,1,8,0:0:0:0:
256,192,136981,1,4,0:0:0:0:
256,192,137581,1,8,0:0:0:0:
256,192,137731,1,0,0:0:0:0:
256,192,137881,1,8,0:0:0:0:
256,192,137956,1,8,0:0:0:0:
256,192,138031,1,8,0:0:0:0:
256,192,138181,1,8,0:0:0:0:
256,192,138406,1,8,0:0:0:0:
256,192,138631,1,8,0:0:0:0:
256,192,138856,1,8,0:0:0:0:
256,192,139081,1,8,0:0:0:0:
256,192,139231,1,8,0:0:0:0:
256,192,139381,1,4,0:0:0:0:
256,192,139681,1,0,0:0:0:0:
256,192,139831,1,8,0:0:0:0:
256,192,139906,1,8,0:0:0:0:
256,192,139981,1,8,0:0:0:0:
256,192,140131,1,0,0:0:0:0:
256,192,140281,1,8,0:0:0:0:
256,192,140581,1,8,0:0:0:0:
256,192,140806,1,8,0:0:0:0:
256,192,141031,1,8,0:0:0:0:
256,192,141256,1,8,0:0:0:0:
256,192,141481,1,8,0:0:0:0:
256,192,141631,1,8,0:0:0:0:
256,192,141781,1,12,0:0:0:0:
256,192,142081,1,0,0:0:0:0:
256,192,142231,1,12,0:0:0:0:
256,192,142531,1,0,0:0:0:0:
256,192,142681,1,12,0:0:0:0:
256,192,142981,1,12,0:0:0:0:
256,192,143206,1,12,0:0:0:0:
256,192,143431,1,12,0:0:0:0:
256,192,143656,1,12,0:0:0:0:
256,192,143881,1,12,0:0:0:0:
256,192,144031,1,4,0:0:0:0:
256,192,144181,1,12,0:0:0:0:
256,192,146581,1,0,0:0:0:0:
256,192,148981,1,8,0:0:0:0:
256,192,150781,1,0,0:0:0:0:
256,192,151081,1,0,0:0:0:0:
256,192,151381,1,8,0:0:0:0:
256,192,151531,8,0,153781,0:0:0:0:
