osu file format v14

[General]
AudioFilename: audio.mp3
AudioLeadIn: 0
PreviewTime: 114763
Countdown: 0
SampleSet: Soft
StackLeniency: 0.5
Mode: 0
LetterboxInBreaks: 0
WidescreenStoryboard: 1

[Editor]
Bookmarks: 9763,28963,38563,43363,48163,57763,67363,76963,96163,105763,115363,132163,144163
DistanceSpacing: 1
BeatDivisor: 4
GridSize: 4
TimelineZoom: 2.200001

[Metadata]
Title:Birds of Plague
TitleUnicode:Birds of Plague
Artist:ARForest
ArtistUnicode:ARForest
Creator:Zer0-
Version:Normal
Source:Lanota
Tags:fa featured artist electronic instrumental mpg mappers' guild mapper's zero mg frost era artcore hardcore dubcore
BeatmapID:2588704
BeatmapSetID:1244852

[Difficulty]
HPDrainRate:3.5
CircleSize:3.5
OverallDifficulty:4
ApproachRate:5.5
SliderMultiplier:1.1
SliderTickRate:1

[Events]
//Background and Video events
0,0,"67891797_p0.jpg",0,0
//Break Periods
2,29163,37438
2,67563,75838
//Storyboard Layer 0 (Background)
//Storyboard Layer 1 (Fail)
//Storyboard Layer 2 (Pass)
//Storyboard Layer 3 (Foreground)
//Storyboard Layer 4 (Overlay)
//Storyboard Sound Samples

[TimingPoints]
763,300,4,2,0,100,1,0
6163,300,4,2,0,100,1,0
9763,-100,4,2,2,30,0,0
27763,-100,4,2,1,50,0,0
28363,-100,4,2,1,60,0,0
28963,-100,4,2,1,60,0,0
38563,-100,4,2,1,60,0,0
48163,-100,4,2,1,80,0,0
48763,-100,4,2,1,80,0,0
50263,-100,4,2,1,80,0,0
50563,-100,4,2,1,80,0,0
51163,-100,4,2,1,80,0,0
52663,-100,4,2,1,80,0,0
52963,-100,4,2,1,80,0,0
53563,-100,4,2,1,80,0,0
55063,-100,4,2,1,80,0,0
55363,-100,4,2,1,80,0,0
56563,-100,4,2,2,80,0,0
57763,-100,4,2,1,80,0,0
58363,-100,4,2,1,80,0,0
60163,-100,4,2,1,80,0,0
60763,-100,4,2,1,80,0,0
62563,-100,4,2,1,80,0,0
63163,-100,4,2,1,80,0,0
65113,-100,4,2,1,80,0,0
65263,-100,4,2,1,80,0,0
65413,-100,4,2,1,80,0,0
65563,-100,4,2,1,80,0,0
65713,-100,4,2,1,80,0,0
76963,-100,4,2,2,40,0,0
96163,-100,4,2,1,50,0,0
105763,-100,4,2,1,60,0,0
114763,-100,4,2,1,70,0,0
115363,-100,4,2,1,80,0,1
132163,-100,4,2,1,80,0,0
132913,-100,4,2,1,80,0,0
134563,-100,4,2,1,80,0,1
142963,-100,4,2,1,80,0,1
144163,-100,4,2,1,80,0,0

[Colours]
Combo1 : 160,230,150
Combo2 : 120,200,230
Combo3 : 255,230,130

[HitObjects]
76,85,9763,6,0,P|62:137|78:189,1,110,2|2,1:2|0:0,0:0:0:0:
160,263,10363,1,10,0:0:0:0:
259,216,10663,2,0,P|313:206|420:326,1,220,2|0,0:0|1:2,0:0:0:0:
492,229,11563,2,0,L|501:106,1,110,10|2,0:0|0:0,0:0:0:0:
429,35,12163,2,0,B|372:4|317:41|317:41|266:76|221:54,2,220,2|10|2,1:2|0:0|1:2,0:0:0:0:
497,121,13663,1,2,1:2:0:0:
443,216,13963,2,0,P|432:270|394:307,1,110,10|2,0:0|0:0,0:0:0:0:
293,353,14563,6,0,P|248:321|194:314,1,110,2|2,1:2|0:0,0:0:0:0:
88,346,15163,1,10,0:0:0:0:
32,250,15463,2,0,B|64:210|44:145|44:145|21:85|63:43,1,220,2|0,0:0|1:2,0:0:0:0:
160,95,16363,2,0,P|213:105|266:93,1,110,10|2,0:0|0:0,0:0:0:0:
367,48,16963,2,0,P|480:39|475:132,2,220,2|10|2,1:2|0:0|1:2,0:0:0:0:
333,152,18463,1,2,1:2:0:0:
244,216,18763,2,0,P|231:269|251:320,1,110,10|2,0:0|0:0,0:0:0:0:
350,368,19363,6,0,L|459:353,1,110,2|2,1:2|0:0,0:0:0:0:
509,255,19963,1,10,0:0:0:0:
449,162,20263,2,0,L|230:133,1,220,2|0,0:0|1:2,0:0:0:0:
132,181,21163,2,0,P|111:231|119:284,1,110,10|2,0:0|0:0,0:0:0:0:
220,328,21763,2,0,P|105:310|22:378,2,220,2|10|2,1:2|0:0|1:2,0:0:0:0:
318,376,23263,1,2,1:2:0:0:
412,319,23563,2,0,L|420:209,1,110,10|2,0:0|0:0,0:0:0:0:
343,129,24163,6,0,P|292:149|238:141,1,110,2|0,1:2|0:0,0:0:0:0:
137,99,24763,1,10,0:0:0:0:
60,245,25213,1,2,0:0:0:0:
205,322,25663,2,0,B|300:370|295:264|430:339,1,220,2|2,1:2|0:0,0:0:0:0:
486,246,26563,2,0,L|495:136,2,110,2|0|2,0:0|0:0|0:0,0:0:0:0:
256,192,27313,12,6,28963,1:2:0:0:
346,83,38563,6,0,P|334:136|331:191,1,110,4|0,1:2|1:2,0:0:0:0:
361,297,39163,1,0,1:2:0:0:
271,361,39463,1,0,1:2:0:0:
163,338,39763,2,0,P|110:349|60:328,1,110,0|0,1:2|1:2,0:0:0:0:
26,223,40363,1,0,1:2:0:0:
81,127,40663,1,0,1:2:0:0:
35,26,40963,6,0,L|158:47,1,110,0|0,1:2|1:2,0:0:0:0:
250,16,41563,1,0,1:2:0:0:
338,82,41863,1,0,1:2:0:0:
447,67,42163,2,0,P|473:114|464:167,1,110,0|0,1:2|1:2,0:0:0:0:
407,261,42763,1,0,1:2:0:0:
455,359,43063,1,0,1:2:0:0:
256,192,43363,12,0,46963,0:0:0:0:
9,248,48163,6,0,B|99:225|105:363|204:326,1,220,4|8,1:2|0:0,0:0:0:0:
296,277,49063,2,0,P|308:224|289:173,1,110,0|0,1:2|3:0,0:0:0:0:
189,127,49663,1,0,1:2:0:0:
218,21,49963,2,0,P|272:13|326:21,1,110,8|0,0:0|0:0,0:0:0:0:
432,50,50563,6,0,P|500:129|452:221,1,220,0|8,1:2|0:0,0:0:0:0:
342,218,51463,2,0,P|318:267|305:320,1,110,0|0,1:2|3:0,0:0:0:0:
209,373,52063,1,0,1:2:0:0:
141,286,52363,1,8,0:0:0:0:
60,360,52663,1,0,1:2:0:0:
6,263,52963,6,0,L|29:44,1,220,0|8,1:2|0:0,0:0:0:0:
135,15,53863,2,0,L|243:34,1,110,0|0,1:2|3:0,0:0:0:0:
351,53,54463,1,0,1:2:0:0:
354,161,54763,2,0,P|302:179|249:169,1,110,8|0,0:0|0:0,0:0:0:0:
144,132,55363,6,0,P|109:175|108:229,1,110,0|0,1:2|1:2,0:0:0:0:
148,329,55963,2,0,P|189:362|243:364,1,110,8|0,0:0|1:2,0:0:0:0:
336,304,56563,1,0,1:2:0:0:
319,251,56713,1,0,1:2:0:0:
264,251,56863,2,0,B|209:162|142:254|82:140,1,220,8|8,0:0|0:0,0:0:0:0:
45,42,57763,6,0,P|139:10|177:103,1,220,0|4,1:2|1:2,0:0:0:0:
164,212,58663,1,0,1:2:0:0:
108,306,58963,2,0,P|57:286|8:307,2,110,0|0|0,1:2|1:2|1:2,0:0:0:0:
196,371,59863,1,0,1:2:0:0:
298,334,60163,6,0,P|373:267|310:189,1,220,0|0,1:2|1:2,0:0:0:0:
250,97,61063,1,0,1:2:0:0:
328,20,61363,2,0,P|382:18|430:44,1,110,0|0,1:2|1:2,0:0:0:0:
490,136,61963,2,0,L|478:245,1,110,0|0,1:2|1:2,0:0:0:0:
410,331,62563,6,0,B|299:351|302:270|198:294,1,220,0|4,1:2|1:2,0:0:0:0:
98,339,63463,1,0,1:2:0:0:
28,253,63763,1,0,1:2:0:0:
67,149,64063,1,0,1:2:0:0:
176,130,64363,1,0,1:2:0:0:
246,214,64663,1,0,1:2:0:0:
208,316,64963,1,6,1:2:0:0:
256,192,65113,12,4,67363,1:2:0:0:
29,200,76963,6,0,L|193:184,1,165,2|2,0:0|0:0,0:0:0:0:
286,242,77713,2,0,P|287:269|281:296,2,55,2|2|2,0:0|0:0|0:3,0:0:0:0:
315,135,78313,2,0,P|370:113|469:157,1,165,2|2,0:0|0:0,0:0:0:0:
486,258,79063,1,2,0:0:0:0:
384,300,79363,1,2,0:0:0:0:
221,268,79813,1,2,0:0:0:0:
131,331,80113,2,0,P|125:357|132:384,2,55,2|2|2,0:0|0:0|0:3,0:0:0:0:
154,223,80713,2,0,P|142:170|101:134,1,110,2|2,0:0|0:0,0:0:0:0:
53,107,81163,2,0,L|-2:118,2,55,2|2|2,0:0|0:0|0:0,0:0:0:0:
130,32,81763,6,0,L|316:53,1,165,2|2,0:0|0:0,0:0:0:0:
374,125,82513,2,0,P|401:128|427:137,2,55,2|2|2,0:0|0:0|0:3,0:0:0:0:
280,182,83113,2,0,P|272:262|329:318,1,165,2|2,0:0|0:0,0:0:0:0:
437,339,83863,1,2,0:0:0:0:
500,248,84163,5,2,0:0:0:0:
480,84,84613,1,2,0:0:0:0:
374,55,84913,2,0,P|365:29|361:2,2,55,2|2|2,0:0|0:0|0:3,0:0:0:0:
306,142,85513,2,0,P|270:184|219:205,1,110,2|2,0:0|0:0,0:0:0:0:
169,226,85963,2,0,P|163:252|165:280,2,55,2|2|2,0:0|0:0|0:0,0:0:0:0:
63,194,86563,6,0,P|39:118|90:57,1,165,2|2,0:0|0:0,0:0:0:0:
199,52,87313,2,0,L|189:-4,2,55,2|2|2,0:0|0:0|0:3,0:0:0:0:
285,121,87913,1,2,0:0:0:0:
449,108,88363,1,2,0:0:0:0:
503,204,88663,1,2,0:0:0:0:
472,309,88963,6,0,P|397:339|321:310,1,165,2|2,0:0|0:0,0:0:0:0:
213,285,89713,2,0,P|187:291|164:306,2,55,2|2|2,0:0|0:0|0:3,0:0:0:0:
267,187,90313,2,0,P|279:134|275:80,1,110,2|2,0:0|0:0,0:0:0:0:
308,35,90763,2,0,P|335:37|361:29,2,55,2|2|2,0:0|0:0|0:0,0:0:0:0:
199,16,91363,6,0,P|120:12|83:81,1,165,2|2,0:0|0:0,0:0:0:0:
72,190,92113,2,0,P|44:193|17:192,2,55,2|2|2,0:0|0:0|0:3,0:0:0:0:
162,251,92713,2,0,P|243:246|320:273,1,165,2|2,0:0|0:0,0:0:0:0:
402,347,93463,1,2,0:0:0:0:
484,274,93763,5,2,0:0:0:0:
495,109,94213,1,2,0:0:0:0:
394,66,94513,2,0,L|399:11,2,55,2|2|2,0:0|0:0|0:3,0:0:0:0:
319,146,95113,2,0,P|294:195|297:249,1,110,2|2,0:0|0:0,0:0:0:0:
321,298,95563,2,0,P|321:326|311:351,2,55,2|2|2,0:0|0:0|0:0,0:0:0:0:
221,343,96163,6,0,B|187:360|146:335|146:335|107:315|63:332,1,165,2|2,1:3|1:2,0:0:0:0:
115,175,97063,2,0,B|159:158|198:178|198:178|239:203|273:186,1,165,2|2,1:2|1:2,0:0:0:0:
377,239,97813,1,0,1:2:0:0:
377,239,97963,2,0,P|393:287|349:313,1,110,0|0,1:2|1:2,0:0:0:0:
238,319,98563,5,2,1:3:0:0:
80,368,99013,1,2,1:2:0:0:
0,223,99463,2,0,P|13:141|102:111,1,165,2|0,1:3|1:2,0:0:0:0:
185,68,100213,1,0,1:0:0:0:
185,68,100363,2,0,P|185:40|176:13,2,55,2|2|2,0:0|0:0|1:2,0:0:0:0:
230,99,100813,1,2,0:0:0:0:
282,81,100963,6,0,P|362:70|435:106,1,165,2|2,1:3|1:2,0:0:0:0:
412,270,101863,2,0,P|332:281|259:245,1,165,2|2,1:2|1:2,0:0:0:0:
168,190,102613,1,0,1:2:0:0:
168,189,102763,2,0,P|145:239|146:294,1,110,0|0,1:2|1:2,0:0:0:0:
222,372,103363,5,2,1:3:0:0:
386,353,103813,1,2,1:2:0:0:
475,214,104263,1,0,1:2:0:0:
473,104,104563,2,0,B|472:106|454:95|454:95|425:101|425:101|411:91|397:85,1,82.5,2|2,0:3|0:3,0:0:0:0:
330,134,105013,2,0,B|329:132|311:143|311:143|282:137|282:137|268:147|254:153,1,82.5,2|2,0:3|0:3,0:0:0:0:
189,102,105463,1,2,0:3:0:0:
139,126,105613,1,2,0:3:0:0:
114,175,105763,6,0,P|94:225|99:280,1,110,12|8,0:0|0:0,0:0:0:0:
176,358,106363,1,8,0:0:0:0:
264,292,106663,1,8,0:0:0:0:
353,356,106963,2,0,L|460:332,1,110,8|8,0:0|0:0,0:0:0:0:
461,222,107563,1,8,0:0:0:0:
379,147,107863,1,8,0:0:0:0:
279,194,108163,1,8,0:0:0:0:
256,192,108238,12,0,112963,1:2:0:0:
89,30,114763,6,0,P|49:91|114:125,1,165,2|2,0:0|0:0,0:0:0:0:
168,136,115363,2,0,P|223:130|275:145,1,110,4|10,1:2|0:0,0:0:0:0:
319,187,115813,1,2,0:0:0:0:
319,187,115963,1,0,1:2:0:0:
427,169,116263,1,10,0:0:0:0:
472,268,116563,2,0,P|435:285|405:312,1,82.5,2|2,1:3|0:3,0:0:0:0:
332,352,117013,2,0,P|294:334|264:307,1,82.5,2|2,0:3|0:3,0:0:0:0:
201,253,117463,1,10,0:0:0:0:
95,285,117763,6,0,L|101:175,1,110,2|10,1:2|0:0,0:0:0:0:
106,124,118213,1,2,0:0:0:0:
106,124,118363,1,0,1:2:0:0:
66,21,118663,1,10,0:0:0:0:
175,36,118963,2,0,P|216:36|254:51,1,82.5,2|2,1:3|0:3,0:0:0:0:
337,51,119413,2,0,P|372:71|398:103,1,82.5,2|2,0:3|0:3,0:0:0:0:
417,183,119863,1,10,0:0:0:0:
438,233,120013,1,2,1:2:0:0:
414,282,120163,6,0,P|360:284|307:271,1,110,2|10,1:2|0:0,0:0:0:0:
264,243,120613,1,2,0:0:0:0:
264,243,120763,1,0,1:2:0:0:
168,188,121063,1,10,0:0:0:0:
62,220,121363,2,0,P|49:258|63:296,1,82.5,2|2,1:3|0:3,0:0:0:0:
117,359,121813,2,0,P|155:371|193:357,1,82.5,2|2,0:3|0:3,0:0:0:0:
250,297,122263,1,10,0:0:0:0:
311,206,122563,6,0,L|303:96,1,110,2|10,1:2|0:0,0:0:0:0:
302,45,123013,1,2,0:0:0:0:
302,45,123163,1,0,1:2:0:0:
410,62,123463,1,10,0:0:0:0:
451,98,123613,1,2,1:2:0:0:
465,150,123763,2,0,P|465:190|439:221,1,82.5,2|2,1:3|1:2,0:0:0:0:
397,292,124213,2,0,P|356:292|325:318,1,82.5,2|2,1:3|0:3,0:0:0:0:
245,337,124663,1,10,0:0:0:0:
193,356,124813,1,2,1:2:0:0:
145,327,124963,6,0,P|130:274|154:225,1,110,6|10,1:2|0:0,0:0:0:0:
166,176,125413,1,2,0:0:0:0:
166,176,125563,1,0,1:2:0:0:
71,119,125863,1,10,0:0:0:0:
140,34,126163,2,0,P|180:32|218:47,1,82.5,2|2,1:3|0:3,0:0:0:0:
301,48,126613,2,0,P|323:81|329:122,1,82.5,2|2,0:3|0:3,0:0:0:0:
365,196,127063,1,10,0:0:0:0:
467,156,127363,6,0,P|479:102|475:47,1,110,2|10,1:2|0:0,0:0:0:0:
442,3,127813,1,2,0:0:0:0:
442,3,127963,1,0,1:2:0:0:
340,44,128263,1,10,0:0:0:0:
230,30,128563,2,0,P|189:30|152:48,1,82.5,2|2,1:3|0:3,0:0:0:0:
149,131,129013,2,0,P|185:149|226:149,1,82.5,2|2,0:3|0:3,0:0:0:0:
301,185,129463,1,10,0:0:0:0:
404,148,129763,6,0,L|422:256,1,110,2|8,1:2|0:0,0:0:0:0:
434,310,130213,1,2,0:0:0:0:
434,310,130363,1,0,1:2:0:0:
340,368,130663,1,10,0:0:0:0:
257,295,130963,2,0,L|175:304,1,82.5,2|2,1:3|0:3,0:0:0:0:
103,344,131413,2,0,L|21:334,1,82.5,2|2,0:3|0:3,0:0:0:0:
3,254,131863,1,8,0:0:0:0:
25,203,132013,1,0,1:2:0:0:
7,151,132163,6,0,P|6:97|39:54,1,110,6|0,1:2|0:0,0:0:0:0:
147,39,132763,2,0,P|158:65|159:92,1,55,8|0,0:0|0:0,0:0:0:0:
157,151,133063,1,0,1:2:0:0:
157,151,133213,1,0,1:2:0:0:
184,262,133513,1,0,1:2:0:0:
184,262,133663,1,0,1:2:0:0:
293,261,133963,2,0,B|323:255|359:267|359:267|374:283|374:283|419:274|455:289,1,165,2|2,1:2|0:0,0:0:0:0:
461,233,134563,6,0,L|467:123,1,110,6|10,1:2|0:0,0:0:0:0:
482,70,135013,1,2,0:0:0:0:
482,70,135163,1,0,1:2:0:0:
378,32,135463,1,10,0:0:0:0:
284,92,135763,2,0,P|243:90|202:85,1,82.5,2|2,1:3|0:3,0:0:0:0:
136,36,136213,2,0,P|94:37|53:42,1,82.5,2|2,0:3|0:3,0:0:0:0:
6,110,136663,1,10,0:0:0:0:
87,183,136963,6,0,P|103:234|82:283,1,110,0|10,1:2|0:0,0:0:0:0:
8,366,137563,1,0,1:2:0:0:
117,379,137863,1,10,0:0:0:0:
199,306,138163,2,0,P|234:286|275:288,1,82.5,2|2,1:3|0:3,0:0:0:0:
345,331,138613,2,0,P|385:333|421:313,1,82.5,2|2,0:3|0:3,0:0:0:0:
463,242,139063,1,10,0:0:0:0:
393,156,139363,6,0,L|383:46,1,110,2|10,1:2|0:0,0:0:0:0:
334,20,139813,1,2,0:0:0:0:
334,20,139963,1,0,1:2:0:0:
225,35,140263,1,10,0:0:0:0:
150,115,140563,2,0,P|129:149|139:188,1,82.5,2|2,1:3|0:3,0:0:0:0:
210,230,141013,2,0,P|220:268|199:303,1,82.5,2|2,0:3|0:3,0:0:0:0:
131,349,141463,1,8,0:0:0:0:
78,333,141613,1,2,1:2:0:0:
29,358,141763,6,0,P|4:310|20:259,1,110,10|2,0:0|1:2,0:0:0:0:
65,226,142213,2,0,P|80:174|56:127,1,110,10|2,0:0|1:2,0:0:0:0:
17,88,142663,1,10,0:0:0:0:
117,43,142963,6,0,L|198:58,1,82.5,2|2,1:2|1:2,0:0:0:0:
265,105,143413,2,0,L|346:89,1,82.5,2|2,1:2|1:2,0:0:0:0:
419,51,143863,1,2,1:2:0:0:
471,66,144013,1,2,1:2:0:0:
483,119,144163,1,6,1:2:0:0:
