osu file format v14

[General]
AudioFilename: audio.mp3
AudioLeadIn: 0
PreviewTime: 110867
Countdown: 0
SampleSet: Soft
StackLeniency: 0.2
Mode: 0
LetterboxInBreaks: 0
WidescreenStoryboard: 0

[Editor]
Bookmarks: 13112,25912,38712,50712,63512,77112,88946,99936,110907,121879,132165,143136
DistanceSpacing: 0.8
BeatDivisor: 4
GridSize: 4
TimelineZoom: 1.5

[Metadata]
Title:Aoba
TitleUnicode:Aoba
Artist:ARForest
ArtistUnicode:ARForest
Creator:Niva
Version:Viola
Source:Tone Sphere
Tags:AFST-002 the unfinished instrumental video game
BeatmapID:2363943
BeatmapSetID:1131726

[Difficulty]
HPDrainRate:5.5
CircleSize:4.5
OverallDifficulty:7.5
ApproachRate:9
SliderMultiplier:1.4
SliderTickRate:1

[Events]
//Background and Video events
0,0,"bg.jpg",0,0
//Break Periods
2,77322,88365
//Storyboard Layer 0 (Background)
//Storyboard Layer 1 (Fail)
//Storyboard Layer 2 (Pass)
//Storyboard Layer 3 (Foreground)
//Storyboard Layer 4 (Overlay)
//Storyboard Sound Samples

[TimingPoints]
322,400,4,2,1,40,1,0
322,-133.333333333333,4,2,1,40,0,0
12522,-133.333333333333,4,2,1,45,0,0
12722,-133.333333333333,4,2,1,50,0,0
12922,-133.333333333333,4,2,1,55,0,0
13122,-111.111111111111,4,2,1,60,0,0
25922,-111.111111111111,4,2,1,70,0,0
50322,-166.666666666667,4,2,1,60,0,0
50722,-71.4285714285714,4,2,77,85,0,1
51922,-133.333333333333,4,2,77,85,0,1
52322,-71.4285714285714,4,2,77,85,0,1
53522,-133.333333333333,4,2,77,85,0,1
53922,-71.4285714285714,4,2,77,85,0,1
55122,-133.333333333333,4,2,77,85,0,1
55522,-71.4285714285714,4,2,77,85,0,1
56722,-100,4,2,77,85,0,1
57122,-71.4285714285714,4,2,77,85,0,1
59922,-133.333333333333,4,2,77,85,0,1
60322,-71.4285714285714,4,2,77,85,0,1
61522,-133.333333333333,4,2,77,85,0,1
61922,-71.4285714285714,4,2,77,85,0,1
62922,-100,4,2,77,85,0,1
63522,-71.4285714285714,4,2,77,85,0,1
64722,-133.333333333333,4,2,77,85,0,1
65122,-71.4285714285714,4,2,77,85,0,1
67922,-133.333333333333,4,2,77,85,0,1
68322,-71.4285714285714,4,2,77,85,0,1
70922,-133.333333333333,4,2,77,85,0,1
71522,-71.4285714285714,4,2,77,85,0,1
72722,-100,4,2,77,85,0,1
73122,-71.4285714285714,4,2,77,85,0,1
74122,-133.333333333333,4,2,77,85,0,1
74722,-71.4285714285714,4,2,77,85,0,1
77222,-71.4285714285714,4,2,1,5,0,0
77912,397.350993377483,4,2,0,5,1,0
78706,390.879478827362,4,2,0,5,1,0
79487,388.349514563107,4,2,0,5,1,0
80263,387.096774193549,4,2,0,5,1,0
81037,372.670807453416,4,2,0,5,1,0
81782,370.37037037037,4,2,0,5,1,0
82522,368.098159509202,4,2,0,5,1,0
83994,365.853658536585,4,2,0,5,1,0
84725,357.142857142857,4,2,0,5,1,0
85439,355.029585798816,4,2,0,5,1,0
86859,352.941176470588,4,2,0,5,1,0
87564,348.837209302325,4,2,0,5,1,0
88261,342.857142857143,4,2,0,5,1,0
88965,342.857142857143,4,2,0,5,1,0
88965,-125,4,2,77,70,0,0
99936,-100,4,2,77,80,0,0
106793,-83.3333333333333,4,2,77,80,0,0
109536,-125,4,2,77,80,0,0
109622,-125,4,2,77,70,0,0
110222,-125,4,2,0,70,0,0
110907,-80,4,2,77,90,0,0
127365,-68.9655172413793,4,2,77,90,0,0
128393,-133.333333333333,4,2,77,90,0,0
128736,-68.9655172413793,4,2,77,90,0,0
129679,-133.333333333333,4,2,77,90,0,0
130107,-68.9655172413793,4,2,77,90,0,0
131650,-83.3333333333333,4,2,77,90,0,0
131822,-100,4,2,77,90,0,0
131993,-125,4,2,77,90,0,0
132165,-66.6666666666667,4,2,77,90,0,1
133193,-100,4,2,77,90,0,1
133536,-66.6666666666667,4,2,77,90,0,1
134393,-100,4,2,77,90,0,1
134907,-68.9655172413793,4,2,77,90,0,1
135936,-100,4,2,77,90,0,1
136279,-66.6666666666667,4,2,77,90,0,1
137307,-100,4,2,77,90,0,1
137650,-66.6666666666667,4,2,77,90,0,1
141422,-100,4,2,77,90,0,1
141765,-66.6666666666667,4,2,77,90,0,1
142622,-100,4,2,77,90,0,1
143650,-66.6666666666667,4,2,77,90,0,1
144165,-100,4,2,77,90,0,1
144507,-66.6666666666667,4,2,77,90,0,1
145365,-100,4,2,77,90,0,1
145879,-66.6666666666667,4,2,77,90,0,1
146907,-100,4,2,77,90,0,1
147250,-66.6666666666667,4,2,77,90,0,1
149650,-100,4,2,77,90,0,1
149993,-66.6666666666667,4,2,77,90,0,1
150995,-100,4,2,77,90,0,1
151365,-66.6666666666667,4,2,77,90,0,1
152393,-100,4,2,77,90,0,1
152736,-66.6666666666667,4,2,77,90,0,1
154793,348.837209302326,4,2,77,90,1,0
154880,-100,4,2,0,50,0,0
155471,352.941176470589,4,2,0,50,1,0
156176,357.142857142858,4,2,0,50,1,0
156176,-100,4,2,0,45,0,0
156890,368.098159509203,4,2,0,45,1,0
157626,372.670807453417,4,2,0,40,1,0
158371,379.746835443038,4,2,0,40,1,0
159130,382.165605095541,4,2,0,35,1,0
159512,387.096774193548,4,2,0,35,1,0
159899,400,4,2,0,35,1,0
160499,-100,4,2,0,30,0,0

[Colours]
Combo1 : 17,254,176
Combo2 : 173,255,95
Combo3 : 255,88,100
Combo4 : 255,94,55

[HitObjects]
477,73,322,6,0,P|484:89|481:69,1,52.5000020027161,6|0,0:0|0:0,0:0:0:0:
418,19,722,2,0,P|444:57|447:120,1,105.000004005432
481,276,1522,6,0,P|470:290|486:277,1,52.5000020027161,2|0,0:0|0:0,0:0:0:0:
498,197,1922,2,0,P|478:238|425:272,1,105.000004005432
351,341,2722,6,0,P|375:351|396:368,1,52.5000020027161,2|0,0:0|0:0,0:0:0:0:
278,289,3122,2,0,P|254:302|229:305,1,52.5000020027161
115,305,3522,6,0,P|102:322|118:316,1,52.5000020027161,2|0,0:0|0:0,0:0:0:0:
5,313,3922,2,0,B|39:313|39:313|58:319|58:319|77:313|77:313|112:313,1,105.000004005432
189,211,4722,6,0,P|208:216|189:223,1,52.5000020027161,2|0,0:0|0:0,0:0:0:0:
301,217,5122,2,0,B|267:217|267:217|248:223|248:223|229:217|229:217|194:217,1,105.000004005432
149,78,5922,6,0,P|162:100|162:126,1,52.5000020027161,2|0,0:0|0:0,0:0:0:0:
70,99,6322,2,0,P|70:125|83:147,1,52.5000020027161
36,259,6722,6,0,P|47:276|50:254,1,52.5000020027161,2|0,0:0|0:0,0:0:0:0:
24,348,7122,2,0,P|66:319|121:319,1,105.000004005432
232,346,7922,6,0,P|243:328|246:351,1,52.5000020027161,2|0,0:0|0:0,0:0:0:0:
204,259,8322,2,0,P|247:281|304:270,1,105.000004005432
407,330,9122,6,0,L|462:311,1,52.5000020027161,2|0,0:0|0:0,0:0:0:0:
457,329,9522,2,0,L|402:310,1,52.5000020027161
479,182,9922,6,0,P|483:200|468:185,1,52.5000020027161,2|0,0:0|0:0,0:0:0:0:
501,110,10322,2,0,P|461:140|400:136,1,105.000004005432
248,103,11122,6,0,P|231:111|242:93,1,52.5000020027161,2|0,0:0|0:0,0:0:0:0:
322,105,11522,2,0,P|282:74|270:14,1,105.000004005432
268,23,12322,6,0,L|255:88,1,52.5000020027161,2|0,0:0|0:0,0:0:0:0:
237,162,12722,1,2,0:0:0:0:
144,201,12922,1,2,0:0:0:0:
30,191,13122,6,0,P|97:198|175:294,1,188.999994232178,2|0,0:0|0:0,0:0:0:0:
314,217,13922,2,0,L|248:224,1,62.9999980773926,8|0,0:0|0:0,0:0:0:0:
251,223,14322,1,0,0:0:0:0:
387,293,14522,2,0,L|523:278,1,125.999996154785
435,179,15122,2,0,L|426:110,1,62.9999980773926
214,194,15522,6,0,L|209:265,1,62.9999980773926,10|0,0:0|0:0,0:0:0:0:
120,220,15922,1,2,0:0:0:0:
120,220,16122,1,2,0:0:0:0:
268,335,16322,6,0,B|312:315|356:349|356:349|403:385|444:365,1,188.999994232178,2|0,0:0|0:0,0:0:0:0:
494,249,17122,2,0,B|464:262|464:262|430:255,1,62.9999980773926,8|0,0:0|0:0,0:0:0:0:
512,156,17522,1,0,0:0:0:0:
512,156,17722,2,0,L|377:172,1,125.999996154785
387,171,18322,2,0,P|377:140|385:112,1,62.9999980773926
388,314,18722,6,0,P|367:291|337:286,1,62.9999980773926,10|2,0:0|0:0,0:0:0:0:
199,221,19122,2,0,P|229:214|250:190,1,62.9999980773926,2|0,0:0|0:0,0:0:0:0:
192,380,19522,6,0,B|125:363|125:363|79:386|79:386|6:371,1,188.999994232178,2|0,0:0|0:0,0:0:0:0:
47,230,20322,2,0,L|62:293,1,62.9999980773926,8|0,0:0|0:0,0:0:0:0:
61,291,20722,1,0,0:0:0:0:
5,164,20922,2,0,P|51:202|120:194,1,125.999996154785
231,233,21522,2,0,P|250:208|255:177,1,62.9999980773926
123,50,21922,6,0,P|128:80|147:105,1,62.9999980773926,10|0,0:0|0:0,0:0:0:0:
256,177,22322,1,2,0:0:0:0:
438,59,22522,6,0,L|232:75,1,188.999994232178,2|0,0:0|0:0,0:0:0:0:
138,52,23322,1,0,0:0:0:0:
138,52,23522,2,0,L|145:128,1,62.9999980773926,8|0,0:0|0:0,0:0:0:0:
38,90,23922,1,0,0:0:0:0:
85,226,24122,6,0,B|133:210|170:243|170:243|213:280|262:260,1,188.999994232178,2|0,0:0|0:0,0:0:0:0:
335,165,24922,1,0,0:0:0:0:
335,165,25122,2,0,P|342:146|326:163,1,62.9999980773926,8|0,0:0|0:0,0:0:0:0:
439,221,25522,2,0,L|461:221,6,15.7499995193482,2|0|0|0|2|0|0,0:0|0:0|0:0|0:0|0:0|0:0|0:0,0:0:0:0:
449,243,25922,6,0,L|434:49,1,188.999994232178,6|0,1:2|0:0,0:0:0:0:
320,32,26722,2,0,P|319:67|338:86,1,62.9999980773926,8|2,0:0|0:0,0:0:0:0:
435,55,27122,1,2,0:0:0:0:
320,32,27322,6,0,B|250:22|250:22|228:36|197:35,1,125.999996154785,2|0,0:0|0:0,0:0:0:0:
44,29,27922,2,0,P|75:25|103:10,1,62.9999980773926,0|2,1:2|0:0,0:0:0:0:
44,29,28322,5,10,0:0:0:0:
132,76,28522,1,2,0:0:0:0:
227,122,28722,1,2,0:0:0:0:
121,174,28922,1,0,0:0:0:0:
9,226,29122,6,0,P|30:282|89:288,1,125.999996154785,2|0,1:2|0:0,0:0:0:0:
197,376,29722,1,0,0:0:0:0:
197,376,29922,2,0,L|131:368,1,62.9999980773926,8|2,0:0|0:0,0:0:0:0:
280,339,30322,1,2,0:0:0:0:
418,310,30522,6,0,B|499:295|499:295|514:315|499:337,1,125.999996154785,2|0,0:0|0:0,0:0:0:0:
448,216,31122,2,0,P|428:195|447:170,1,62.9999980773926,0|0,1:2|0:0,0:0:0:0:
483,34,31522,5,10,0:0:0:0:
407,80,31722,1,0,0:0:0:0:
315,92,31922,1,2,0:0:0:0:
212,76,32122,1,2,0:0:0:0:
149,0,32322,6,0,L|178:200,1,188.999994232178,2|0,1:2|0:0,0:0:0:0:
82,304,33122,2,0,P|93:273|85:233,1,62.9999980773926,8|2,0:0|0:0,0:0:0:0:
6,263,33522,1,2,0:0:0:0:
179,299,33722,6,0,B|236:294|236:294|251:300|251:300|310:294,1,125.999996154785,2|0,0:0|0:0,0:0:0:0:
419,271,34322,2,0,B|449:283|449:283|420:298,1,62.9999980773926,0|0,1:2|0:0,0:0:0:0:
303,272,34722,1,8,0:0:0:0:
360,371,34922,1,2,0:0:0:0:
419,271,35122,1,2,0:0:0:0:
278,301,35322,6,0,P|219:300|177:245,1,125.999996154785,2|0,0:0|0:0,0:0:0:0:
25,300,35922,1,2,0:0:0:0:
25,300,36122,2,0,L|88:294,1,62.9999980773926,2|8,0:0|0:0,0:0:0:0:
143,189,36522,1,2,0:0:0:0:
201,358,36722,1,2,0:0:0:0:
283,229,36922,6,0,P|340:251|401:226,1,125.999996154785,2|2,0:0|0:0,0:0:0:0:
473,328,37522,2,0,P|479:348|450:339,1,62.9999980773926,2|0,1:2|0:0,0:0:0:0:
386,288,37922,1,10,0:0:0:0:
289,261,38122,1,0,0:0:0:0:
186,280,38322,1,2,0:0:0:0:
107,356,38522,1,2,0:0:0:0:
23,211,38722,6,0,L|34:22,1,188.999994232178,6|0,1:2|0:0,0:0:0:0:
197,76,39522,2,0,L|131:72,1,62.9999980773926,8|2,0:0|0:0,0:0:0:0:
134,72,39922,1,2,0:0:0:0:
274,175,40122,6,0,P|322:141|387:154,1,125.999996154785,2|2,0:0|0:0,0:0:0:0:
488,32,40722,2,0,L|477:105,1,62.9999980773926,2|0,1:2|0:0,0:0:0:0:
287,53,41122,5,10,0:0:0:0:
334,147,41322,1,0,0:0:0:0:
380,53,41522,1,2,0:0:0:0:
194,111,41722,6,0,B|65:104,1,125.999996154785,2|2,0:0|0:0,0:0:0:0:
15,242,42322,2,0,B|0:214|0:214|14:180,1,62.9999980773926,2|0,0:0|0:0,0:0:0:0:
188,268,42722,5,10,0:0:0:0:
99,316,42922,1,0,0:0:0:0:
190,359,43122,1,2,0:0:0:0:
139,195,43322,6,0,P|194:229|252:213,1,125.999996154785,2|0,0:0|0:0,0:0:0:0:
335,340,43922,2,0,P|315:313|278:301,1,62.9999980773926,0|0,1:2|0:0,0:0:0:0:
364,157,44322,2,0,P|350:187|358:225,1,62.9999980773926,8|2,0:0|0:0,0:0:0:0:
254,170,44722,1,2,0:0:0:0:
155,126,44922,1,2,0:0:0:0:
58,269,45122,6,0,L|120:264,1,62.9999980773926,0|2,1:2|0:0,0:0:0:0:
195,337,45522,1,2,1:2:0:0:
234,194,45722,1,2,0:0:0:0:
400,299,45922,6,0,P|369:308|340:299,1,62.9999980773926,8|2,1:2|0:0,0:0:0:0:
265,371,46322,1,2,1:2:0:0:
222,234,46522,1,2,0:0:0:0:
111,320,46722,5,2,1:2:0:0:
95,318,46822,1,2,0:0:0:0:
79,316,46922,1,2,0:0:0:0:
63,314,47022,1,2,0:0:0:0:
40,327,47122,6,0,L|44:291,3,31.4999990386963,2|2|2|2,1:2|0:0|0:0|0:0,0:0:0:0:
0,211,47522,2,0,L|32:193,3,31.4999990386963,10|2|2|2,1:2|0:0|0:0|0:0,0:0:0:0:
32,99,47922,2,0,L|70:107,3,31.4999990386963,2|2|2|2,1:2|0:0|0:0|0:0,0:0:0:0:
147,49,48322,5,2,1:2:0:0:
175,62,48422,1,2,0:0:0:0:
206,68,48522,1,2,1:2:0:0:
237,65,48622,1,0,0:0:0:0:
267,54,48722,1,2,1:2:0:0:
297,45,48822,1,2,0:0:0:0:
328,45,48922,1,2,1:2:0:0:
358,55,49022,1,2,0:0:0:0:
382,75,49122,5,10,1:2:0:0:
397,102,49222,1,2,1:2:0:0:
400,134,49322,1,2,1:2:0:0:
391,163,49422,1,0,1:2:0:0:
370,187,49522,1,2,1:2:0:0:
342,201,49622,1,2,1:2:0:0:
311,201,49722,1,2,1:2:0:0:
282,188,49822,1,2,1:2:0:0:
260,166,49922,6,0,L|266:215,1,31.4999990386963,2|2,0:0|0:0,0:0:0:0:
249,208,50122,2,0,L|246:177,1,31.4999990386963,2|0,0:0|0:0,0:0:0:0:
138,128,50322,6,0,L|140:149,1,20.9999993591309,2|2,0:0|0:0,0:0:0:0:
128,161,50522,2,0,L|125:140,1,20.9999993591309,2|2,0:0|0:0,0:0:0:0:
7,190,50722,6,0,B|-3:166|-29:166|-39:190|-28:215|0:215|7:190,1,97.9999970092774,10|0,0:2|0:0,0:0:0:0:
98,267,51022,2,0,B|121:259|140:244|140:244|162:255|189:255,1,97.9999970092774,2|0,1:2|0:0,0:0:0:0:
290,191,51322,2,0,B|412:191|412:191|463:239|529:211,1,244.999992523194,6|0,1:2|0:0,0:0:0:0:
475,175,51922,6,0,L|483:256,1,78.7500030040742,8|0,0:3|0:0,0:0:0:0:
493,362,52322,6,0,B|516:349|516:349|434:350,1,97.9999970092774,10|0,0:0|0:0,0:0:0:0:
325,341,52622,2,0,B|348:328|348:328|268:329,1,97.9999970092774,2|0,1:2|0:0,0:0:0:0:
180,309,52922,2,0,P|88:335|34:219,1,244.999992523194,2|0,1:2|0:0,0:0:0:0:
79,131,53522,5,2,0:0:0:0:
83,122,53622,1,2,0:0:0:0:
87,113,53722,2,0,L|41:115,1,26.2500010013581,2|0,0:0|0:0,0:0:0:0:
34,219,53922,6,0,L|135:213,1,97.9999970092774,10|0,0:0|0:0,0:0:0:0:
247,328,54222,2,0,P|209:297|159:303,1,97.9999970092774,2|0,1:2|0:0,0:0:0:0:
329,247,54522,2,0,P|415:206|319:164,1,244.999992523194,2|0,1:2|0:0,0:0:0:0:
220,210,55122,6,0,L|250:197,1,26.2500010013581,2|0,0:0|0:0,0:0:0:0:
245,210,55322,2,0,L|215:197,1,26.2500010013581,2|0,0:0|0:0,0:0:0:0:
110,199,55522,6,0,B|86:186|63:198|63:198|86:211|110:199,1,97.9999970092774,10|0,0:0|0:0,0:0:0:0:
208,280,55822,2,0,B|207:307|230:321|230:321|230:295|208:280,1,97.9999970092774,2|0,1:2|0:0,0:0:0:0:
229,149,56122,2,0,B|285:173|336:122|336:122|387:71|452:96,1,244.999992523194,2|0,1:2|0:0,0:0:0:0:
512,59,56722,6,0,B|503:78|490:91|490:91|513:119|513:119|535:92,1,105,4|0,1:3|0:0,0:0:0:0:
512,241,57122,6,0,P|473:210|422:212,1,97.9999970092774,10|0,0:0|0:0,0:0:0:0:
326,251,57422,2,0,P|302:294|313:344,1,97.9999970092774,2|0,1:2|0:0,0:0:0:0:
182,295,57722,2,0,B|143:296|143:296|112:307|112:307|79:296|79:296|34:296,1,146.999995513916,2|0,1:2|0:0,0:0:0:0:
110,332,58122,5,2,3:2:0:0:
111,307,58222,1,2,3:2:0:0:
112,282,58322,1,0,0:2:0:0:
115,244,58422,5,2,0:2:0:0:
116,219,58522,1,2,0:2:0:0:
117,194,58622,1,2,0:2:0:0:
120,111,58722,6,0,B|128:91|128:91|115:68|115:68|105:93|105:93|119:111,1,97.9999970092774,10|0,0:0|0:0,0:0:0:0:
245,132,59022,2,0,B|249:155|272:155|287:138|285:124|268:108|248:108|245:132,1,97.9999970092774,2|0,1:2|0:0,0:0:0:0:
217,263,59322,2,0,B|399:251|399:251|368:264|351:291,1,244.999992523194,2|0,1:2|0:0,0:0:0:0:
357,153,59922,5,2,0:0:0:0:
348,151,60022,1,2,0:0:0:0:
340,148,60122,2,0,L|343:182,1,26.2500010013581,2|0,0:0|0:0,0:0:0:0:
351,290,60322,6,0,L|360:393,1,97.9999970092774,10|0,0:0|0:0,0:0:0:0:
245,237,60622,2,0,B|223:248|197:236|197:236|223:227|246:237,1,97.9999970092774,2|0,1:2|0:0,0:0:0:0:
323,123,60922,2,0,P|414:75|410:178,1,244.999992523194,2|0,1:2|0:0,0:0:0:0:
318,144,61522,6,0,P|327:117|310:138,1,78.7500030040742,2|0,0:0|0:0,0:0:0:0:
181,139,61922,6,0,P|131:140|100:102,1,97.9999970092774,10|0,0:0|0:0,0:0:0:0:
232,239,62222,2,0,P|207:282|159:290,1,97.9999970092774,2|0,1:2|0:0,0:0:0:0:
344,259,62522,2,0,P|361:318|318:389,1,146.999995513916,2|0,1:2|0:0,0:0:0:0:
231,356,62922,5,2,0:0:0:0:
237,362,63022,1,2,0:0:0:0:
243,368,63122,2,0,B|215:368|215:368|194:375|194:375|173:368|173:368|137:368,1,105,2|0,1:2|0:0,0:0:0:0:
88,310,63522,6,0,P|140:321|170:287,1,97.9999970092774,10|0,0:0|1:2,0:0:0:0:
165,252,63822,1,2,1:2:0:0:
159,213,63922,1,8,0:0:0:0:
152,174,64022,1,8,0:0:0:0:
166,96,64122,6,0,L|154:352,1,244.999992523194,6|0,1:2|0:0,0:0:0:0:
68,383,64722,6,0,P|46:370|48:321,1,78.7500030040742,2|0,0:0|0:0,0:0:0:0:
154,340,65122,6,0,B|234:331|234:331|217:351,1,97.9999970092774,10|0,0:0|0:0,0:0:0:0:
226,238,65422,2,0,B|306:229|306:229|289:249,1,97.9999970092774,2|0,1:2|0:0,0:0:0:0:
301,127,65722,2,0,B|487:106|487:106|433:134,1,244.999992523194,2|0,1:2|0:0,0:0:0:0:
435,132,66322,5,2,1:2:0:0:
439,102,66422,1,2,0:0:0:0:
441,73,66522,1,2,0:0:0:0:
443,42,66622,1,2,0:0:0:0:
350,2,66722,6,0,P|304:18|257:-2,1,97.9999970092774,10|0,0:0|0:0,0:0:0:0:
204,94,67022,2,0,B|179:78|175:55|175:55|179:78|162:100,1,97.9999970092774,2|0,1:2|0:0,0:0:0:0:
66,129,67322,2,0,B|128:104|180:145|180:145|236:187|296:162,1,244.999992523194,2|0,1:2|0:0,0:0:0:0:
434,203,67922,6,0,P|439:214|434:227,1,26.2500010013581,2|0,0:0|0:0,0:0:0:0:
360,227,68122,2,0,P|355:216|360:203,1,26.2500010013581,2|0,0:0|0:0,0:0:0:0:
393,297,68322,6,0,B|351:269|351:269|305:281,1,97.9999970092774,10|0,0:0|0:0,0:0:0:0:
216,188,68622,2,0,P|236:144|207:100,1,97.9999970092774,2|0,1:2|0:0,0:0:0:0:
94,151,68922,2,0,B|5:151|5:151|-16:156|-13:181|10:186|20:168,1,146.999995513916,2|0,1:2|0:0,0:0:0:0:
8,263,69322,5,2,0:0:0:0:
33,254,69422,1,0,0:0:0:0:
60,252,69522,1,2,3:2:0:0:
94,262,69622,5,2,3:2:0:0:
116,280,69722,1,2,3:2:0:0:
128,309,69822,1,2,3:2:0:0:
240,342,69922,6,0,P|213:299|232:251,1,97.9999970092774,10|0,0:0|0:0,0:0:0:0:
326,331,70222,2,0,P|338:285|312:245,1,97.9999970092774,2|0,1:2|0:0,0:0:0:0:
257,139,70522,2,0,B|307:131|307:131|348:148|348:148|398:138,1,146.999995513916,6|0,1:2|0:0,0:0:0:0:
501,109,70922,5,0,3:0:0:0:
501,109,71022,1,0,3:0:0:0:
501,109,71122,2,0,L|463:105,1,26.2500010013581,2|0,3:2|0:0,0:0:0:0:
497,182,71322,2,0,L|459:178,1,26.2500010013581,2|0,3:0|0:0,0:0:0:0:
393,49,71522,6,0,B|407:25|387:5|387:5|371:29|392:49,1,97.9999970092774,10|0,0:0|0:0,0:0:0:0:
317,114,71822,2,0,B|297:95|272:108|272:108|293:129|318:114,1,97.9999970092774,2|0,1:2|0:0,0:0:0:0:
474,106,72122,2,0,B|500:109|513:83|513:83|487:80|474:105,1,97.9999970092774,2|0,1:2|0:0,0:0:0:0:
403,209,72422,1,2,1:2:0:0:
403,209,72522,1,8,0:0:0:0:
403,209,72622,1,8,0:0:0:0:
403,209,72722,6,0,L|410:315,1,105,2|0,1:2|0:0,0:0:0:0:
409,313,73122,6,0,P|365:332|319:316,1,97.9999970092774,10|0,0:0|0:0,0:0:0:0:
220,240,73422,2,0,P|214:287|179:319,1,97.9999970092774,2|0,1:2|0:0,0:0:0:0:
67,378,73722,2,0,P|55:328|-27:284,1,146.999995513916,6|0,1:2|0:0,0:0:0:0:
41,196,74122,6,0,B|29:203|29:203|41:210,1,26.2500010013581,2|0,0:0|0:0,0:0:0:0:
130,165,74322,2,0,B|129:151|129:151|117:158,1,26.2500010013581,2|0,0:0|0:0,0:0:0:0:
117,258,74522,2,0,B|129:264|129:264|129:251,1,26.2500010013581,2|0,0:0|0:0,0:0:0:0:
241,209,74722,6,0,B|288:227|288:227|332:211,1,97.9999970092774,10|0,0:0|0:0,0:0:0:0:
462,310,75022,2,0,P|427:285|374:292,1,97.9999970092774,2|0,1:2|0:0,0:0:0:0:
449,156,75322,2,0,L|477:4,1,146.999995513916,6|0,1:2|0:0,0:0:0:0:
468,0,75722,6,0,L|482:46,1,48.9999985046387,10|0,0:0|0:0,0:0:0:0:
361,43,75922,2,0,P|291:55|236:8,1,146.999995513916,2|0,1:2|0:0,0:0:0:0:
93,158,76322,6,0,P|148:117|223:132,1,146.999995513916,10|0,0:0|1:2,0:0:0:0:
306,91,76722,5,8,0:0:0:0:
312,129,76822,1,8,0:0:0:0:
317,167,76922,1,8,0:0:0:0:
322,205,77022,1,8,0:0:0:0:
329,251,77122,5,6,1:2:0:0:
166,189,88965,6,0,L|153:128,1,56,6|2,1:2|0:0,0:0:0:0:
307,133,89307,2,0,L|247:145,1,56,2|0,0:0|0:0,0:0:0:0:
399,188,89650,1,2,0:0:0:0:
399,188,89822,2,0,L|461:177,1,56,2|2,0:0|0:0,0:0:0:0:
309,258,90165,6,0,P|357:229|411:235,1,112,2|2,0:2|0:0,0:0:0:0:
202,126,90850,2,0,P|156:154|101:149,1,112,2|2,0:0|0:0,0:0:0:0:
71,223,91365,1,0,0:0:0:0:
42,298,91536,1,2,0:0:0:0:
149,384,91707,6,0,L|143:326,1,56,2|2,0:0|0:0,0:0:0:0:
230,369,92050,2,0,L|224:309,1,56,2|0,0:0|0:0,0:0:0:0:
310,352,92393,1,2,0:0:0:0:
310,352,92565,2,0,L|304:292,1,56,2|2,0:0|0:0,0:0:0:0:
128,312,92907,6,0,P|167:345|234:336,1,112,2|2,0:0|0:0,0:0:0:0:
438,341,93593,2,0,P|395:306|340:311,1,112,2|2,0:0|0:0,0:0:0:0:
409,268,94107,1,0,0:0:0:0:
409,268,94279,1,2,0:0:0:0:
454,168,94450,6,0,L|481:111,1,56,2|2,0:0|0:0,0:0:0:0:
327,141,94793,2,0,L|383:115,1,56,2|0,0:0|0:0,0:0:0:0:
245,44,95136,1,2,0:0:0:0:
245,44,95307,2,0,L|306:59,1,56,2|2,0:0|0:0,0:0:0:0:
142,74,95650,6,0,P|90:83|43:47,1,112,2|2,0:0|0:0,0:0:0:0:
98,243,96336,2,0,B|145:233|145:233|161:237|161:237|208:226,1,112,2|2,0:0|0:0,0:0:0:0:
256,296,96850,1,0,0:0:0:0:
124,314,97022,6,0,P|77:281|18:294,1,112,2|2,0:0|0:0,0:0:0:0:
0,188,97536,2,0,P|-19:187|0:186,1,56,2|0,0:0|0:0,0:0:0:0:
54,102,97879,2,0,B|48:42,1,56,2|0,0:0|0:0,0:0:0:0:
48,46,98222,1,2,0:0:0:0:
4,155,98393,6,0,L|122:145,1,112,2|2,0:0|0:0,0:0:0:0:
244,84,98907,2,0,L|188:77,1,56,2|0,0:0|0:0,0:0:0:0:
316,195,99250,6,0,P|353:178|396:179,1,84,2|0,3:2|0:0,0:0:0:0:
395,178,99593,2,0,L|365:151,1,28,2|0,0:3|0:0,0:0:0:0:
479,168,99765,2,0,L|501:188,1,28,2|0,0:3|0:0,0:0:0:0:
497,63,99936,6,0,P|464:68|432:47,1,70,14|2,1:2|1:2,0:0:0:0:
333,80,100279,2,0,P|298:82|269:65,1,70,10|0,0:0|1:2,0:0:0:0:
168,93,100622,1,10,0:0:0:0:
168,93,100793,2,0,P|135:98|103:77,1,70,2|10,1:2|0:0,0:0:0:0:
6,240,101136,6,0,P|52:211|106:218,1,105,2|0,1:2|0:0,0:0:0:0:
113,177,101479,2,0,L|121:258,1,70,2|8,1:2|0:0,0:0:0:0:
297,203,101822,2,0,P|265:214|232:204,1,70,2|8,1:2|0:0,0:0:0:0:
96,256,102165,5,2,1:2:0:0:
113,177,102336,1,8,0:0:0:0:
127,100,102507,1,2,1:2:0:0:
5,130,102679,6,0,B|-14:140|-28:130|-28:130|-15:119|5:130,1,70,10|2,0:0|1:2,0:0:0:0:
113,177,103022,2,0,B|133:192|128:206|128:206|112:200|112:177,1,70,10|0,0:0|1:2,0:0:0:0:
99,61,103365,1,10,0:0:0:0:
99,61,103536,2,0,B|103:36|118:33|118:33|121:50|97:62,1,70,2|10,1:2|0:0,0:0:0:0:
233,111,103879,6,0,B|306:101|306:101|323:108|345:110,1,105,2|0,1:2|0:0,0:0:0:0:
336,108,104222,2,0,P|298:108|276:81,1,70,2|8,1:2|0:0,0:0:0:0:
217,214,104565,2,0,L|288:203,1,70,2|8,1:2|0:0,0:0:0:0:
200,315,104907,5,2,1:2:0:0:
277,304,105079,1,8,0:2:0:0:
353,292,105250,1,2,1:2:0:0:
501,376,105422,6,0,L|428:355,1,70,14|2,1:2|1:2,0:0:0:0:
434,378,105765,2,0,L|501:358,1,70,2|0,1:2|1:2,0:0:0:0:
325,366,106107,5,6,1:2:0:0:
214,354,106279,1,2,1:2:0:0:
329,353,106450,1,2,1:2:0:0:
211,367,106622,1,0,1:2:0:0:
13,371,106793,6,0,P|55:366|86:328,1,83.9999974365235,6|2,1:2|1:2,0:0:0:0:
108,372,107136,2,0,P|66:367|35:329,1,83.9999974365235,2|0,1:2|1:2,0:0:0:0:
211,367,107479,5,6,1:2:0:0:
329,353,107650,1,2,1:2:0:0:
214,354,107822,1,2,1:2:0:0:
325,366,107993,1,0,1:2:0:0:
441,270,108165,5,6,1:2:0:0:
439,256,108250,1,0,1:2:0:0:
438,243,108336,1,2,1:2:0:0:
437,230,108422,1,0,1:2:0:0:
436,217,108507,1,2,1:2:0:0:
435,204,108593,1,0,1:2:0:0:
434,191,108679,1,2,1:2:0:0:
432,178,108765,1,0,1:2:0:0:
431,165,108850,1,2,1:2:0:0:
430,152,108936,1,0,1:2:0:0:
429,139,109022,1,2,1:2:0:0:
428,126,109107,1,0,1:2:0:0:
427,113,109193,1,2,1:2:0:0:
425,100,109279,1,0,1:2:0:0:
424,86,109365,1,2,1:2:0:0:
423,73,109450,1,0,1:2:0:0:
440,49,109536,6,0,B|393:69|348:38|348:38|305:8|253:25,1,196,6|0,0:0|0:0,0:0:0:0:
264,7,110222,5,8,0:0:0:0:
258,120,110393,5,0,0:0:0:0:
264,112,110479,1,8,0:0:0:0:
269,103,110565,2,0,L|266:146,1,28,4|4,3:0|0:3,0:0:0:0:
261,208,110736,2,0,L|258:251,1,28,8|8,0:3|0:3,0:0:0:0:
222,341,110907,6,0,P|262:327|312:332,1,87.5,6|2,1:2|0:0,0:0:0:0:
459,237,111250,2,0,L|372:232,1,87.5,10|0,0:0|0:0,0:0:0:0:
419,328,111593,1,2,1:2:0:0:
469,221,111765,2,0,L|382:216,1,87.5,2|10,0:0|0:0,0:0:0:0:
226,84,112107,6,0,P|271:125|334:110,1,131.25,2|0,0:0|0:0,0:0:0:0:
262,60,112450,2,0,L|168:80,1,87.5,2|8,0:0|0:0,0:0:0:0:
37,60,112793,2,0,L|59:146,1,87.5,2|0,0:0|1:2,0:0:0:0:
97,298,113136,5,2,0:0:0:0:
23,249,113307,1,8,0:0:0:0:
126,194,113479,1,2,0:0:0:0:
266,358,113650,6,0,P|225:347|182:359,1,87.5,2|2,1:2|0:0,0:0:0:0:
354,289,113993,2,0,P|343:247|311:216,1,87.5,10|0,0:0|0:0,0:0:0:0:
471,304,114336,1,2,1:2:0:0:
471,304,114507,2,0,P|501:273|512:230,1,87.5,2|10,0:0|0:0,0:0:0:0:
393,79,114850,6,0,L|422:213,1,131.25,2|0,0:0|0:0,0:0:0:0:
424,224,115193,2,0,P|444:186|428:141,1,87.5,2|8,0:0|0:0,0:0:0:0:
287,168,115536,2,0,L|200:161,1,87.5,2|0,0:0|1:2,0:0:0:0:
349,102,115879,5,2,0:0:0:0:
343,240,116050,1,8,0:0:0:0:
432,146,116222,1,2,0:0:0:0:
243,127,116393,6,0,P|199:133|163:98,1,87.5,2|2,1:2|0:0,0:0:0:0:
74,265,116736,2,0,P|90:223|139:210,1,87.5,10|0,0:0|0:0,0:0:0:0:
39,52,117079,1,2,1:2:0:0:
39,52,117250,2,0,P|66:87|53:135,1,87.5,2|10,0:0|0:0,0:0:0:0:
217,67,117593,6,0,B|268:64|268:64|293:79|293:79|344:75,1,131.25,2|0,0:0|0:0,0:0:0:0:
403,123,117936,2,0,P|366:104|320:107,1,87.5,2|8,0:0|0:0,0:0:0:0:
459,18,118279,2,0,P|503:24|543:6,1,87.5,2|0,0:0|1:2,0:0:0:0:
367,0,118622,5,2,0:0:0:0:
403,123,118793,1,8,0:0:0:0:
449,35,118965,1,2,0:0:0:0:
296,78,119136,5,4,1:2:0:0:
296,78,119307,1,2,0:0:0:0:
296,78,119479,2,0,P|266:77|297:75,1,87.5,10|0,0:0|0:0,0:0:0:0:
390,100,119822,2,0,L|479:100,1,87.5,2|0,1:2|0:0,0:0:0:0:
281,71,120165,1,10,0:0:0:0:
172,100,120336,1,2,0:0:0:0:
48,71,120507,6,0,B|29:31|29:31|46:-8,1,87.5,4|2,1:2|0:0,0:0:0:0:
193,100,120850,1,10,0:0:0:0:
47,168,121022,1,2,0:0:0:0:
44,181,121107,1,0,0:0:0:0:
39,194,121193,6,0,P|61:186|85:186,1,43.75,2|0,1:2|0:0,0:0:0:0:
154,113,121365,2,0,P|171:128|183:148,1,43.75,2|0,0:0|0:0,0:0:0:0:
275,241,121536,5,10,0:0:0:0:
262,236,121622,1,8,0:0:0:0:
262,223,121707,1,2,1:2:0:0:
275,219,121793,1,0,1:2:0:0:
282,230,121879,6,0,P|243:246|195:226,1,87.5,6|0,1:2|0:0,0:0:0:0:
127,264,122136,1,2,0:0:0:0:
127,264,122222,2,0,P|86:252|44:266,1,87.5,8|0,0:0|0:0,0:0:0:0:
47,110,122565,1,0,1:2:0:0:
50,122,122650,1,2,0:0:0:0:
54,136,122736,1,0,0:0:0:0:
44,265,122907,2,0,B|139:234|139:234|127:253|124:272,1,131.25,10|0,0:0|0:0,0:0:0:0:
171,282,123250,6,0,P|152:240|172:205,1,87.5,2|0,1:2|0:0,0:0:0:0:
229,151,123507,2,0,P|183:156|156:126,1,87.5,2|0,0:0|0:0,0:0:0:0:
122,55,123765,6,0,P|112:100|75:116,1,87.5,2|0,0:0|1:2,0:0:0:0:
1,121,124022,2,0,P|41:143|45:183,1,87.5,2|0,0:0|0:0,0:0:0:0:
33,253,124279,6,0,P|66:221|105:230,1,87.5,10|0,0:0|0:0,0:0:0:0:
302,145,124622,6,0,L|215:137,1,87.5,2|0,1:2|0:0,0:0:0:0:
151,102,124879,1,2,0:0:0:0:
151,102,124965,2,0,L|239:109,1,87.5,8|0,0:0|0:0,0:0:0:0:
316,8,125307,1,0,1:2:0:0:
319,20,125393,1,2,0:0:0:0:
322,32,125479,1,0,0:0:0:0:
512,22,125650,2,0,P|487:77|422:74,1,131.25,10|0,0:0|0:0,0:0:0:0:
358,124,125993,6,0,B|338:111|316:124|316:124|338:136|359:124,1,87.5,2|0,1:2|0:0,0:0:0:0:
279,14,126250,2,0,B|260:29|266:53|266:53|284:36|279:13,1,87.5,2|0,0:0|0:0,0:0:0:0:
149,54,126507,6,0,B|157:76|182:78|182:78|171:56|148:53,1,87.5,2|0,0:0|1:2,0:0:0:0:
147,188,126765,2,0,B|171:187|180:164|180:164|155:167|146:188,1,87.5,2|0,0:0|0:0,0:0:0:0:
275,232,127022,6,0,B|281:208|262:192|262:192|258:217|275:232,1,87.5,10|0,0:0|0:0,0:0:0:0:
277,372,127365,6,0,P|313:342|370:348,1,101.500003097534,6|0,1:2|0:0,0:0:0:0:
200,312,127622,2,0,P|164:282|107:288,1,101.500003097534,6|0,1:2|0:0,0:0:0:0:
275,232,127879,2,0,P|324:236|363:205,1,101.500003097534,6|0,1:2|0:0,0:0:0:0:
198,155,128136,2,0,P|148:159|109:128,1,101.500003097534,6|0,1:2|0:0,0:0:0:0:
251,46,128393,6,0,B|243:27|243:27|251:10|251:10|259:27|259:27|250:46,1,78.7500030040742,2|0,3:3|0:0,0:0:0:0:
275,150,128736,6,0,L|225:136,1,50.7500015487671,6|0,1:2|0:0,0:0:0:0:
225,151,128907,2,0,L|275:137,1,50.7500015487671,6|0,1:2|0:0,0:0:0:0:
128,146,129079,2,0,B|87:158|54:132|54:132|25:108|-16:124,2,152.250004646301,6|6|6,1:2|1:2|1:2,0:0:0:0:
47,261,129765,6,0,L|53:289,1,26.2500010013581,2|0,3:2|0:0,0:0:0:0:
61,273,129936,2,0,L|55:248,1,26.2500010013581,2|0,3:2|0:0,0:0:0:0:
87,377,130107,5,6,1:2:0:0:
110,367,130193,1,2,0:0:0:0:
133,377,130279,1,2,1:2:0:0:
156,367,130365,1,0,1:2:0:0:
178,377,130450,1,2,1:2:0:0:
201,367,130536,1,2,1:2:0:0:
224,377,130622,1,2,1:2:0:0:
247,367,130707,1,0,1:2:0:0:
271,377,130793,5,6,1:2:0:0:
315,382,130879,1,2,0:0:0:0:
355,362,130965,1,2,0:0:0:0:
381,325,131050,1,4,1:2:0:0:
384,279,131136,1,2,0:0:0:0:
360,239,131222,1,2,0:0:0:0:
322,214,131307,1,6,1:2:0:0:
276,219,131393,1,2,0:0:0:0:
236,241,131479,6,0,L|246:185,1,50.7500015487671,6|2,1:2|0:0,0:0:0:0:
157,249,131650,6,0,L|164:204,1,41.9999987182618,2|0,0:0|0:0,0:0:0:0:
78,256,131822,6,0,L|83:216,1,35,2|2,0:0|0:0,0:0:0:0:
0,262,131993,6,0,L|4:226,1,28,2|2,0:0|0:0,0:0:0:0:
49,374,132165,6,0,P|89:347|144:354,1,105.000004005432,10|0,0:0|0:0,0:0:0:0:
240,295,132422,2,0,P|267:275|239:294,1,105.000004005432,2|0,1:2|0:0,0:0:0:0:
371,217,132679,2,0,B|286:224|286:224|245:243|245:243|202:229|202:229|112:234,1,262.500010013581,6|0,1:2|0:0,0:0:0:0:
35,219,133193,6,0,B|15:235|-12:240|-12:240|15:243|40:257,1,105,8|0,0:3|0:0,0:0:0:0:
150,150,133536,6,0,B|164:125|147:101|147:101|132:125|150:150,1,105.000004005432,10|0,0:0|0:0,0:0:0:0:
161,311,133793,2,0,B|146:335|164:360|164:360|181:333|161:311,1,105.000004005432,2|0,1:2|0:0,0:0:0:0:
282,228,134050,2,0,B|325:211|357:236|357:236|392:261|431:247,1,157.500006008148,2|0,1:2|0:0,0:0:0:0:
443,170,134393,5,0,3:2:0:0:
443,170,134479,1,0,3:2:0:0:
443,170,134565,2,0,L|401:173,1,35,2|0,3:2|0:0,0:0:0:0:
453,153,134736,2,0,L|411:156,1,35,2|0,3:2|0:0,0:0:0:0:
483,63,134907,6,0,B|495:41|495:41|414:46,1,101.500003097534,10|0,0:0|0:0,0:0:0:0:
300,50,135165,2,0,B|312:28|312:28|231:33,1,101.500003097534,2|0,1:2|0:0,0:0:0:0:
123,42,135422,2,0,B|41:7|0:26|0:26|43:46|123:9,1,253.750007743836,2|0,1:2|0:0,0:0:0:0:
89,129,135936,6,0,L|93:172,1,35,2|0,0:0|0:0,0:0:0:0:
73,149,136107,2,0,L|125:146,1,35,2|0,0:0|0:0,0:0:0:0:
57,279,136279,6,0,L|166:270,1,105.000004005432,10|0,0:0|0:0,0:0:0:0:
264,212,136536,2,0,B|255:93,1,105.000004005432,2|0,1:2|0:0,0:0:0:0:
375,251,136793,2,0,B|517:239|517:239|552:269|549:320|503:336,1,262.500010013581,2|0,1:2|0:0,0:0:0:0:
475,213,137307,5,2,0:0:0:0:
477,201,137393,1,2,0:0:0:0:
480,189,137479,2,0,L|486:148,1,35,2|0,0:0|0:0,0:0:0:0:
512,349,137650,6,0,P|462:358|420:313,1,105.000004005432,10|0,0:0|0:0,0:0:0:0:
325,365,137907,2,0,P|275:374|233:329,1,105.000004005432,2|0,1:2|0:0,0:0:0:0:
139,379,138165,2,0,P|89:388|29:290,1,157.500006008148,2|0,1:2|0:0,0:0:0:0:
13,222,138507,5,2,0:0:0:0:
40,232,138593,1,2,0:0:0:0:
67,222,138679,1,0,3:2:0:0:
102,232,138765,5,2,0:0:0:0:
129,222,138851,1,2,0:0:0:0:
157,232,138937,1,2,0:0:0:0:
261,257,139022,6,0,B|342:257|342:257|328:284,1,105.000004005432,10|0,0:0|0:0,0:0:0:0:
173,303,139279,2,0,B|132:232|132:232|162:231,1,105.000004005432,2|0,1:2|0:0,0:0:0:0:
253,384,139536,2,0,P|302:336|391:343,1,157.500006008148,2|0,1:2|0:0,0:0:0:0:
437,261,139879,5,0,3:0:0:0:
437,261,139965,1,0,3:0:0:0:
437,261,140050,2,0,P|423:239|427:209,1,52.5000020027161,2|0,3:2|0:0,0:0:0:0:
512,244,140222,2,0,P|513:218|499:196,1,52.5000020027161,2|0,3:2|0:0,0:0:0:0:
380,110,140393,6,0,B|402:120|431:120|431:120|402:120|380:132,1,105.000004005432,10|0,0:0|0:0,0:0:0:0:
267,201,140650,2,0,B|245:191|216:191|216:191|245:191|267:179,1,105.000004005432,2|0,1:2|0:0,0:0:0:0:
323,280,140907,2,0,B|279:223|326:152|326:152|365:89|326:34,1,262.500010013581,2|0,1:2|0:0,0:0:0:0:
284,43,141422,6,0,P|322:77|371:56,1,105,2|0,0:0|0:0,0:0:0:0:
480,138,141765,6,0,P|514:138|480:137,1,105.000004005432,10|0,0:0|0:0,0:0:0:0:
394,215,142022,2,0,P|405:247|396:214,1,105.000004005432,2|0,1:2|0:0,0:0:0:0:
455,337,142279,2,0,P|390:292|311:308,1,157.500006008148,2|0,1:2|0:0,0:0:0:0:
216,235,142622,5,2,0:0:0:0:
213,242,142707,1,2,0:0:0:0:
210,249,142793,2,0,L|253:244,1,35,2|0,1:2|0:0,0:0:0:0:
101,263,142965,2,0,L|144:258,1,35
22,272,143136,1,10,0:0:0:0:
0,119,143307,5,0,1:2:0:0:
18,156,143393,1,2,1:2:0:0:
57,171,143479,1,8,0:0:0:0:
97,161,143565,1,8,0:0:0:0:
126,129,143650,6,0,B|134:217|134:217|141:302|225:311|245:242,1,262.500010013581,6|0,1:2|0:0,0:0:0:0:
287,316,144165,6,0,P|260:289|195:288,1,105,2|0,0:0|0:0,0:0:0:0:
372,261,144507,6,0,B|402:255|422:268|422:268|444:282|472:276,1,105.000004005432,10|0,0:0|0:0,0:0:0:0:
474,262,144765,2,0,B|444:256|424:269|424:269|402:283|374:277,1,105.000004005432,2|0,1:2|0:0,0:0:0:0:
254,271,145022,2,0,B|203:272|203:272|178:281|178:281|153:272|153:272|95:272,1,157.500006008148,2|0,1:2|0:0,0:0:0:0:
32,235,145365,5,0,3:0:0:0:
32,235,145450,1,0,3:0:0:0:
32,235,145536,2,0,L|80:235,1,35,2|0,3:2|0:0,0:0:0:0:
34,307,145707,2,0,L|82:307,1,35,2|0,3:2|0:0,0:0:0:0:
160,384,145879,6,0,P|196:353|258:360,1,105.000004005432,10|0,0:0|0:0,0:0:0:0:
341,254,146136,2,0,P|375:255|341:255,1,105.000004005432,2|0,1:2|0:0,0:0:0:0:
374,378,146393,2,0,L|348:115,1,262.500010013581,2|0,1:2|0:0,0:0:0:0:
456,112,146907,6,0,P|450:127|426:125,1,35,2|0,0:0|0:0,0:0:0:0:
351,146,147079,2,0,P|341:132|356:113,1,35,2|0,0:0|0:0,0:0:0:0:
399,282,147250,6,0,P|354:254|301:261,1,105.000004005432,10|0,0:0|0:0,0:0:0:0:
199,218,147507,2,0,B|174:228|174:228|151:216|151:216|174:206|174:206|199:217,1,105.000004005432,2|0,1:2|0:0,0:0:0:0:
46,270,147765,2,0,P|-4:214|41:162,1,157.500006008148,2|0,1:2|0:0,0:0:0:0:
63,53,148107,5,2,0:0:0:0:
65,63,148193,1,2,0:0:0:0:
68,73,148279,1,0,1:2:0:0:
71,83,148365,5,2,0:0:0:0:
81,48,148450,1,2,0:0:0:0:
93,14,148536,1,2,0:0:0:0:
175,55,148622,6,0,B|219:53|219:53|234:61|234:61|278:58,1,105.000004005432,10|0,0:0|0:0,0:0:0:0:
429,114,148879,2,0,B|446:92|446:92|368:97,1,105.000004005432,2|0,1:2|0:0,0:0:0:0:
421,11,149136,2,0,B|435:191|435:191|466:233|507:206,1,262.500010013581,6|0,1:2|0:0,0:0:0:0:
430,248,149650,6,0,P|480:249|505:206,1,105,2|0,0:0|0:0,0:0:0:0:
296,210,149993,6,0,B|288:180|303:159|303:159|312:183|296:210,1,105.000004005432,10|0,0:0|0:0,0:0:0:0:
188,234,150250,2,0,B|159:225|148:203|148:203|173:206|188:233,1,105.000004005432,2|0,1:2|0:0,0:0:0:0:
159,337,150507,2,0,B|137:358|111:354|111:354|128:335|158:336,1,105.000004005432,2|0,1:2|0:0,0:0:0:0:
26,260,150765,1,2,1:2:0:0:
26,260,150850,1,8,0:0:0:0:
26,260,150936,1,8,0:0:0:0:
26,260,151022,6,0,B|-11:258|-11:258|-9:186,1,105,2|0,1:2|0:0,0:0:0:0:
54,342,151365,6,0,L|160:336,1,105.000004005432,10|0,0:0|0:0,0:0:0:0:
132,218,151622,2,0,L|238:212,1,105.000004005432,2|0,1:2|0:0,0:0:0:0:
210,94,151879,2,0,B|327:89|327:89|351:102|351:102|468:97,1,262.500010013581,6|0,1:2|0:0,0:0:0:0:
497,5,152393,5,2,0:0:0:0:
505,11,152479,1,2,0:0:0:0:
512,18,152565,2,0,L|471:19,1,35,2|0,0:0|0:0,0:0:0:0:
374,120,152736,6,0,P|374:154|375:120,1,105.000004005432,10|0,0:0|0:0,0:0:0:0:
264,52,152993,2,0,P|222:83|170:72,1,105.000004005432,2|0,1:2|0:0,0:0:0:0:
63,120,153250,2,0,P|136:108|202:157,1,157.500006008148,6|0,1:2|0:0,0:0:0:0:
375,67,153593,6,0,L|372:128,1,52.5000020027161,10|0,0:0|0:0,0:0:0:0:
294,95,153765,2,0,B|356:95|356:95|373:101|373:101|390:95|390:95|457:95,1,157.500006008148,2|0,1:2|0:0,0:0:0:0:
512,189,154107,6,0,P|474:256|404:240,1,157.500006008148,10|0,0:0|1:2,0:0:0:0:
323,318,154450,5,8,0:0:0:0:
355,291,154536,1,8,0:0:0:0:
398,287,154622,1,8,0:0:0:0:
435,304,154707,1,8,0:0:0:0:
461,345,154793,5,6,1:2:0:0:
256,192,154880,12,2,157626,0:0:0:0:
256,192,157719,12,2,160499,0:0:0:0:
