osu file format v14

[General]
AudioFilename: audio.mp3
AudioLeadIn: 0
PreviewTime: 110867
Countdown: 0
SampleSet: Soft
StackLeniency: 0.7
Mode: 0
LetterboxInBreaks: 0
WidescreenStoryboard: 1

[Editor]
Bookmarks: 13112,25912,38712,50712,63512,77112,88946,99936,110907,121879,132165,143136
DistanceSpacing: 0.6
BeatDivisor: 4
GridSize: 4
TimelineZoom: 1.5

[Metadata]
Title:Aoba
TitleUnicode:Aoba
Artist:ARForest
ArtistUnicode:ARForest
Creator:Niva
Version:Hard
Source:Tone Sphere
Tags:AFST-002 the unfinished instrumental video game
BeatmapID:2366848
BeatmapSetID:1131726

[Difficulty]
HPDrainRate:5
CircleSize:3.5
OverallDifficulty:6
ApproachRate:8
SliderMultiplier:1.4
SliderTickRate:1

[Events]
//Background and Video events
0,0,"bg.jpg",0,0
//Break Periods
2,77322,88215
//Storyboard Layer 0 (Background)
//Storyboard Layer 1 (Fail)
//Storyboard Layer 2 (Pass)
//Storyboard Layer 3 (Foreground)
//Storyboard Layer 4 (Overlay)
//Storyboard Sound Samples

[TimingPoints]
322,400,4,2,1,40,1,0
322,-153.846153846154,4,2,1,40,0,0
12522,-153.846153846154,4,2,1,45,0,0
12722,-153.846153846154,4,2,1,50,0,0
12922,-153.846153846154,4,2,1,55,0,0
13122,-125,4,2,1,60,0,0
25922,-125,4,2,1,70,0,0
49922,-153.846153846154,4,2,1,70,0,0
50322,-166.666666666667,4,2,1,60,0,0
50722,-95.2380952380952,4,2,77,85,0,1
51922,-133.333333333333,4,2,77,85,0,1
52322,-95.2380952380952,4,2,77,85,0,1
53522,-133.333333333333,4,2,77,85,0,1
53922,-95.2380952380952,4,2,77,85,0,1
55122,-133.333333333333,4,2,77,85,0,1
55522,-95.2380952380952,4,2,77,85,0,1
56722,-133.333333333333,4,2,77,85,0,1
57122,-95.2380952380952,4,2,77,85,0,1
59922,-133.333333333333,4,2,77,85,0,1
60322,-95.2380952380952,4,2,77,85,0,1
61522,-133.333333333333,4,2,77,85,0,1
61922,-95.2380952380952,4,2,77,85,0,1
62922,-95.2380952380952,4,2,77,85,0,1
63522,-95.2380952380952,4,2,77,85,0,1
64722,-133.333333333333,4,2,77,85,0,1
65122,-95.2380952380952,4,2,77,85,0,1
67922,-133.333333333333,4,2,77,85,0,1
68322,-95.2380952380952,4,2,77,85,0,1
70922,-133.333333333333,4,2,77,85,0,1
71522,-95.2380952380952,4,2,77,85,0,1
72722,-95.2380952380952,4,2,77,85,0,1
73122,-95.2380952380952,4,2,77,85,0,1
74122,-133.333333333333,4,2,77,85,0,1
74722,-95.2380952380952,4,2,77,85,0,1
77222,-71.4285714285714,4,2,1,5,0,0
77912,397.350993377483,4,2,0,5,1,0
78706,390.879478827362,4,2,0,5,1,0
79487,388.349514563107,4,2,0,5,1,0
80263,387.096774193549,4,2,0,5,1,0
81037,372.670807453416,4,2,0,5,1,0
81782,370.37037037037,4,2,0,5,1,0
82522,368.098159509202,4,2,0,5,1,0
83994,365.853658536585,4,2,0,5,1,0
84725,357.142857142857,4,2,0,5,1,0
85439,355.029585798816,4,2,0,5,1,0
86859,352.941176470588,4,2,0,5,1,0
87564,348.837209302325,4,2,0,5,1,0
88261,342.857142857143,4,2,0,5,1,0
88965,342.857142857143,4,2,0,5,1,0
88965,-125,4,2,77,70,0,0
99936,-125,4,2,77,80,0,0
106793,-125,4,2,77,80,0,0
109536,-142.857142857143,4,2,77,80,0,0
109622,-142.857142857143,4,2,77,70,0,0
110222,-142.857142857143,4,2,0,70,0,0
110907,-100,4,2,77,90,0,0
127365,-100,4,2,77,90,0,0
128393,-125,4,2,77,90,0,0
128736,-100,4,2,77,90,0,0
129679,-125,4,2,77,90,0,0
130107,-100,4,2,77,90,0,0
131479,-125,4,2,77,90,0,0
131650,-83.3333333333333,4,2,77,90,0,0
131822,-100,4,2,77,90,0,0
131993,-125,4,2,77,90,0,0
132165,-95.2380952380952,4,2,77,90,0,1
133193,-125,4,2,77,90,0,1
133536,-95.2380952380952,4,2,77,90,0,1
134393,-100,4,2,77,90,0,1
134907,-95.2380952380952,4,2,77,90,0,1
135936,-100,4,2,77,90,0,1
136279,-95.2380952380952,4,2,77,90,0,1
137307,-100,4,2,77,90,0,1
137650,-95.2380952380952,4,2,77,90,0,1
141422,-125,4,2,77,90,0,1
141765,-95.2380952380952,4,2,77,90,0,1
142622,-100,4,2,77,90,0,1
143650,-95.2380952380952,4,2,77,90,0,1
144165,-125,4,2,77,90,0,1
144507,-95.2380952380952,4,2,77,90,0,1
145365,-100,4,2,77,90,0,1
145879,-95.2380952380952,4,2,77,90,0,1
146907,-100,4,2,77,90,0,1
147250,-95.2380952380952,4,2,77,90,0,1
149650,-125,4,2,77,90,0,1
149993,-95.2380952380952,4,2,77,90,0,1
150995,-95.2380952380952,4,2,77,90,0,1
151365,-95.2380952380952,4,2,77,90,0,1
152393,-100,4,2,77,90,0,1
152736,-95.2380952380952,4,2,77,90,0,1
154793,348.837209302326,4,2,77,90,1,0
154880,-100,4,2,0,50,0,0
155471,352.941176470589,4,2,0,50,1,0
156176,357.142857142858,4,2,0,50,1,0
156176,-100,4,2,0,45,0,0
156890,368.098159509203,4,2,0,45,1,0
157626,372.670807453417,4,2,0,40,1,0
158371,379.746835443038,4,2,0,40,1,0
159130,382.165605095541,4,2,0,35,1,0
159512,387.096774193548,4,2,0,35,1,0
159899,400,4,2,0,35,1,0
160499,-100,4,2,0,30,0,0

[Colours]
Combo1 : 17,254,176
Combo2 : 173,255,95
Combo3 : 255,88,100
Combo4 : 255,94,55

[HitObjects]
70,95,322,6,0,P|115:104|157:75,1,90.9999958343508,6|0,0:0|0:0,0:0:0:0:
152,81,1122,1,0,0:0:0:0:
277,211,1522,6,0,P|238:186|188:198,1,90.9999958343508,2|0,0:0|0:0,0:0:0:0:
195,194,2322,1,0,0:0:0:0:
331,108,2722,6,0,L|376:100,1,45.4999979171754,2|0,0:0|0:0,0:0:0:0:
461,108,3122,2,0,L|505:100,1,45.4999979171754,0|0,0:0|0:0,0:0:0:0:
506,196,3522,6,0,P|525:235|507:278,1,90.9999958343508,2|0,0:0|0:0,0:0:0:0:
508,276,4322,1,0,0:0:0:0:
336,289,4722,6,0,P|363:324|407:327,1,90.9999958343508,2|0,0:0|0:0,0:0:0:0:
407,326,5522,1,0,0:0:0:0:
227,270,5922,6,0,L|233:324,1,45.4999979171754,2|0,0:0|0:0,0:0:0:0:
244,193,6322,2,0,L|250:247,1,45.4999979171754,0|0,0:0|0:0,0:0:0:0:
274,114,6722,6,0,P|236:136|190:126,1,90.9999958343508,2|0,0:0|0:0,0:0:0:0:
192,127,7522,1,0,0:0:0:0:
45,222,7922,6,0,P|89:213|128:236,1,90.9999958343508,2|0,0:0|0:0,0:0:0:0:
127,235,8722,1,0,0:0:0:0:
104,100,9122,6,0,L|112:40,1,45.4999979171754,2|0,0:0|0:0,0:0:0:0:
196,54,9522,2,0,L|190:100,1,45.4999979171754,0|0,0:0|0:0,0:0:0:0:
289,83,9922,6,0,P|332:89|368:60,1,90.9999958343508,2|0,0:0|0:0,0:0:0:0:
367,60,10722,1,0,0:0:0:0:
453,213,11122,6,0,P|446:169|473:134,1,90.9999958343508,2|0,0:0|0:0,0:0:0:0:
473,134,11922,1,0,0:0:0:0:
330,198,12322,6,0,L|290:242,1,45.4999979171754,2|0,0:0|0:0,0:0:0:0:
252,310,12722,2,0,L|218:279,1,45.4999979171754,2|2,0:0|0:0,0:0:0:0:
149,208,13122,6,0,B|107:231|70:203|70:203|32:175|-7:198,1,168,2|0,0:0|0:0,0:0:0:0:
57,145,13922,2,0,L|52:78,2,56,8|0|0,0:0|0:0|0:0,0:0:0:0:
123,209,14522,2,0,L|134:337,1,112,0|0,0:0|0:0,0:0:0:0:
222,287,15122,2,0,L|277:282,1,56,0|0,0:0|0:0,0:0:0:0:
379,295,15522,6,0,P|367:270|376:241,1,56,10|0,0:0|0:0,0:0:0:0:
467,285,15922,2,0,P|473:258|461:233,1,56,2|2,0:0|0:0,0:0:0:0:
508,382,16322,6,0,B|433:377|433:377|415:385|415:385|342:381,1,168,2|0,0:0|0:0,0:0:0:0:
290,302,17122,2,0,P|321:300|345:276,2,56,8|0|0,0:0|0:0|0:0,0:0:0:0:
204,334,17722,2,0,B|128:334|128:334|88:356,1,112,0|0,0:0|0:0,0:0:0:0:
88,259,18322,2,0,L|38:286,1,56,0|0,0:0|0:0,0:0:0:0:
128,179,18722,6,0,L|101:129,1,56,10|2,0:0|0:0,0:0:0:0:
216,195,19122,2,0,L|266:168,1,56,2|0,0:0|0:0,0:0:0:0:
366,207,19522,6,0,P|422:168|358:122,1,168,2|0,0:0|0:0,0:0:0:0:
318,36,20322,2,0,L|379:36,2,56,8|0|0,0:0|0:0|0:0,0:0:0:0:
229,54,20922,2,0,B|205:35|205:35|152:35|152:35|128:15,1,112,0|0,0:0|0:0,0:0:0:0:
41,36,21522,2,0,L|-17:36,1,56,0|0,0:0|0:0,0:0:0:0:
130,16,21922,5,10,0:0:0:0:
130,16,22122,2,0,L|136:76,1,56,0|2,0:0|0:0,0:0:0:0:
99,152,22522,2,0,P|161:106|247:113,1,168,2|0,0:0|0:0,0:0:0:0:
328,65,23322,1,0,0:0:0:0:
328,65,23522,2,0,B|357:72|357:72|388:62,2,56,8|0|0,0:0|0:0|0:0,0:0:0:0:
231,0,24122,6,0,L|247:174,1,168,2|0,0:0|0:0,0:0:0:0:
289,250,24922,1,0,0:0:0:0:
289,250,25122,2,0,L|291:186,1,56,8|0,0:0|0:0,0:0:0:0:
258,333,25522,2,0,P|241:350|261:337,1,56,2|2,0:0|0:0,0:0:0:0:
369,372,25922,6,0,B|408:367|408:367|438:381|438:381|477:375,1,112,6|0,1:2|0:0,0:0:0:0:
512,287,26522,1,0,0:0:0:0:
512,287,26722,2,0,P|523:262|508:237,2,56,8|2|2,0:0|0:0|0:0,0:0:0:0:
412,267,27322,6,0,B|378:267|378:267|356:275|356:275|334:267|334:267|300:267,1,112,2|0,0:0|0:0,0:0:0:0:
217,298,27922,2,0,P|189:293|173:267,1,56,0|2,1:2|0:0,0:0:0:0:
82,258,28322,2,0,P|72:231|86:204,1,56,10|2,0:0|0:0,0:0:0:0:
49,121,28722,2,0,P|67:99|97:98,1,56,2|0,0:0|0:0,0:0:0:0:
176,32,29122,6,0,B|226:32|226:32|236:38|236:38|286:38,1,112,2|0,1:2|0:0,0:0:0:0:
380,55,29722,1,0,0:0:0:0:
380,55,29922,2,0,L|371:-2,2,56,8|2|2,0:0|0:0|0:0,0:0:0:0:
322,136,30522,6,0,L|339:258,1,112,2|0,0:0|0:0,0:0:0:0:
429,269,31122,2,0,P|443:245|424:224,1,56,0|0,1:2|0:0,0:0:0:0:
337,246,31522,2,0,L|280:242,1,56,10|0,0:0|0:0,0:0:0:0:
190,246,31922,2,0,L|133:242,1,56,2|2,0:0|0:0,0:0:0:0:
69,175,32322,6,0,P|124:187|166:153,1,112,2|0,1:2|0:0,0:0:0:0:
259,166,32922,1,0,0:0:0:0:
259,166,33122,2,0,P|249:136|264:110,2,56,8|2|2,0:0|0:0|0:0,0:0:0:0:
217,257,33722,6,0,B|239:275|239:275|294:275|294:275|317:296,1,112,2|0,0:0|0:0,0:0:0:0:
399,253,34322,2,0,B|409:227|409:227|393:197,1,56,0|0,1:2|0:0,0:0:0:0:
469,145,34722,2,0,P|459:118|470:93,1,56,8|2,0:0|0:0,0:0:0:0:
394,39,35122,1,2,0:0:0:0:
299,1,35322,6,0,B|264:1|264:1|243:7|243:7|220:0|220:0|181:0,1,112,2|0,0:0|0:0,0:0:0:0:
101,42,35922,1,2,0:0:0:0:
101,42,36122,2,0,L|158:42,1,56,2|8,0:0|0:0,0:0:0:0:
114,128,36522,2,0,L|180:128,1,56,2|2,0:0|0:0,0:0:0:0:
129,215,36922,6,0,B|208:215|208:215|243:238,1,112,2|2,0:0|0:0,0:0:0:0:
304,191,37522,2,0,P|278:199|252:191,1,56,2|0,1:2|0:0,0:0:0:0:
378,244,37922,2,0,P|371:270|352:289,1,56,10|0,0:0|0:0,0:0:0:0:
469,230,38322,1,2,0:0:0:0:
512,145,38522,1,2,0:0:0:0:
427,64,38722,6,0,L|303:64,1,112,6|0,1:2|0:0,0:0:0:0:
226,96,39322,1,0,0:0:0:0:
226,96,39522,2,0,L|219:36,2,56,8|2|2,0:0|0:0|0:0,0:0:0:0:
265,196,40122,6,0,L|143:196,1,112,2|2,0:0|0:0,0:0:0:0:
75,241,40722,2,0,L|47:289,1,56,2|0,1:2|0:0,0:0:0:0:
74,150,41122,2,0,L|45:101,1,56,10|0,0:0|0:0,0:0:0:0:
45,101,41522,1,2,0:0:0:0:
111,16,41722,6,0,P|154:50|209:41,1,112,2|2,0:0|0:0,0:0:0:0:
277,117,42322,2,0,P|292:93|297:66,1,56,2|0,0:0|0:0,0:0:0:0:
386,43,42722,2,0,P|410:64|421:96,1,56,10|0,0:0|0:0,0:0:0:0:
419,85,43122,1,2,0:0:0:0:
479,195,43322,6,0,L|363:186,1,112,2|0,0:0|0:0,0:0:0:0:
288,229,43922,2,0,P|312:223|344:223,1,56,0|0,1:2|0:0,0:0:0:0:
203,193,44322,1,8,0:0:0:0:
203,193,44522,2,0,P|171:195|141:188,2,56,2|2|2,0:0|0:0|0:0,0:0:0:0:
58,237,45122,6,0,L|-2:237,1,56,0|2,1:2|0:0,0:0:0:0:
58,150,45522,2,0,L|0:150,1,56,2|2,1:2|0:0,0:0:0:0:
154,252,45922,6,0,L|92:252,1,56,8|2,1:2|0:0,0:0:0:0:
154,132,46322,2,0,L|92:132,1,56,2|2,1:2|0:0,0:0:0:0:
239,192,46722,5,2,1:2:0:0:
255,192,46822,1,2,0:0:0:0:
271,192,46922,1,2,0:0:0:0:
287,192,47022,1,2,0:0:0:0:
304,201,47122,6,0,L|301:158,3,28,2|2|2|2,1:2|0:0|0:0|0:0,0:0:0:0:
390,223,47522,2,0,L|414:199,3,28,10|2|2|2,1:2|0:0|0:0|0:0,0:0:0:0:
420,306,47922,2,0,L|456:311,3,28,2|2|2|2,1:2|0:0|0:0|0:0,0:0:0:0:
317,350,48322,6,0,P|311:335|321:321,3,28,2|2|2|0,1:2|0:0|1:2|0:0,0:0:0:0:
213,288,48722,2,0,P|225:277|241:282,3,28,2|2|2|2,1:2|0:0|1:2|0:0,0:0:0:0:
239,169,49122,2,0,P|252:177|252:194,3,28,10|2|2|0,1:2|1:2|1:2|1:2,0:0:0:0:
360,157,49522,2,0,P|356:172|339:178,3,28,2|2|2|2,1:2|1:2|1:2|1:2,0:0:0:0:
394,262,49922,6,0,B|429:253|458:275|458:275|489:297|524:284,1,136.499993751526,2|2,0:0|0:0,0:0:0:0:
503,178,50722,6,0,B|518:144|518:144|499:109,1,73.4999977569581,10|0,0:2|0:0,0:0:0:0:
512,69,51022,2,0,L|432:73,1,73.4999977569581,2|0,1:2|0:0,0:0:0:0:
400,50,51322,2,0,P|342:73|284:11,1,146.999995513916,6|0,1:2|0:0,0:0:0:0:
148,54,51922,6,0,L|205:51,1,52.5000020027161,8|0,0:3|0:0,0:0:0:0:
52,21,52322,6,0,P|40:56|61:95,1,73.4999977569581,10|0,0:0|0:0,0:0:0:0:
28,125,52622,2,0,P|52:152|96:154,1,73.4999977569581,2|0,1:2|0:0,0:0:0:0:
104,199,52922,2,0,B|158:190|158:190|192:210|192:210|245:200,1,146.999995513916,2|0,1:2|0:0,0:0:0:0:
319,125,53522,5,2,0:0:0:0:
316,113,53622,1,2,0:0:0:0:
313,101,53722,1,2,0:0:0:0:
417,159,53922,6,0,L|501:142,1,73.4999977569581,10|0,0:0|0:0,0:0:0:0:
489,144,54222,2,0,P|508:177|489:212,1,73.4999977569581,2|0,1:2|0:0,0:0:0:0:
512,248,54522,2,0,P|445:255|421:329,1,146.999995513916,2|0,1:2|0:0,0:0:0:0:
309,299,55122,5,2,0:0:0:0:
223,299,55322,1,2,0:0:0:0:
126,331,55522,6,0,L|42:331,1,73.4999977569581,10|0,0:0|0:0,0:0:0:0:
11,343,55822,2,0,B|-7:309|-7:309|8:272,1,73.4999977569581,2|0,1:2|0:0,0:0:0:0:
0,232,56122,2,0,P|71:238|114:172,1,146.999995513916,2|0,1:2|0:0,0:0:0:0:
217,126,56722,6,0,P|198:134|218:143,1,52.5000020027161,4|0,1:3|0:0,0:0:0:0:
205,252,57122,6,0,L|277:243,1,73.4999977569581,10|0,0:0|0:0,0:0:0:0:
314,268,57422,2,0,L|386:259,1,73.4999977569581,2|0,1:2|0:0,0:0:0:0:
424,283,57722,2,0,P|492:276|493:191,1,146.999995513916,2|2,1:2|3:2,0:0:0:0:
467,120,58322,2,0,L|515:112,2,36.749998878479,2|2|2,0:2|0:2|0:2,0:0:0:0:
379,48,58722,6,0,B|345:59|345:59|306:47,1,73.4999977569581,10|0,0:0|0:0,0:0:0:0:
273,74,59022,2,0,P|261:106|279:143,1,73.4999977569581,2|0,1:2|0:0,0:0:0:0:
312,167,59322,2,0,B|221:167|221:167|169:202,1,146.999995513916,2|0,1:2|0:0,0:0:0:0:
127,85,59922,5,2,0:0:0:0:
133,94,60022,1,2,0:0:0:0:
138,104,60122,1,2,0:0:0:0:
26,107,60322,6,0,L|62:174,1,73.4999977569581,10|0,0:0|0:0,0:0:0:0:
32,205,60622,2,0,P|39:242|75:262,1,73.4999977569581,2|0,1:2|0:0,0:0:0:0:
45,300,60922,2,0,B|85:290|112:313|112:313|142:339|184:328,1,146.999995513916,2|0,1:2|0:0,0:0:0:0:
275,244,61522,6,0,B|261:265|261:265|241:244,1,52.5000020027161,2|0,0:0|0:0,0:0:0:0:
338,328,61922,6,0,L|412:328,1,73.4999977569581,10|0,0:0|0:0,0:0:0:0:
446,355,62222,2,0,P|482:357|506:331,1,73.4999977569581,2|0,1:2|0:0,0:0:0:0:
512,287,62522,2,0,B|526:253|526:253|510:220,1,73.4999977569581,2|0,1:2|0:0,0:0:0:0:
437,147,62922,1,2,0:0:0:0:
437,147,63022,1,2,0:0:0:0:
437,147,63122,2,0,B|423:113|423:113|437:80,1,73.4999977569581,2|0,1:2|0:0,0:0:0:0:
317,114,63522,6,0,L|234:114,1,73.4999977569581,10|0,0:0|1:2,0:0:0:0:
248,131,63822,1,2,1:2:0:0:
251,149,63922,1,8,0:0:0:0:
254,167,64022,1,8,0:0:0:0:
258,184,64122,6,0,P|187:206|140:153,1,146.999995513916,6|0,1:2|0:0,0:0:0:0:
56,107,64722,6,0,L|-1:107,1,52.5000020027161,2|0,0:0|0:0,0:0:0:0:
113,25,65122,6,0,B|147:35|147:35|183:24,1,73.4999977569581,10|0,0:0|0:0,0:0:0:0:
219,51,65422,2,0,L|303:51,1,73.4999977569581,2|0,1:2|0:0,0:0:0:0:
327,23,65722,2,0,P|367:78|439:64,1,146.999995513916,2|0,1:2|0:0,0:0:0:0:
492,182,66322,5,2,1:2:0:0:
490,168,66422,1,2,0:0:0:0:
488,152,66522,1,2,0:0:0:0:
392,218,66722,6,0,L|403:302,1,73.4999977569581,10|0,0:0|0:0,0:0:0:0:
430,325,67022,2,0,L|350:333,1,73.4999977569581,2|0,1:2|0:0,0:0:0:0:
324,363,67322,2,0,P|278:312|204:318,1,146.999995513916,2|0,1:2|0:0,0:0:0:0:
100,256,67922,5,2,0:0:0:0:
119,337,68122,1,2,0:0:0:0:
184,232,68322,6,0,L|168:159,1,73.4999977569581,10|0,0:0|0:0,0:0:0:0:
178,117,68622,2,0,B|140:128|140:128|98:116,1,73.4999977569581,2|0,1:2|0:0,0:0:0:0:
74,91,68922,2,0,P|6:112|12:178,1,146.999995513916,2|2,1:2|0:0,0:0:0:0:
30,273,69522,2,0,L|-15:269,2,36.749998878479,2|2|2,3:2|3:2|3:2,0:0:0:0:
126,212,69922,6,0,L|206:220,1,73.4999977569581,10|0,0:0|0:0,0:0:0:0:
227,253,70222,2,0,B|262:241|262:241|301:254,1,73.4999977569581,2|0,1:2|0:0,0:0:0:0:
326,220,70522,2,0,B|365:232|394:207|394:207|425:181|467:192,1,146.999995513916,6|0,1:2|3:0,0:0:0:0:
486,86,71122,6,0,P|480:66|466:85,1,52.5000020027161,2|2,3:2|3:0,0:0:0:0:
360,42,71522,6,0,P|350:77|367:115,1,73.4999977569581,10|0,0:0|0:0,0:0:0:0:
389,146,71822,2,0,P|352:147|321:175,1,73.4999977569581,2|0,1:2|0:0,0:0:0:0:
299,205,72122,2,0,P|286:170|250:150,1,73.4999977569581,2|0,1:2|0:0,0:0:0:0:
214,137,72422,2,0,P|242:114|251:73,1,73.4999977569581,2|8,1:2|0:0,0:0:0:0:
252,37,72722,2,0,P|282:57|323:52,1,73.4999977569581,2|0,1:2|0:0,0:0:0:0:
150,59,73122,6,0,L|76:59,1,73.4999977569581,10|0,0:0|0:0,0:0:0:0:
36,40,73422,2,0,L|47:126,1,73.4999977569581,2|0,1:2|0:0,0:0:0:0:
12,144,73722,2,0,P|59:193|133:169,1,146.999995513916,6|2,1:2|0:0,0:0:0:0:
221,267,74322,6,0,L|162:260,1,52.5000020027161,2|2,0:0|0:0,0:0:0:0:
162,372,74722,6,0,L|247:365,1,73.4999977569581,10|0,0:0|0:0,0:0:0:0:
275,384,75022,2,0,L|360:377,1,73.4999977569581,2|0,1:2|0:0,0:0:0:0:
385,354,75322,2,0,P|460:353|487:284,1,146.999995513916,6|10,1:2|0:0,0:0:0:0:
400,179,75922,2,0,B|383:211|383:211|403:244,1,73.4999977569581,2|0,1:2|0:0,0:0:0:0:
471,116,76322,6,0,L|307:124,1,146.999995513916,10|8,0:0|0:0,0:0:0:0:
307,142,76822,1,8,0:0:0:0:
282,150,76922,1,8,0:0:0:0:
256,147,77022,1,8,0:0:0:0:
236,129,77122,5,6,1:2:0:0:
81,334,88965,6,0,L|138:325,1,56,6|2,1:2|0:0,0:0:0:0:
98,243,89307,2,0,L|160:235,1,56,2|0,0:0|0:0,0:0:0:0:
118,153,89650,1,2,0:0:0:0:
118,153,89822,2,0,L|180:145,1,56,2|2,0:0|0:0,0:0:0:0:
253,90,90165,6,0,P|197:92|160:47,1,112,2|2,0:2|0:0,0:0:0:0:
378,170,90850,2,0,P|415:130|469:133,1,112,2|2,0:0|0:0,0:0:0:0:
491,47,91365,2,0,L|497:109,1,56,0|2,0:0|0:0,0:0:0:0:
373,38,91707,6,0,L|367:-21,1,56,2|2,0:0|0:0,0:0:0:0:
278,13,92050,2,0,L|221:13,1,56,2|0,0:0|0:0,0:0:0:0:
299,102,92393,1,2,0:0:0:0:
299,102,92565,2,0,L|305:161,1,56,2|2,0:0|0:0,0:0:0:0:
190,132,92907,6,0,L|77:132,1,112,2|2,0:0|0:0,0:0:0:0:
163,312,93593,2,0,L|276:312,1,112,2|2,0:0|0:0,0:0:0:0:
357,356,94107,2,0,P|381:348|377:313,1,56,0|2,0:0|0:0,0:0:0:0:
500,290,94450,6,0,B|519:310|519:310|501:333,1,56,2|2,0:0|0:0,0:0:0:0:
426,227,94793,2,0,L|426:167,1,56,2|0,0:0|0:0,0:0:0:0:
358,290,95136,1,2,0:0:0:0:
358,290,95307,2,0,B|339:310|339:310|357:333,1,56,2|2,0:0|0:0,0:0:0:0:
230,333,95650,6,0,P|176:341|133:297,1,112,2|2,0:0|0:0,0:0:0:0:
40,145,96336,2,0,P|94:153|137:109,1,112,2|2,0:0|0:0,0:0:0:0:
221,142,96850,1,0,0:0:0:0:
309,160,97022,6,0,B|331:142|331:142|385:142|385:142|407:122,1,112,2|2,0:0|0:0,0:0:0:0:
462,66,97536,2,0,P|432:73|400:63,1,56,2|0,0:0|0:0,0:0:0:0:
497,152,97879,1,2,0:0:0:0:
497,152,98050,2,0,L|523:216,1,56,0|2,0:0|0:0,0:0:0:0:
487,309,98393,6,0,P|442:280|385:289,1,112,2|2,0:0|0:0,0:0:0:0:
310,235,98907,2,0,P|294:257|289:285,1,56,2|0,0:0|0:0,0:0:0:0:
189,251,99250,6,0,L|105:251,1,84,2|0,3:2|0:0,0:0:0:0:
81,276,99593,1,2,0:3:0:0:
4,233,99765,1,2,0:3:0:0:
86,152,99936,6,0,P|96:125|82:98,1,56,14|2,1:2|1:2,0:0:0:0:
187,174,100279,2,0,P|197:147|183:120,1,56,10|0,0:0|1:2,0:0:0:0:
288,196,100622,1,10,0:0:0:0:
288,196,100793,2,0,P|298:169|284:142,1,56,2|10,1:2|0:0,0:0:0:0:
399,170,101136,6,0,L|461:163,1,56,2|8,1:2|0:0,0:0:0:0:
504,247,101479,2,0,L|444:255,1,56,2|8,1:2|0:0,0:0:0:0:
480,343,101822,2,0,P|432:311|378:323,1,112,2|2,1:2|1:2,0:0:0:0:
284,302,102336,2,0,L|292:361,1,56,8|2,0:0|1:2,0:0:0:0:
180,343,102679,6,0,P|143:346|119:332,1,56,10|2,0:0|1:2,0:0:0:0:
48,287,103022,2,0,P|26:256|27:228,1,56,10|0,0:0|1:2,0:0:0:0:
37,147,103365,1,10,0:0:0:0:
37,147,103536,2,0,P|52:113|77:99,1,56,2|10,1:2|0:0,0:0:0:0:
137,18,103879,6,0,B|164:27|164:27|190:16,1,56,2|8,1:2|0:0,0:0:0:0:
261,76,104222,2,0,B|288:85|288:85|314:74,1,56,2|8,1:2|0:0,0:0:0:0:
389,128,104565,2,0,P|442:112|451:57,1,112,2|2,1:2|1:2,0:0:0:0:
381,0,105079,2,0,L|326:0,1,56,8|2,0:2|1:2,0:0:0:0:
215,39,105422,5,14,1:2:0:0:
215,39,105593,2,0,P|225:9|210:-22,2,56,2|2|0,1:2|1:2|1:2,0:0:0:0:
140,121,106107,1,6,1:2:0:0:
140,121,106279,2,0,P|167:123|189:141,2,56,2|2|0,1:2|1:2|1:2,0:0:0:0:
276,197,106793,5,6,1:2:0:0:
276,197,106964,2,0,P|252:211|243:237,2,56,2|2|0,1:2|1:2|1:2,0:0:0:0:
383,175,107479,1,6,1:2:0:0:
384,174,107650,2,0,P|362:156|355:129,2,56,2|2|0,1:2|1:2|1:2,0:0:0:0:
270,57,108165,5,6,1:2:0:0:
256,58,108250,1,0,1:2:0:0:
242,59,108336,1,2,1:2:0:0:
228,60,108422,1,0,1:2:0:0:
205,75,108507,6,0,L|201:33,3,28,2|0|2|0,1:2|1:2|1:2|1:2,0:0:0:0:
120,67,108850,2,0,L|115:31,3,28,2|0|2|0,1:2|1:2|1:2|1:2,0:0:0:0:
36,61,109193,2,0,L|31:25,3,28,2|0|2|0,1:2|1:2|1:2|1:2,0:0:0:0:
12,172,109536,6,0,B|146:158|146:158|112:173|101:202,1,195.999994018555,6|8,0:0|0:0,0:0:0:0:
41,117,110393,1,0,0:0:0:0:
40,105,110479,1,8,0:0:0:0:
39,93,110565,2,0,L|35:50,2,24.4999992523194,4|4|8,3:0|0:3|0:3,0:0:0:0:
155,74,110907,6,0,L|241:65,1,70,6|2,1:2|0:0,0:0:0:0:
336,90,111250,2,0,L|250:99,1,70,10|0,0:0|0:0,0:0:0:0:
425,53,111593,1,2,1:2:0:0:
425,53,111765,2,0,P|438:86|422:124,1,70,2|10,0:0|0:0,0:0:0:0:
397,237,112107,6,0,L|501:224,1,105,2|0,0:0|0:0,0:0:0:0:
501,223,112450,2,0,P|492:257|503:291,1,70,2|8,0:0|0:0,0:0:0:0:
461,130,112793,2,0,B|474:97|474:97|457:64,1,70,2|0,0:0|1:2,0:0:0:0:
366,102,113136,1,2,0:0:0:0:
366,102,113307,2,0,L|292:102,1,70,8|2,0:0|0:0,0:0:0:0:
165,52,113650,6,0,P|190:68|165:77,1,70,2|2,1:2|0:0,0:0:0:0:
87,136,113993,2,0,B|68:137|57:154|57:154|68:168|87:170,1,70,10|0,0:0|0:0,0:0:0:0:
165,250,114336,1,2,1:2:0:0:
165,250,114507,2,0,P|191:236|164:224,1,70,2|10,0:0|0:0,0:0:0:0:
185,375,114850,6,0,P|223:343|280:341,1,105,2|0,0:0|0:0,0:0:0:0:
276,340,115193,2,0,L|288:271,1,70,2|8,0:0|0:0,0:0:0:0:
408,325,115536,2,0,L|374:255,1,70,2|0,0:0|1:2,0:0:0:0:
511,241,115879,1,2,0:0:0:0:
511,241,116050,2,0,L|450:206,1,70,8|2,0:0|0:0,0:0:0:0:
374,106,116393,6,0,P|414:108|446:77,1,70,2|2,1:2|0:0,0:0:0:0:
281,88,116736,2,0,P|299:123|342:135,1,70,10|0,0:0|0:0,0:0:0:0:
258,0,117079,1,2,1:2:0:0:
258,0,117250,2,0,P|236:33|247:76,1,70,2|10,0:0|0:0,0:0:0:0:
133,31,117593,6,0,B|86:31|86:31|77:25|77:25|29:25,1,105,2|0,0:0|0:0,0:0:0:0:
29,25,117936,2,0,P|55:50|61:91,1,70,2|8,0:0|0:0,0:0:0:0:
42,177,118279,2,0,L|122:168,1,70,2|0,0:0|1:2,0:0:0:0:
43,266,118622,1,2,0:0:0:0:
43,266,118793,2,0,L|123:257,1,70,8|2,0:0|0:0,0:0:0:0:
235,271,119136,6,0,P|219:241|228:207,1,70,4|2,1:2|0:0,0:0:0:0:
326,261,119479,2,0,P|334:227|318:197,1,70,10|0,0:0|0:0,0:0:0:0:
396,145,119822,2,0,B|356:156|329:135|329:135|302:114|260:124,1,140,2|10,1:2|0:0,0:0:0:0:
174,156,120336,1,2,0:0:0:0:
73,123,120507,6,0,B|59:90|59:90|75:55,1,70,4|2,1:2|0:0,0:0:0:0:
154,8,120850,2,0,L|225:3,1,70,10|2,0:0|0:0,0:0:0:0:
252,26,121107,1,0,0:0:0:0:
252,26,121193,2,0,L|323:21,1,70,2|2,1:2|0:0,0:0:0:0:
430,0,121536,5,10,0:0:0:0:
431,13,121622,1,8,0:0:0:0:
433,26,121707,1,2,1:2:0:0:
434,40,121793,1,0,1:2:0:0:
452,60,121879,6,0,P|404:83|394:132,1,105,6|2,1:2|0:0,0:0:0:0:
355,126,122222,2,0,P|364:158|393:177,1,70,8|0,0:0|0:0,0:0:0:0:
469,242,122565,2,0,L|509:242,2,35,0|2|0,1:2|0:0|0:0,0:0:0:0:
434,330,122907,2,0,B|400:320|400:320|366:331,1,70,10|0,0:0|0:0,0:0:0:0:
252,298,123250,6,0,P|218:309|187:297,1,70,2|0,1:2|0:0,0:0:0:0:
150,310,123507,2,0,P|129:281|130:247,1,70,2|0,0:0|0:0,0:0:0:0:
107,216,123765,2,0,P|128:187|160:178,1,70,2|0,0:0|1:2,0:0:0:0:
182,146,124022,2,0,P|215:157|233:185,1,70,2|0,0:0|0:0,0:0:0:0:
271,195,124279,2,0,P|270:229|249:255,1,70,10|0,0:0|0:0,0:0:0:0:
371,234,124622,6,0,B|410:229|410:229|434:242|434:242|474:237,1,105,2|2,1:2|0:0,0:0:0:0:
472,237,124965,2,0,P|493:206|468:164,1,70,8|0,0:0|0:0,0:0:0:0:
463,87,125307,2,0,L|512:79,2,35,0|2|0,1:2|0:0|0:0,0:0:0:0:
442,0,125650,2,0,L|370:10,1,70,10|0,0:0|0:0,0:0:0:0:
259,0,125993,6,0,L|274:76,1,70,2|0,1:2|0:0,0:0:0:0:
239,87,126250,2,0,L|254:163,1,70,2|0,0:0|0:0,0:0:0:0:
219,174,126507,2,0,L|234:250,1,70,2|0,0:0|1:2,0:0:0:0:
273,250,126765,2,0,L|288:326,1,70,2|0,0:0|0:0,0:0:0:0:
325,316,127022,2,0,L|340:392,1,70,10|0,0:0|0:0,0:0:0:0:
450,348,127365,6,0,P|493:338|508:275,2,105,6|6|6,1:2|1:2|1:2,0:0:0:0:
325,316,128136,1,6,1:2:0:0:
206,327,128393,6,0,P|186:316|213:308,1,56,2|0,3:3|0:0,0:0:0:0:
83,314,128736,5,6,1:2:0:0:
83,314,128907,1,6,1:2:0:0:
83,314,129079,2,0,L|-23:314,2,105,6|6|6,1:2|1:2|1:2,0:0:0:0:
168,367,129765,6,0,B|194:357|194:357|221:367,1,56,2|2,3:2|3:2,0:0:0:0:
305,314,130107,5,6,1:2:0:0:
322,314,130193,1,2,0:0:0:0:
339,314,130279,1,2,1:2:0:0:
356,314,130365,1,0,1:2:0:0:
374,295,130450,6,0,L|378:330,3,35,2|2|2|0,1:2|1:2|1:2|1:2,0:0:0:0:
452,249,130793,2,0,L|484:265,3,35,6|2|2|4,1:2|0:0|0:0|1:2,0:0:0:0:
432,159,131136,2,0,L|465:140,3,35,2|2|6|2,0:0|0:0|1:2|0:0,0:0:0:0:
369,82,131479,6,0,B|322:96|288:68|288:68|255:41|207:53,1,168,6|2,1:2|0:0,0:0:0:0:
103,19,132165,6,0,B|87:53|87:53|106:90,1,73.4999977569581,10|0,0:0|0:0,0:0:0:0:
86,122,132422,2,0,P|126:128|150:158,1,73.4999977569581,2|0,1:2|0:0,0:0:0:0:
138,192,132679,2,0,L|285:185,1,146.999995513916,6|0,1:2|0:0,0:0:0:0:
387,152,133193,6,0,L|391:216,1,56,8|0,0:3|0:0,0:0:0:0:
437,326,133536,6,0,P|404:308|361:315,1,73.4999977569581,10|0,0:0|0:0,0:0:0:0:
331,295,133793,2,0,L|257:295,1,73.4999977569581,2|0,1:2|0:0,0:0:0:0:
222,317,134050,2,0,P|150:329|118:268,1,146.999995513916,2|0,1:2|3:2,0:0:0:0:
33,186,134565,5,2,3:2:0:0:
34,198,134650,1,0,0:0:0:0:
35,211,134736,1,2,3:2:0:0:
139,140,134907,6,0,L|132:60,1,73.4999977569581,10|0,0:0|0:0,0:0:0:0:
114,30,135165,2,0,L|193:29,1,73.4999977569581,2|0,1:2|0:0,0:0:0:0:
218,2,135422,2,0,P|266:58|332:43,1,146.999995513916,2|0,1:2|0:0,0:0:0:0:
434,88,135936,5,2,0:0:0:0:
439,2,136107,1,2,0:0:0:0:
330,44,136279,6,0,L|340:120,1,73.4999977569581,10|0,0:0|0:0,0:0:0:0:
345,157,136536,2,0,L|355:233,1,73.4999977569581,2|0,1:2|0:0,0:0:0:0:
379,262,136793,2,0,B|339:251|312:279|312:279|283:306|243:297,1,146.999995513916,2|0,1:2|0:0,0:0:0:0:
131,282,137307,5,2,0:0:0:0:
132,296,137393,1,2,0:0:0:0:
134,310,137479,1,2,0:0:0:0:
243,297,137650,6,0,L|331:296,1,73.4999977569581,10|0,0:0|0:0,0:0:0:0:
347,324,137907,2,0,B|381:313|381:313|417:323,1,73.4999977569581,2|0,1:2|0:0,0:0:0:0:
450,297,138165,2,0,P|516:294|532:223,1,146.999995513916,2|2,1:2|0:0,0:0:0:0:
501,139,138679,2,0,L|541:130,2,36.749998878479,2|2|2,3:2|0:0|0:0,0:0:0:0:
391,118,139022,6,0,L|313:138,1,73.4999977569581,10|0,0:0|0:0,0:0:0:0:
307,176,139279,2,0,P|270:183|237:157,1,73.4999977569581,2|0,1:2|0:0,0:0:0:0:
202,176,139536,2,0,B|155:176|155:176|130:185|130:185|106:176|106:176|55:176,1,146.999995513916,2|0,1:2|3:0,0:0:0:0:
133,239,140050,5,2,3:2:0:0:
133,239,140222,1,2,3:2:0:0:
132,125,140393,6,0,L|132:49,1,73.4999977569581,10|0,0:0|0:0,0:0:0:0:
122,12,140650,2,0,P|154:37|197:33,1,73.4999977569581,2|0,1:2|0:0,0:0:0:0:
219,60,140907,2,0,P|270:17|350:31,1,146.999995513916,2|0,1:2|0:0,0:0:0:0:
454,10,141422,6,0,B|478:26|478:26|450:43,1,56,2|0,0:0|0:0,0:0:0:0:
345,27,141765,6,0,L|267:27,1,73.4999977569581,10|0,0:0|0:0,0:0:0:0:
239,2,142022,2,0,B|221:21|221:21|173:21,1,73.4999977569581,2|0,1:2|0:0,0:0:0:0:
133,27,142279,2,0,P|118:55|132:92,1,73.4999977569581,2|0,1:2|0:0,0:0:0:0:
178,186,142622,1,2,0:0:0:0:
178,186,142707,1,2,0:0:0:0:
178,186,142793,2,0,L|108:191,1,70,2|0,1:2|0:0,0:0:0:0:
277,134,143136,6,0,L|346:128,1,70,10|0,0:0|1:2,0:0:0:0:
343,145,143393,1,2,1:2:0:0:
339,162,143479,1,8,0:0:0:0:
335,179,143565,1,8,0:0:0:0:
330,197,143650,6,0,B|365:210|389:234|389:234|419:213|463:206,1,146.999995513916,6|0,1:2|0:0,0:0:0:0:
500,323,144165,6,0,P|520:311|497:299,1,56,2|0,0:0|0:0,0:0:0:0:
405,384,144507,6,0,B|374:366|374:366|334:376,1,73.4999977569581,10|0,0:0|0:0,0:0:0:0:
309,346,144765,2,0,P|275:357|238:346,1,73.4999977569581,2|0,1:2|0:0,0:0:0:0:
200,360,145022,2,0,L|47:360,1,146.999995513916,2|0,1:2|3:0,0:0:0:0:
25,241,145536,5,2,3:2:0:0:
27,253,145622,1,0,0:0:0:0:
30,266,145707,1,2,3:2:0:0:
120,192,145879,6,0,B|154:206|154:206|191:189,1,73.4999977569581,10|0,0:0|0:0,0:0:0:0:
222,213,146136,2,0,L|299:212,1,73.4999977569581,2|0,1:2|0:0,0:0:0:0:
330,235,146393,2,0,P|375:185|452:189,1,146.999995513916,2|0,1:2|0:0,0:0:0:0:
355,137,146907,5,2,0:0:0:0:
323,55,147079,1,2,0:0:0:0:
463,115,147250,6,0,L|449:192,1,73.4999977569581,10|0,0:0|0:0,0:0:0:0:
479,216,147507,2,0,P|466:251|485:290,1,73.4999977569581,2|0,1:2|0:0,0:0:0:0:
500,318,147765,2,0,B|438:319|438:319|422:327|422:327|353:327,1,146.999995513916,2|2,1:2|0:0,0:0:0:0:
256,347,148279,2,0,L|256:292,2,36.749998878479,0|2|2,1:2|0:0|0:0,0:0:0:0:
158,327,148622,6,0,L|77:326,1,73.4999977569581,10|0,0:0|0:0,0:0:0:0:
46,341,148879,2,0,P|57:300|36:264,1,73.4999977569581,2|0,1:2|0:0,0:0:0:0:
25,237,149136,2,0,B|1:197|1:197|101:198,1,146.999995513916,6|0,1:2|0:0,0:0:0:0:
155,108,149650,6,0,P|145:84|136:107,1,56,2|0,0:0|0:0,0:0:0:0:
286,81,149993,6,0,P|265:110|267:155,1,73.4999977569581,10|0,0:0|0:0,0:0:0:0:
234,173,150250,2,0,P|248:205|288:226,1,73.4999977569581,2|0,1:2|0:0,0:0:0:0:
287,264,150507,2,0,P|322:267|360:243,1,73.4999977569581,2|0,1:2|0:0,0:0:0:0:
392,263,150765,2,0,P|413:233|411:189,1,73.4999977569581,2|8,1:2|0:0,0:0:0:0:
443,171,151022,2,0,P|428:138|388:117,1,73.4999977569581,10|0,1:2|0:0,0:0:0:0:
323,43,151365,6,0,B|305:57|305:57|245:57,1,73.4999977569581,10|0,0:0|0:0,0:0:0:0:
240,97,151622,2,0,B|222:83|222:83|162:83,1,73.4999977569581,2|0,1:2|0:0,0:0:0:0:
133,68,151879,2,0,P|93:127|138:177,1,146.999995513916,6|0,1:2|0:0,0:0:0:0:
56,282,152393,5,2,0:0:0:0:
66,272,152479,1,2,0:0:0:0:
76,261,152565,1,2,0:0:0:0:
149,335,152736,6,0,L|207:387,1,73.4999977569581,10|0,0:0|0:0,0:0:0:0:
231,354,152993,2,0,P|266:363|301:352,1,73.4999977569581,2|0,1:2|0:0,0:0:0:0:
326,384,153250,2,0,B|357:357|357:357|423:357|423:357|454:326,1,146.999995513916,6|10,1:2|0:0,0:0:0:0:
465,220,153765,2,0,P|488:241|530:241,1,73.4999977569581,2|0,1:2|0:0,0:0:0:0:
479,106,154107,6,0,B|440:116|412:90|412:90|384:63|343:73,1,146.999995513916,10|8,0:0|0:0,0:0:0:0:
360,59,154536,1,8,0:0:0:0:
377,45,154622,1,8,0:0:0:0:
394,31,154707,1,8,0:0:0:0:
411,19,154793,5,6,1:2:0:0:
256,192,154880,12,2,157626,0:0:0:0:
256,192,157719,12,2,160499,0:0:0:0:
