osu file format v14

[General]
AudioFilename: audio.mp3
AudioLeadIn: 0
PreviewTime: 110867
Countdown: 0
SampleSet: Soft
StackLeniency: 0.4
Mode: 0
LetterboxInBreaks: 0
WidescreenStoryboard: 0

[Editor]
Bookmarks: 13112,25912,38712,50712,63512,77112,88946,99936,110907,121879,132165,143136
DistanceSpacing: 1.24
BeatDivisor: 4
GridSize: 4
TimelineZoom: 1.5

[Metadata]
Title:Aoba
TitleUnicode:Aoba
Artist:ARForest
ArtistUnicode:ARForest
Creator:Niva
Version:Easy
Source:Tone Sphere
Tags:AFST-002 the unfinished instrumental video game
BeatmapID:2389410
BeatmapSetID:1131726

[Difficulty]
HPDrainRate:2
CircleSize:2.5
OverallDifficulty:2.5
ApproachRate:3.5
SliderMultiplier:1.4
SliderTickRate:1

[Events]
//Background and Video events
0,0,"bg.jpg",0,0
//Break Periods
2,77322,87585
//Storyboard Layer 0 (Background)
//Storyboard Layer 1 (Fail)
//Storyboard Layer 2 (Pass)
//Storyboard Layer 3 (Foreground)
//Storyboard Layer 4 (Overlay)
//Storyboard Sound Samples

[TimingPoints]
322,400,4,2,1,40,1,0
322,-200,4,2,1,40,0,0
12522,-200,4,2,1,45,0,0
12722,-200,4,2,1,50,0,0
12922,-200,4,2,1,55,0,0
13122,-200,4,2,1,60,0,0
25922,-200,4,2,1,70,0,0
49922,-200,4,2,1,70,0,0
50322,-200,4,2,1,60,0,0
50722,-166.666666666667,4,2,77,85,0,1
51922,-166.666666666667,4,2,77,85,0,1
52322,-166.666666666667,4,2,77,85,0,1
53522,-166.666666666667,4,2,77,85,0,1
53922,-166.666666666667,4,2,77,85,0,1
55122,-166.666666666667,4,2,77,85,0,1
55522,-166.666666666667,4,2,77,85,0,1
56722,-166.666666666667,4,2,77,85,0,1
57122,-166.666666666667,4,2,77,85,0,1
59922,-166.666666666667,4,2,77,85,0,1
60322,-166.666666666667,4,2,77,85,0,1
61522,-166.666666666667,4,2,77,85,0,1
61922,-166.666666666667,4,2,77,85,0,1
62922,-166.666666666667,4,2,77,85,0,1
63522,-166.666666666667,4,2,77,85,0,1
64722,-166.666666666667,4,2,77,85,0,1
65122,-166.666666666667,4,2,77,85,0,1
67922,-166.666666666667,4,2,77,85,0,1
68322,-166.666666666667,4,2,77,85,0,1
70922,-166.666666666667,4,2,77,85,0,1
71522,-166.666666666667,4,2,77,85,0,1
72722,-166.666666666667,4,2,77,85,0,1
73122,-166.666666666667,4,2,77,85,0,1
74122,-166.666666666667,4,2,77,85,0,1
74722,-166.666666666667,4,2,77,85,0,1
77222,-71.4285714285714,4,2,1,5,0,0
77912,397.350993377483,4,2,0,5,1,0
78706,390.879478827362,4,2,0,5,1,0
79487,388.349514563107,4,2,0,5,1,0
80263,387.096774193549,4,2,0,5,1,0
81037,372.670807453416,4,2,0,5,1,0
81782,370.37037037037,4,2,0,5,1,0
82522,368.098159509202,4,2,0,5,1,0
83994,365.853658536585,4,2,0,5,1,0
84725,357.142857142857,4,2,0,5,1,0
85439,355.029585798816,4,2,0,5,1,0
86859,352.941176470588,4,2,0,5,1,0
87564,348.837209302325,4,2,0,5,1,0
88261,342.857142857143,4,2,0,5,1,0
88965,342.857142857143,4,2,0,5,1,0
88965,-200,4,2,77,70,0,0
99936,-200,4,2,77,80,0,0
106793,-200,4,2,77,80,0,0
109536,-200,4,2,77,80,0,0
109622,-200,4,2,77,70,0,0
110222,-200,4,2,0,70,0,0
110907,-166.666666666667,4,2,77,90,0,0
127365,-166.666666666667,4,2,77,90,0,0
128393,-166.666666666667,4,2,77,90,0,0
128736,-166.666666666667,4,2,77,90,0,0
129679,-166.666666666667,4,2,77,90,0,0
130107,-166.666666666667,4,2,77,90,0,0
131479,-166.666666666667,4,2,77,90,0,0
131650,-166.666666666667,4,2,77,90,0,0
131822,-166.666666666667,4,2,77,90,0,0
131993,-166.666666666667,4,2,77,90,0,0
132165,-166.666666666667,4,2,77,90,0,1
133193,-166.666666666667,4,2,77,90,0,1
133536,-166.666666666667,4,2,77,90,0,1
134393,-166.666666666667,4,2,77,90,0,1
134907,-166.666666666667,4,2,77,90,0,1
135936,-166.666666666667,4,2,77,90,0,1
136279,-166.666666666667,4,2,77,90,0,1
137307,-166.666666666667,4,2,77,90,0,1
137650,-166.666666666667,4,2,77,90,0,1
141422,-166.666666666667,4,2,77,90,0,1
141765,-166.666666666667,4,2,77,90,0,1
142622,-166.666666666667,4,2,77,90,0,1
143650,-166.666666666667,4,2,77,90,0,1
144165,-166.666666666667,4,2,77,90,0,1
144507,-166.666666666667,4,2,77,90,0,1
145365,-166.666666666667,4,2,77,90,0,1
145879,-166.666666666667,4,2,77,90,0,1
146907,-166.666666666667,4,2,77,90,0,1
147250,-166.666666666667,4,2,77,90,0,1
149650,-166.666666666667,4,2,77,90,0,1
149993,-166.666666666667,4,2,77,90,0,1
150995,-166.666666666667,4,2,77,90,0,1
151365,-166.666666666667,4,2,77,90,0,1
152393,-166.666666666667,4,2,77,90,0,1
152736,-166.666666666667,4,2,77,90,0,1
154793,348.837209302326,4,2,77,90,1,0
154880,-100,4,2,77,50,0,0
155471,352.941176470589,4,2,0,50,1,0
156176,357.142857142858,4,2,0,50,1,0
156176,-100,4,2,0,45,0,0
156890,368.098159509203,4,2,0,45,1,0
157626,372.670807453417,4,2,0,40,1,0
158371,379.746835443038,4,2,0,40,1,0
159130,382.165605095541,4,2,0,35,1,0
159512,387.096774193548,4,2,0,35,1,0
159899,400,4,2,0,35,1,0
160499,-100,4,2,0,30,0,0

[Colours]
Combo1 : 17,254,176
Combo2 : 173,255,95
Combo3 : 255,88,100
Combo4 : 255,94,55

[HitObjects]
55,77,322,6,0,P|119:100|177:60,1,140,6|0,0:0|0:0,0:0:0:0:
269,90,1522,2,0,B|322:90|322:90|353:107|353:107|408:107,1,140,2|0,0:0|0:0,0:0:0:0:
438,199,2722,1,2,0:0:0:0:
506,368,3522,6,0,P|447:333|379:341,1,140,2|0,0:0|0:0,0:0:0:0:
288,299,4722,2,0,B|199:299|199:299|155:269,1,140,2|0,0:0|0:0,0:0:0:0:
62,299,5922,1,2,0:0:0:0:
0,127,6722,6,0,P|67:137|117:82,1,140,2|0,0:0|0:0,0:0:0:0:
203,48,7922,2,0,L|222:190,1,140,2|0,0:0|0:0,0:0:0:0:
234,284,9122,1,2,0:0:0:0:
384,380,9922,6,0,P|434:336|506:342,1,140,2|0,0:0|0:0,0:0:0:0:
496,243,11122,2,0,B|464:181|464:181|494:118,1,140,2|0,0:0|0:0,0:0:0:0:
402,82,12322,1,2,0:0:0:0:
310,117,12722,1,2,0:0:0:0:
218,82,13122,6,0,B|174:82|174:82|150:92|150:92|125:82|125:82|82:82,2,140,2|8|0,0:0|0:0|0:0,0:0:0:0:
311,50,15122,1,0,0:0:0:0:
379,119,15522,1,10,0:0:0:0:
346,300,16322,6,0,P|410:321|467:275,2,140,2|8|0,0:0|0:0|0:0,0:0:0:0:
249,320,18322,1,0,0:0:0:0:
153,340,18722,2,0,L|82:336,1,70,10|2,0:0|0:0,0:0:0:0:
35,253,19522,6,0,P|65:194|143:195,2,140,2|8|0,0:0|0:0|0:0,0:0:0:0:
83,336,21522,1,0,0:0:0:0:
175,305,21922,1,10,0:0:0:0:
350,362,22722,6,0,P|399:315|469:317,1,140,2|8,0:0|0:0,0:0:0:0:
485,219,23922,1,0,0:0:0:0:
400,169,24322,2,0,L|319:169,1,70,2|0,0:0|0:0,0:0:0:0:
237,202,25122,2,0,L|218:116,1,70,8|2,0:0|0:0,0:0:0:0:
131,169,25922,6,0,P|65:187|18:139,1,140,6|8,1:2|0:0,0:0:0:0:
87,71,27122,1,2,0:0:0:0:
154,0,27522,2,0,L|235:0,1,70,0|0,0:0|1:2,0:0:0:0:
312,42,28322,1,10,0:0:0:0:
492,20,29122,6,0,P|528:74|492:134,1,140,2|8,1:2|0:0,0:0:0:0:
512,228,30322,1,2,0:0:0:0:
426,275,30722,2,0,P|396:259|358:258,1,70,0|0,0:0|1:2,0:0:0:0:
266,285,31522,2,0,P|240:306|226:342,1,70,10|2,0:0|0:0,0:0:0:0:
131,315,32322,6,0,B|94:325|65:304|65:304|35:282|-2:296,1,140,2|8,1:2|0:0,0:0:0:0:
24,201,33522,1,2,0:0:0:0:
48,106,33922,2,0,B|34:75|34:75|49:40,1,70,0|0,0:0|1:2,0:0:0:0:
145,31,34722,1,8,0:0:0:0:
327,9,35522,6,0,P|363:64|326:123,1,140,2|8,0:0|0:0,0:0:0:0:
230,118,36722,1,2,0:0:0:0:
132,114,37122,2,0,B|141:199,1,70,0|2,0:0|1:2,0:0:0:0:
77,260,37922,1,10,0:0:0:0:
133,340,38322,1,2,0:0:0:0:
227,312,38722,6,0,B|282:307|282:307|307:322|307:322|366:317,1,140,6|8,1:2|0:0,0:0:0:0:
457,342,39922,1,2,0:0:0:0:
506,257,40322,2,0,P|515:220|488:189,1,70,0|2,0:0|1:2,0:0:0:0:
426,128,41122,1,10,0:0:0:0:
256,195,41922,6,0,B|190:218|190:218|121:182,1,140,2|10,0:0|0:0,0:0:0:0:
163,94,43122,1,2,0:0:0:0:
201,3,43522,2,0,P|235:11|274:1,1,70,0|0,0:0|1:2,0:0:0:0:
358,43,44322,2,0,L|351:120,1,70,8|2,0:0|0:0,0:0:0:0:
409,191,45122,6,0,L|395:341,1,140,0|8,1:2|1:2,0:0:0:0:
303,361,46322,1,2,1:2:0:0:
207,337,46722,2,0,B|187:324|187:324|141:324,1,70,2|2,1:2|1:2,0:0:0:0:
53,280,47522,2,0,P|39:250|55:213,1,70,10|2,1:2|1:2,0:0:0:0:
22,123,48322,6,0,L|99:114,1,70,2|2,1:2|1:2,0:0:0:0:
185,142,49122,2,0,L|262:133,2,70,10|2|0,1:2|1:2|1:2,0:0:0:0:
254,347,50722,6,0,L|389:330,1,125.999996154785,10|6,0:2|1:2,0:0:0:0:
491,212,51922,1,8,0:3:0:0:
491,212,52322,2,0,P|430:218|381:177,2,125.999996154785,10|2|2,0:0|1:2|0:0,0:0:0:0:
474,320,53922,6,0,B|423:320|423:320|403:330|403:330|347:330,1,125.999996154785,10|2,0:0|1:2,0:0:0:0:
194,380,55122,1,2,0:0:0:0:
129,291,55522,2,0,P|66:295|21:242,2,125.999996154785,10|2|4,0:0|1:2|1:3,0:0:0:0:
206,214,57122,6,0,B|232:235|232:235|290:235|290:235|320:257,1,125.999996154785,10|2,0:0|1:2,0:0:0:0:
464,182,58322,1,2,0:2:0:0:
464,182,58722,2,0,L|480:42,2,125.999996154785,10|2|2,0:0|1:2|0:0,0:0:0:0:
357,157,60322,6,0,B|321:165|296:145|296:145|269:125|238:134,1,125.999996154785,10|2,0:0|1:2,0:0:0:0:
104,39,61522,1,2,0:0:0:0:
23,112,61922,2,0,P|-7:164|46:220,2,125.999996154785,10|2|2,0:0|1:2|1:2,0:0:0:0:
96,31,63522,1,10,0:0:0:0:
203,50,63922,6,0,L|259:50,1,41.9999987182618,8|6,0:0|1:2,0:0:0:0:
381,140,64722,1,2,0:0:0:0:
381,140,65122,2,0,P|318:149|276:208,2,125.999996154785,10|2|2,0:0|1:2|1:2,0:0:0:0:
481,96,66722,6,0,L|499:242,1,125.999996154785,10|2,0:0|1:2,0:0:0:0:
410,360,67922,1,2,0:0:0:0:
306,325,68322,2,0,B|257:325|257:325|234:336|234:336|183:336,2,125.999996154785,10|2|2,0:0|1:2|3:2,0:0:0:0:
377,242,69922,6,0,P|434:247|479:199,1,125.999996154785,10|6,0:0|1:2,0:0:0:0:
371,76,71122,1,2,3:2:0:0:
371,76,71522,2,0,L|246:75,2,125.999996154785,10|2|2,0:0|1:2|1:2,0:0:0:0:
472,34,73122,6,0,L|483:173,1,125.999996154785,10|6,0:0|1:2,0:0:0:0:
494,322,74322,1,2,0:0:0:0:
400,378,74722,2,0,P|347:348|276:362,2,125.999996154785,10|6|2,0:0|1:2|1:2,0:0:0:0:
494,322,76322,2,0,B|510:282|510:282|491:243,1,83.9999974365235,10|8,0:0|0:0,0:0:0:0:
394,196,77122,5,6,1:2:0:0:
54,253,88965,6,0,L|130:246,1,70,6|2,1:2|0:0,0:0:0:0:
210,292,89650,2,0,L|328:282,1,105,2|2,0:0|0:2,0:0:0:0:
397,335,90507,1,2,0:0:0:0:
469,269,90850,2,0,P|488:224|454:173,1,105,2|0,0:0|0:0,0:0:0:0:
378,126,91707,6,0,L|300:126,1,70,2|2,0:0|0:0,0:0:0:0:
226,71,92393,2,0,P|185:99|131:93,1,105,2|2,0:0|0:0,0:0:0:0:
74,172,93250,1,2,0:0:0:0:
16,251,93593,2,0,L|36:374,1,105,2|0,0:0|0:0,0:0:0:0:
127,327,94450,6,0,L|210:327,1,70,2|2,0:0|0:0,0:0:0:0:
286,368,95136,2,0,B|330:344|330:344|386:355,1,105,2|2,0:0|0:0,0:0:0:0:
438,273,95993,1,2,0:0:0:0:
369,203,96336,2,0,P|303:217|255:167,1,140,2|2,0:0|0:0,0:0:0:0:
119,224,97536,6,0,L|106:149,2,70,2|2|2,0:0|0:0|0:0,0:0:0:0:
314,210,98907,2,0,L|302:278,1,70,2|2,0:0|3:2,0:0:0:0:
399,270,99593,1,2,0:3:0:0:
496,260,99936,6,0,P|509:228|481:189,1,70,14|10,1:2|0:0,0:0:0:0:
437,117,100622,2,0,B|404:127|404:127|365:115,1,70,10|10,0:0|0:0,0:0:0:0:
290,174,101307,2,0,B|236:195|192:153|192:153|149:115|93:135,1,210,8|8,0:0|0:0,0:0:0:0:
101,36,102679,6,0,L|191:28,1,70,10|10,0:0|0:0,0:0:0:0:
264,60,103365,2,0,L|354:52,1,70,10|10,0:0|0:0,0:0:0:0:
426,86,104050,2,0,P|448:169|341:189,1,210,8|8,0:0|0:2,0:0:0:0:
273,258,105422,6,0,L|296:335,1,70,14|2,1:2|1:2,0:0:0:0:
198,351,106107,2,0,L|175:274,1,70,6|2,1:2|1:2,0:0:0:0:
94,232,106793,2,0,L|22:232,1,70,6|2,1:2|1:2,0:0:0:0:
23,133,107479,2,0,L|95:133,1,70,6|2,1:2|1:2,0:0:0:0:
178,182,108165,6,0,B|248:182|248:182|325:182|295:234|372:234|372:234|453:234,1,280,6|6,1:2|0:0,0:0:0:0:
505,48,110222,1,8,0:0:0:0:
408,66,110565,1,4,3:0:0:0:
310,83,110907,6,0,B|274:65|274:65|231:74,1,83.9999974365235,6|10,1:2|0:0,0:0:0:0:
131,43,111593,2,0,P|102:96|135:147,1,125.999996154785,2|2,1:2|0:0,0:0:0:0:
95,243,112450,1,2,0:0:0:0:
180,302,112793,2,0,P|228:266|290:278,1,125.999996154785,2|8,0:0|0:0,0:0:0:0:
378,223,113650,6,0,L|396:137,1,83.9999974365235,2|10,1:2|0:0,0:0:0:0:
324,63,114336,2,0,B|271:63|271:63|255:73|255:73|200:73,1,125.999996154785,2|2,1:2|0:0,0:0:0:0:
104,33,115193,1,2,0:0:0:0:
44,118,115536,2,0,L|71:253,1,125.999996154785,2|8,0:0|0:0,0:0:0:0:
54,344,116393,6,0,L|140:326,1,83.9999974365235,2|10,1:2|0:0,0:0:0:0:
236,354,117079,2,0,P|296:345|311:282,1,125.999996154785,2|2,1:2|0:0,0:0:0:0:
235,218,117936,1,2,0:0:0:0:
155,151,118279,2,0,B|135:117|166:89|166:89|270:89,1,167.999994873047,2|2,0:0|0:0,0:0:0:0:
417,121,119479,6,0,L|406:34,2,83.9999974365235,10|2|10,0:0|1:2|0:0,0:0:0:0:
476,206,120507,2,0,P|440:235|383:226,1,83.9999974365235,4|10,1:2|0:0,0:0:0:0:
338,317,121193,1,2,1:2:0:0:
241,278,121536,1,10,0:0:0:0:
138,296,121879,6,0,B|98:284|98:284|58:298,1,83.9999974365235,6|8,1:2|0:0,0:0:0:0:
1,210,122565,2,0,P|-19:172|3:135,1,83.9999974365235,2|10,1:2|0:0,0:0:0:0:
59,54,123250,2,0,B|107:48|107:48|136:64|136:64|185:57,2,125.999996154785,2|2|10,1:2|0:0|0:0,0:0:0:0:
0,138,124622,6,0,P|16:179|69:195,1,83.9999974365235,2|8,1:2|0:0,0:0:0:0:
65,298,125307,2,0,P|108:304|148:266,1,83.9999974365235,2|10,1:2|0:0,0:0:0:0:
226,342,125993,2,0,P|276:311|345:322,2,125.999996154785,2|2|10,1:2|0:0|0:0,0:0:0:0:
140,283,127365,6,0,L|6:283,2,125.999996154785,6|6|2,1:2|1:2|3:3,0:0:0:0:
226,342,128736,2,0,B|286:372|343:326|343:326|396:282|466:309,1,251.999992309571,6|2,1:2|3:2,0:0:0:0:
512,215,130107,6,0,B|528:177|528:177|508:137,1,83.9999974365235,6|2,1:2|1:2,0:0:0:0:
421,80,130793,2,0,P|381:93|342:79,1,83.9999974365235,6|2,1:2|1:2,0:0:0:0:
256,138,131479,1,6,1:2:0:0:
50,101,132165,6,0,B|21:157|21:157|52:213,1,125.999996154785,10|6,0:0|1:2,0:0:0:0:
32,367,133193,1,8,0:3:0:0:
32,367,133536,2,0,P|86:335|149:347,2,125.999996154785,10|2|2,0:0|1:2|3:2,0:0:0:0:
1,267,134907,6,0,L|14:135,1,125.999996154785,10|2,0:0|1:2,0:0:0:0:
148,62,135936,1,2,0:0:0:0:
249,87,136279,2,0,P|309:93|349:43,2,125.999996154785,10|2|2,0:0|1:2|0:0,0:0:0:0:
148,62,137650,6,0,B|100:62|100:62|73:76|73:76|22:76,1,125.999996154785,10|2,0:0|1:2,0:0:0:0:
71,225,138679,1,2,3:2:0:0:
71,225,139022,2,0,P|41:281|-16:273,2,125.999996154785,10|2|2,0:0|1:2|3:2,0:0:0:0:
166,184,140393,6,0,B|243:184|243:184|285:209,1,125.999996154785,10|2,0:0|1:2,0:0:0:0:
417,292,141422,1,2,0:0:0:0:
349,371,141765,2,0,P|294:337|222:356,2,125.999996154785,10|2|2,0:0|1:2|1:2,0:0:0:0:
417,292,143136,1,10,0:0:0:0:
487,215,143479,6,0,L|479:164,1,41.9999987182618,8|6,0:0|1:2,0:0:0:0:
331,128,144165,1,2,0:0:0:0:
331,128,144507,2,0,L|312:1,2,125.999996154785,10|2|2,0:0|1:2|3:2,0:0:0:0:
347,231,145879,6,0,P|294:258|237:232,1,125.999996154785,10|2,0:0|1:2,0:0:0:0:
196,383,146907,1,2,0:0:0:0:
113,319,147250,2,0,L|-21:320,2,125.999996154785,10|2|0,0:0|1:2|1:2,0:0:0:0:
186,244,148622,6,0,B|247:244|247:244|270:264|307:261,1,125.999996154785,10|6,0:0|1:2,0:0:0:0:
455,311,149650,1,2,0:0:0:0:
455,311,149993,2,0,B|482:255|482:255|449:198,2,125.999996154785,10|2|10,0:0|1:2|1:2,0:0:0:0:
362,359,151365,6,0,P|305:329|245:342,1,125.999996154785,10|6,0:0|1:2,0:0:0:0:
212,188,152393,1,2,0:0:0:0:
115,226,152736,2,0,L|-11:212,2,125.999996154785,10|6|2,0:0|1:2|1:2,0:0:0:0:
212,188,154107,2,0,L|298:198,1,83.9999974365235,10|8,0:0|0:0,0:0:0:0:
392,157,154793,5,6,1:2:0:0:
256,192,154880,12,2,157626,0:0:0:0:
256,192,157719,12,2,160499,0:0:0:0:
