osu file format v14

[General]
AudioFilename: audio.mp3
AudioLeadIn: 0
PreviewTime: 54645
Countdown: 0
SampleSet: Soft
StackLeniency: 0.2
Mode: 0
LetterboxInBreaks: 0
WidescreenStoryboard: 1

[Editor]
Bookmarks: 5415,10338,20184,22645,32492,42338,44799,54645,64492,74338,84184,94030,103876,113568
DistanceSpacing: 0.3
BeatDivisor: 6
GridSize: 32
TimelineZoom: 2

[Metadata]
Title:Altros
TitleUnicode:Altros
Artist:ARForest
ArtistUnicode:ARForest
Creator:Shiirn
Version:Shiirngaku's Hyper
Source:BMS
Tags:PABAT! 2017 k-bms inukoro artcore Ambient Halfslashed Anxient Mir Ongaku
BeatmapID:1319769
BeatmapSetID:625822

[Difficulty]
HPDrainRate:6
CircleSize:4
OverallDifficulty:7
ApproachRate:8.5
SliderMultiplier:1.63
SliderTickRate:1

[Events]
//Background and Video events
0,0,"abstract-futuristic.jpg",0,0
Video,9,"COLORS.flv"
//Break Periods
2,20384,21663
2,42538,44124
2,64692,73663
//Storyboard Layer 0 (Background)
//Storyboard Layer 1 (Fail)
//Storyboard Layer 2 (Pass)
//Storyboard Layer 3 (Foreground)
//Storyboard Sound Samples

[TimingPoints]
492,307.692307692308,4,2,1,35,1,0
492,-133.333333333333,4,2,1,35,0,0
645,-133.333333333333,4,2,1,15,0,0
722,-133.333333333333,4,2,1,35,0,0
1261,-133.333333333333,4,2,1,15,0,0
1338,-133.333333333333,4,2,1,35,0,0
1722,-133.333333333333,4,2,1,15,0,0
1799,-133.333333333333,4,2,1,35,0,0
2030,-133.333333333333,4,2,1,15,0,0
2107,-133.333333333333,4,2,1,35,0,0
2492,-133.333333333333,4,2,1,15,0,0
2569,-133.333333333333,4,2,1,35,0,0
2799,-133.333333333333,4,2,1,15,0,0
2876,-133.333333333333,4,2,1,35,0,0
3415,-133.333333333333,4,2,1,15,0,0
3492,-133.333333333333,4,2,1,35,0,0
3876,-133.333333333333,4,2,1,15,0,0
3953,-133.333333333333,4,2,1,35,0,0
4184,-133.333333333333,4,2,1,15,0,0
4261,-133.333333333333,4,2,1,35,0,0
4645,-133.333333333333,4,2,1,15,0,0
4722,-133.333333333333,4,2,1,35,0,0
4953,-133.333333333333,4,2,1,15,0,0
5030,-133.333333333333,4,2,1,35,0,0
5261,-133.333333333333,4,2,1,15,0,0
5338,-133.333333333333,4,2,1,35,0,0
5645,-133.333333333333,4,2,1,15,0,0
5722,-133.333333333333,4,2,1,35,0,0
7415,-133.333333333333,4,2,1,15,0,0
7492,-133.333333333333,4,2,1,35,0,0
8107,-133.333333333333,4,2,1,15,0,0
8184,-133.333333333333,4,2,1,35,0,0
9415,-133.333333333333,4,2,1,15,0,0
9492,-133.333333333333,4,2,1,35,0,0
9799,-133.333333333333,4,2,1,15,0,0
9876,-133.333333333333,4,2,1,35,0,0
10107,-133.333333333333,4,2,1,15,0,0
10184,-133.333333333333,4,2,1,35,0,0
10338,-100,4,2,1,35,0,0
10722,-100,4,2,1,15,0,0
10799,-100,4,2,1,35,0,0
10876,-100,4,2,1,15,0,0
10953,-100,4,2,1,35,0,0
11415,-100,4,2,1,15,0,0
11492,-100,4,2,1,35,0,0
11953,-100,4,2,1,15,0,0
12030,-100,4,2,1,35,0,0
12107,-100,4,2,1,15,0,0
12184,-100,4,2,1,35,0,0
14415,-100,4,2,1,15,0,0
14492,-100,4,2,1,35,0,0
14568,-100,4,2,1,15,0,0
14645,-100,4,2,1,35,0,0
15030,-100,4,2,1,15,0,0
15107,-100,4,2,1,35,0,0
15184,-100,4,2,1,15,0,0
15261,-100,4,2,1,35,0,0
15645,-100,4,2,1,15,0,0
15722,-100,4,2,1,35,0,0
15799,-100,4,2,1,15,0,0
15876,-100,4,2,1,35,0,0
16338,-100,4,2,1,15,0,0
16415,-100,4,2,1,35,0,0
16492,-100,4,2,1,15,0,0
16569,-100,4,2,1,35,0,0
16876,-100,4,2,1,15,0,0
16953,-100,4,2,1,35,0,0
17030,-100,4,2,1,15,0,0
17107,-100,4,2,1,35,0,0
17492,-100,4,2,1,15,0,0
17569,-100,4,2,1,35,0,0
17645,-100,4,2,1,15,0,0
17722,-100,4,2,1,35,0,0
18953,-100,4,2,1,15,0,0
19030,-100,4,2,1,35,0,0
19338,-100,4,2,1,15,0,0
19415,-100,4,2,1,35,0,0
19492,-100,4,2,1,15,0,0
19569,-100,4,2,1,35,0,0
22645,-100,4,2,1,55,0,1
32415,-100,4,2,1,55,0,0
32492,-100,4,2,1,55,0,1
42338,-100,4,2,1,55,0,0
44799,-133.333333333333,4,2,1,35,0,0
45184,-133.333333333333,4,2,1,15,0,0
45261,-133.333333333333,4,2,1,35,0,0
47645,-133.333333333333,4,2,1,15,0,0
47722,-133.333333333333,4,2,1,35,0,0
47953,-133.333333333333,4,2,1,15,0,0
48030,-133.333333333333,4,2,1,35,0,0
50107,-133.333333333333,4,2,1,15,0,0
50184,-133.333333333333,4,2,1,35,0,0
52568,-133.333333333333,4,2,1,15,0,0
52645,-133.333333333333,4,2,1,35,0,0
52722,-133.333333333333,4,2,1,15,0,0
52799,-133.333333333333,4,2,1,35,0,0
54876,-133.333333333333,4,2,1,15,0,0
54953,-133.333333333333,4,2,1,35,0,0
55338,-133.333333333333,4,2,1,15,0,0
55415,-133.333333333333,4,2,1,35,0,0
55953,-133.333333333333,4,2,1,15,0,0
56030,-133.333333333333,4,2,1,35,0,0
57338,-133.333333333333,4,2,1,15,0,0
57415,-133.333333333333,4,2,1,35,0,0
57799,-133.333333333333,4,2,1,15,0,0
57876,-133.333333333333,4,2,1,35,0,0
58415,-133.333333333333,4,2,1,15,0,0
58492,-133.333333333333,4,2,1,35,0,0
59799,-133.333333333333,4,2,1,15,0,0
59876,-133.333333333333,4,2,1,35,0,0
60261,-133.333333333333,4,2,1,15,0,0
60338,-133.333333333333,4,2,1,35,0,0
60876,-133.333333333333,4,2,1,15,0,0
60953,-133.333333333333,4,2,1,35,0,0
62107,-133.333333333333,4,2,1,15,0,0
62184,-133.333333333333,4,2,1,35,0,0
62568,-133.333333333333,4,2,1,15,0,0
62645,-133.333333333333,4,2,1,35,0,0
64184,-133.333333333333,4,2,1,25,0,0
64492,-133.333333333333,4,2,1,35,0,0
74338,-133.333333333333,4,2,1,35,0,0
74953,-133.333333333333,4,2,1,15,0,0
75030,-133.333333333333,4,2,1,35,0,0
75261,-133.333333333333,4,2,1,15,0,0
75338,-133.333333333333,4,2,1,35,0,0
75568,-133.333333333333,4,2,1,15,0,0
75645,-133.333333333333,4,2,1,35,0,0
76184,-133.333333333333,4,2,1,15,0,0
76261,-133.333333333333,4,2,1,35,0,0
76953,-133.333333333333,4,2,1,15,0,0
77030,-133.333333333333,4,2,1,35,0,0
77415,-133.333333333333,4,2,1,15,0,0
77492,-133.333333333333,4,2,1,35,0,0
78030,-133.333333333333,4,2,1,15,0,0
78107,-133.333333333333,4,2,1,35,0,0
78645,-133.333333333333,4,2,1,15,0,0
78722,-133.333333333333,4,2,1,35,0,0
79415,-133.333333333333,4,2,1,15,0,0
79492,-133.333333333333,4,2,1,35,0,0
79876,-133.333333333333,4,2,1,15,0,0
79953,-133.333333333333,4,2,1,35,0,0
80184,-133.333333333333,4,2,1,15,0,0
80261,-133.333333333333,4,2,1,35,0,0
80492,-133.333333333333,4,2,1,15,0,0
80569,-133.333333333333,4,2,1,35,0,0
80799,-133.333333333333,4,2,1,15,0,0
80876,-133.333333333333,4,2,1,35,0,0
81107,-133.333333333333,4,2,1,15,0,0
81184,-133.333333333333,4,2,1,35,0,0
82338,-133.333333333333,4,2,1,15,0,0
82415,-133.333333333333,4,2,1,35,0,0
82953,-133.333333333333,4,2,1,15,0,0
83030,-133.333333333333,4,2,1,35,0,0
84184,-100,4,2,1,55,0,1
103261,-100,4,2,1,35,0,1
103876,-100,4,2,1,55,0,0

[Colours]
Combo1 : 232,197,89
Combo2 : 0,202,0
Combo3 : 18,124,255
Combo4 : 242,24,57
Combo5 : 255,192,0
Combo6 : 142,237,80
Combo7 : 92,73,224
Combo8 : 236,77,160

[HitObjects]
88,208,492,6,0,L|80:272,2,61.1250023317338,0|0|0,0:0|0:0|0:0,0:0:0:0:
168,176,953,1,0,0:0:0:0:
176,184,1107,2,0,L|264:176,1,61.1250023317338,0|0,0:0|0:0,0:0:0:0:
280,264,1415,1,0,0:0:0:0:
272,272,1569,2,0,L|184:264,1,61.1250023317338,0|0,0:0|0:0,0:0:0:0:
184,192,1876,6,0,L|272:184,2,61.1250023317338,0|0|0,0:0|0:0|0:0,0:0:0:0:
203,274,2338,2,0,L|263:279,1,61.1250023317338,0|0,0:0|0:0,0:0:0:0:
195,282,2645,2,0,L|255:287,1,61.1250023317338,0|0,0:0|0:0,0:0:0:0:
349,304,2953,2,0,L|354:243,1,61.1250023317338,0|0,0:0|0:0,0:0:0:0:
357,312,3261,2,0,L|362:251,1,61.1250023317338
447,188,3568,6,0,L|441:248,2,61.1250023317338,0|0|0,0:0|0:0|0:0,0:0:0:0:
370,259,4030,2,0,L|364:319,1,61.1250023317338,0|0,0:0|0:0,0:0:0:0:
449,256,4338,1,0,0:0:0:0:
457,264,4492,2,0,L|462:203,1,61.1250023317338,0|0,0:0|0:0,0:0:0:0:
362,251,4799,2,0,L|356:190,1,61.1250023317338,0|0,0:0|0:0,0:0:0:0:
354,243,5107,2,0,L|348:182,1,61.1250023317338,0|0,0:0|0:0,0:0:0:0:
334,113,5415,6,0,L|346:235,1,122.250004663468,0|0,0:0|0:0,0:0:0:0:
424,128,5876,1,0,0:0:0:0:
432,136,6030,2,0,L|438:197,1,61.1250023317338,0|0,0:0|0:0,0:0:0:0:
320,166,6338,2,0,L|326:105,1,61.1250023317338,0|0,0:0|0:0,0:0:0:0:
312,158,6645,2,0,L|318:97,1,61.1250023317338,0|0,0:0|0:0,0:0:0:0:
240,210,6953,1,0,0:0:0:0:
232,200,7107,1,0,0:0:0:0:
224,192,7261,2,0,L|212:314,1,122.250004663468,0|0,0:0|0:0,0:0:0:0:
152,184,7722,1,0,0:0:0:0:
144,176,7876,6,0,L|132:298,1,122.250004663468,0|0,0:0|0:0,0:0:0:0:
220,322,8338,1,0,0:0:0:0:
212,314,8492,2,0,L|218:246,1,61.1250023317338,0|0,0:0|0:0,0:0:0:0:
300,183,8799,1,0,0:0:0:0:
292,191,8953,2,0,L|298:258,1,61.1250023317338,0|0,0:0|0:0,0:0:0:0:
204,306,9261,6,0,L|210:238,1,61.1250023317338,0|0,0:0|0:0,0:0:0:0:
300,183,9568,1,0,0:0:0:0:
300,183,9645,1,0,0:0:0:0:
300,183,9722,2,0,L|306:250,1,61.1250023317338,0|0,0:0|0:0,0:0:0:0:
322,267,9953,1,0,0:0:0:0:
322,267,10030,2,0,L|328:199,1,61.1250023317338,0|0,0:0|0:0,0:0:0:0:
345,186,10261,1,0,0:0:0:0:
345,186,10338,54,0,P|362:212|421:233,1,81.5,4|0,3:0|0:0,0:0:0:0:
490,233,10645,1,0,0:0:0:0:
420,151,10799,2,0,L|406:232,1,81.5,0|8,0:0|0:0,0:0:0:0:
378,305,11107,1,0,0:0:0:0:
386,313,11261,2,0,P|339:298|229:342,1,163,0|0,0:0|0:0,0:0:0:0:
155,303,11722,5,0,0:0:0:0:
95,356,11876,2,0,P|77:325|82:274,1,81.5,0|0,3:0|0:0,0:0:0:0:
215,251,12184,2,0,P|233:282|228:333,1,81.5,8|0,0:0|0:0,0:0:0:0:
79,272,12492,2,0,L|160:305,1,81.5,0|0,0:0|0:0,0:0:0:0:
235,334,12799,6,0,L|243:163,1,163,0|0,3:0|0:0,0:0:0:0:
289,105,13261,1,0,0:0:0:0:
368,114,13415,2,0,P|342:166|295:186,1,81.5,8|0,0:0|0:0,0:0:0:0:
163,160,13722,2,0,P|211:98|289:105,1,163,0|0,0:0|0:0,0:0:0:0:
318,194,14184,69,0,0:0:0:0:
258,246,14338,2,0,P|240:215|245:164,1,81.5,0|0,3:0|0:0,0:0:0:0:
378,141,14645,2,0,P|396:172|391:223,1,81.5,8|0,0:0|0:0,0:0:0:0:
308,315,14953,6,0,L|319:176,1,122.25,0|0,0:0|0:0,0:0:0:0:
317,193,15261,6,0,P|278:211|238:197,1,81.5,0|0,3:0|0:0,0:0:0:0:
193,145,15568,1,0,0:0:0:0:
228,69,15722,2,0,P|259:94|274:132,1,81.5,0|8,0:0|0:0,0:0:0:0:
183,139,16030,1,0,0:0:0:0:
144,69,16184,2,0,L|155:234,1,163,0|0,0:0|0:0,0:0:0:0:
161,316,16645,5,0,0:0:0:0:
95,362,16799,2,0,P|80:329|90:279,1,81.5,0|0,3:0|0:0,0:0:0:0:
226,270,17107,2,0,P|240:302|230:352,1,81.5,8|0,0:0|0:0,0:0:0:0:
154,231,17415,2,0,P|177:198|224:186,1,81.5,0|0,0:0|0:0,0:0:0:0:
357,299,17722,70,0,P|290:324|223:255,1,163,0|0,3:0|0:0,0:0:0:0:
295,152,18184,1,0,0:0:0:0:
303,160,18338,2,0,L|301:257,1,81.5,8|0,0:0|0:0,0:0:0:0:
307,330,18645,2,0,L|311:168,1,163,0|0,0:0|0:0,0:0:0:0:
311,71,19107,5,0,0:0:0:0:
381,128,19261,2,0,P|390:192|372:220,1,81.5,0|0,0:0|0:0,0:0:0:0:
243,208,19568,2,0,P|230:169|240:130,1,81.5,8|0,0:0|0:0,0:0:0:0:
358,280,19876,2,0,L|310:166,1,122.25,0|0,3:0|0:0,0:0:0:0:
309,157,20184,5,0,3:2:0:0:
90,249,22338,6,0,L|139:243,3,40.75,8|8|8|8,0:3|0:3|0:3|0:3,0:0:0:0:
81,262,22645,86,0,L|161:251,1,81.5,4|0,3:2|3:2,0:0:0:0:
243,239,22953,1,10,0:0:0:0:
204,313,23107,1,2,0:0:0:0:
194,167,23261,2,0,P|239:153|281:164,1,81.5,0|10,3:0|0:2,0:0:0:0:
285,309,23568,1,2,0:2:0:0:
243,239,23722,1,0,0:0:0:0:
204,313,23876,54,0,L|304:309,1,81.5,2|0,0:0|3:0,0:0:0:0:
271,159,24184,2,0,L|314:227,1,81.5,8|2,0:0|3:2,0:0:0:0:
363,294,24492,2,0,B|440:305|440:305|461:350,2,122.25,2|2|2,0:0|0:0|0:0,0:0:0:0:
314,227,25107,38,0,L|234:216,1,81.5,2|0,3:2|3:0,0:0:0:0:
152,204,25415,1,8,0:0:0:0:
191,278,25569,1,2,3:2:0:0:
201,132,25723,2,0,P|156:118|114:129,1,81.5,2|8,0:0|0:0,0:0:0:0:
112,276,26030,2,0,P|151:287|190:277,1,81.5,2|0,0:0|3:0,0:0:0:0:
201,132,26338,54,0,L|103:165,1,81.5,2|2,0:0|0:0,0:0:0:0:
72,198,26568,1,2,0:0:0:0:
72,198,26645,2,0,P|109:192|158:207,1,81.5,8|2,0:0|0:0,0:0:0:0:
210,253,26876,1,2,0:0:0:0:
210,253,26953,2,0,L|224:125,1,122.25,10|2,0:0|0:0,0:0:0:0:
229,121,27261,1,0,0:0:0:0:
352,168,27415,1,10,0:0:0:0:
399,311,27568,22,0,L|319:299,1,81.5,4|0,3:2|0:0,0:0:0:0:
236,288,27876,1,8,0:0:0:0:
294,228,28030,1,2,0:0:0:0:
264,371,28184,2,0,P|216:372|179:349,1,81.5,0|8,3:0|0:0,0:0:0:0:
215,209,28491,1,0,0:0:0:0:
236,288,28645,1,0,3:0:0:0:
137,246,28799,102,0,P|130:223|144:161,1,81.5,2|0,0:0|3:0,0:0:0:0:
294,228,29107,1,10,0:2:0:0:
236,288,29261,1,0,3:0:0:0:
215,209,29415,1,2,0:0:0:0:
319,148,29568,1,2,0:0:0:0:
329,154,29645,1,2,0:0:0:0:
338,161,29722,2,0,P|369:195|370:249,1,81.5,10|0,0:0|3:0,0:0:0:0:
360,320,30030,85,4,0:0:0:0:
266,313,30184,2,0,L|364:307,1,81.5,0|8,3:0|0:0,0:0:0:0:
427,288,30492,1,0,3:0:0:0:
451,211,30645,2,0,L|492:209,3,40.75,2|0|10|0,0:0|0:0|0:0|0:0,0:0:0:0:
500,201,30953,2,0,L|418:205,1,81.5,2|2,0:0|0:0,0:0:0:0:
338,212,31261,53,8,0:0:0:0:
312,125,31415,1,2,0:0:0:0:
312,125,31492,1,2,0:0:0:0:
312,125,31568,2,0,P|263:124|250:128,3,40.75,8|0|2|0,0:0|0:0|0:0|0:0,0:0:0:0:
221,195,31876,2,0,L|235:240,3,40.75,8|2|0|0,0:0|0:0|0:0|0:0,0:0:0:0:
139,280,32184,2,0,L|153:235,3,40.75,2|0|10|8,0:0|0:0|0:0|0:0,0:0:0:0:
212,329,32492,22,0,L|292:316,1,81.5,4|0,3:2|3:2,0:0:0:0:
378,299,32799,1,10,0:0:0:0:
318,238,32953,1,2,0:0:0:0:
455,269,33107,2,0,P|434:235|399:217,1,81.5,0|10,3:0|0:2,0:0:0:0:
292,315,33415,1,2,0:2:0:0:
378,299,33568,1,0,0:0:0:0:
236,254,33722,54,0,P|214:287|211:328,1,81.5,2|0,0:0|3:0,0:0:0:0:
378,299,34030,2,0,P|400:265|403:225,1,81.5,8|2,0:0|3:2,0:0:0:0:
292,181,34338,2,0,B|315:254|315:254|295:329,2,122.25,2|2|2,0:0|0:0|0:0,0:0:0:0:
130,162,34953,6,0,L|210:172,1,81.5,2|0,3:2|3:0,0:0:0:0:
292,181,35261,1,8,0:0:0:0:
235,243,35415,1,2,3:2:0:0:
263,99,35569,2,0,P|310:97|347:118,1,81.5,2|8,0:0|0:0,0:0:0:0:
312,261,35876,2,0,P|271:261|236:241,1,81.5,2|0,0:0|3:0,0:0:0:0:
342,114,36184,6,0,L|362:201,1,81.5,2|2,0:0|0:0,0:0:0:0:
371,207,36415,1,2,0:0:0:0:
371,207,36492,2,0,L|388:120,1,81.5,8|2,0:0|0:0,0:0:0:0:
404,109,36722,1,2,0:0:0:0:
404,109,36799,2,0,L|418:237,1,122.25,10|2,0:0|0:0,0:0:0:0:
423,241,37107,1,0,0:0:0:0:
312,261,37261,1,10,0:0:0:0:
149,238,37414,22,0,L|229:250,1,81.5,4|0,3:2|0:0,0:0:0:0:
312,261,37722,1,8,0:0:0:0:
254,321,37876,1,2,0:0:0:0:
284,178,38030,2,0,P|332:177|369:200,1,81.5,0|8,3:0|0:0,0:0:0:0:
333,340,38337,1,0,0:0:0:0:
312,261,38491,1,0,3:0:0:0:
394,281,38645,70,0,L|476:263,1,81.5,2|0,0:0|3:0,0:0:0:0:
389,119,38953,2,0,P|380:165|354:197,2,81.5,10|0|2,0:2|3:0|0:0,0:0:0:0:
302,124,39415,1,2,0:0:0:0:
302,124,39492,1,2,0:0:0:0:
302,124,39568,2,0,L|220:119,1,81.5,10|0,0:0|3:0,0:0:0:0:
153,166,39876,101,4,0:0:0:0:
59,173,40030,2,0,L|157:179,1,81.5,0|8,3:0|0:0,0:0:0:0:
220,198,40338,1,0,3:0:0:0:
244,275,40491,2,0,L|285:277,3,40.75,2|0|10|0,0:0|0:0|0:0|0:0,0:0:0:0:
293,285,40799,2,0,L|211:281,1,81.5,2|2,0:0|0:0,0:0:0:0:
112,318,41107,1,8,0:0:0:0:
68,228,41261,53,2,0:0:0:0:
68,228,41338,1,2,0:0:0:0:
68,228,41415,2,0,L|84:158,3,40.75,8|0|2|0,0:0|0:0|0:0|0:0,0:0:0:0:
150,151,41722,2,0,L|134:81,3,40.75,8|2|0|0,0:0|0:0|0:0|0:0,0:0:0:0:
184,32,42030,2,0,L|223:22,3,40.75,2|0|10|8,0:0|0:0|0:0|0:0,0:0:0:0:
318,92,42338,53,4,0:1:0:0:
102,273,44799,6,0,B|103:280|103:280|106:276|106:276|149:292|192:296|225:266|225:266|202:283|200:313,1,183.375006995201,0|0,0:0|0:0,0:0:0:0:
160,175,45568,21,0,0:0:0:0:
242,139,45722,1,0,0:0:0:0:
242,139,45876,1,0,0:0:0:0:
160,175,46184,53,0,0:0:0:0:
242,139,46338,1,0,0:0:0:0:
242,139,46645,1,0,0:0:0:0:
174,90,46953,1,0,0:0:0:0:
148,259,47261,6,0,B|169:288|168:326|168:326|170:288|209:253,1,152.812505829334
223,247,47722,86,0,P|263:280|289:278,1,61.1250023317338
373,238,48030,101,0,0:0:0:0:
291,202,48184,1,0,0:0:0:0:
291,202,48338,1,0,0:0:0:0:
373,238,48646,5,0,0:0:0:0:
291,202,48800,1,0,0:0:0:0:
291,202,49107,1,0,0:0:0:0:
359,150,49261,1,0,0:0:0:0:
280,117,49415,1,0,0:0:0:0:
291,202,49568,1,0,0:0:0:0:
359,150,49722,6,0,B|339:214|339:214|344:215|344:215|334:244|334:244|329:242|329:242|321:269|321:269|353:280|353:280|365:242,1,183.375006995201
427,104,50492,69,0,0:0:0:0:
345,68,50646,1,0,0:0:0:0:
345,68,50800,1,0,0:0:0:0:
427,104,51108,53,0,0:0:0:0:
345,68,51262,1,0,0:0:0:0:
427,104,51568,53,0,0:0:0:0:
345,68,51722,1,0,0:0:0:0:
272,121,51876,1,0,0:0:0:0:
281,210,52030,1,0,0:0:0:0:
366,238,52184,6,0,B|327:244|327:244|295:270|295:270|231:268,1,122.250004663468
248,274,52645,6,0,L|315:276,1,61.1250023317338
371,333,52953,53,0,0:0:0:0:
448,289,53107,1,0,0:0:0:0:
448,289,53261,1,0,0:0:0:0:
371,333,53568,53,0,0:0:0:0:
448,289,53722,1,0,0:0:0:0:
448,200,53876,1,0,0:0:0:0:
371,244,54030,1,0,0:0:0:0:
282,244,54184,1,0,0:0:0:0:
327,167,54338,1,0,0:0:0:0:
238,167,54492,1,0,0:0:0:0:
74,256,54645,86,0,P|136:241|208:253,1,122.250004663468,4|8,3:2|0:0,0:0:0:0:
309,352,55107,54,0,L|325:232,1,91.6875034976007,0|0,0:3|0:0,0:0:0:0:
324,242,55415,1,0,3:3:0:0:
406,209,55568,2,0,L|418:286,1,61.1250023317338,0|8,0:0|0:0,0:0:0:0:
423,277,56030,53,0,3:0:0:0:
324,242,56184,2,0,L|312:325,1,61.1250023317338,0|8,0:0|0:0,0:0:0:0:
431,285,56492,1,0,3:0:0:0:
439,293,56645,1,0,3:0:0:0:
323,310,56799,2,0,L|331:249,1,61.1250023317338,8|0,0:0|0:0,0:0:0:0:
414,201,57107,38,0,P|348:208|299:160,1,122.250004663468,0|8,3:0|0:0,0:0:0:0:
232,104,57569,2,0,L|216:224,1,91.6875034976007,0|0,3:0|0:0,0:0:0:0:
217,214,57877,1,0,3:0:0:0:
291,315,58030,2,0,L|279:238,1,61.1250023317338,0|8,0:0|0:0,0:0:0:0:
113,153,58492,53,0,3:0:0:0:
121,145,58568,1,0,3:0:0:0:
129,137,58645,2,0,L|119:197,1,61.1250023317338,8|0,3:2|3:0,0:0:0:0:
51,287,58953,1,8,0:0:0:0:
176,252,59107,1,0,3:0:0:0:
43,295,59261,2,0,L|51:234,1,61.1250023317338,0|8,3:0|0:0,0:0:0:0:
29,157,59568,70,0,P|91:172|151:129,1,122.250004663468,0|8,3:0|0:0,0:0:0:0:
223,66,60030,6,0,L|239:186,1,91.6875034976007,0|0,3:0|0:0,0:0:0:0:
238,176,60338,1,0,3:0:0:0:
320,209,60491,2,0,L|332:132,1,61.1250023317338,0|8,0:0|0:0,0:0:0:0:
337,141,60953,101,0,3:0:0:0:
238,176,61107,2,0,L|226:92,1,61.1250023317338,0|8,3:0|0:0,0:0:0:0:
345,133,61415,1,0,3:0:0:0:
353,125,61568,1,0,3:0:0:0:
237,108,61722,2,0,L|245:168,1,61.1250023317338,8|0,0:0|3:0,0:0:0:0:
260,256,62030,21,0,3:0:0:0:
388,231,62184,1,8,0:0:0:0:
252,264,62338,1,0,3:0:0:0:
244,272,62492,53,0,3:0:0:0:
394,310,62645,1,8,0:0:0:0:
396,223,62799,1,0,3:0:0:0:
404,215,62953,1,0,3:0:0:0:
222,179,63107,1,8,0:0:0:0:
305,117,63261,53,0,3:0:0:0:
305,117,63338,1,0,3:0:0:0:
305,117,63415,2,0,L|318:176,1,61.1250023317338,8|0,3:2|3:0,0:0:0:0:
338,258,63722,1,0,3:0:0:0:
214,187,63876,1,8,0:0:0:0:
400,150,64030,1,0,3:0:0:0:
400,150,64107,1,0,3:0:0:0:
400,150,64184,22,0,L|407:208,1,30.5625011658669,8|8,0:3|0:3,0:0:0:0:
467,221,64338,2,0,L|460:279,1,30.5625011658669,8|8,0:3|0:3,0:0:0:0:
407,309,64492,1,0,0:0:0:0:
131,87,74338,38,0,L|204:83,2,61.1250023317338
168,170,74799,2,0,L|312:161,2,122.250004663468,0|0|0,0:0|0:0|0:0,0:0:0:0:
168,170,75722,5,0,0:0:0:0:
153,260,75876,1,0,0:0:0:0:
141,351,76030,1,0,0:0:0:0:
164,343,76338,5,0,0:0:0:0:
176,252,76492,2,0,L|249:248,1,61.1250023317338,0|0,0:0|0:0,0:0:0:0:
399,252,76799,6,0,L|326:248,2,61.1250023317338
465,316,77261,2,0,P|441:265|459:192,1,122.250004663468
393,131,77722,1,0,0:0:0:0:
431,47,77876,70,0,L|297:52,1,122.250004663468
237,109,78338,1,0,0:0:0:0:
176,40,78492,6,0,P|146:97|165:168,1,122.250004663468
200,231,78953,2,0,P|212:267|201:309,1,61.1250023317338
302,289,79261,6,0,P|300:259|312:231,2,61.1250023317338
392,272,79722,2,0,P|391:193|349:151,2,122.250004663468,0|0|0,0:0|0:0|0:0,0:0:0:0:
365,161,80645,6,0,L|509:160,1,122.250004663468
487,160,81261,1,0,0:0:0:0:
425,91,81415,1,0,0:0:0:0:
365,161,81568,1,0,0:0:0:0:
307,232,81722,70,0,L|229:233,2,61.1250023317338
198,288,82184,2,0,P|174:231|204:173,1,122.250004663468,0|0,0:0|0:0,0:0:0:0:
277,134,82645,5,0,0:0:0:0:
193,96,82799,2,0,P|163:101|133:124,1,61.1250023317338,0|0,0:0|0:0,0:0:0:0:
80,261,83107,1,0,0:0:0:0:
80,261,83261,1,0,0:0:0:0:
66,170,83415,1,0,0:0:0:0:
150,204,83568,6,0,L|204:200,3,30.5625011658669,0|0|0|0,0:0|0:0|0:0|0:0,0:0:0:0:
216,231,83876,6,0,L|270:227,3,30.5625011658669
279,253,84184,22,0,L|377:245,1,81.5,6|0,3:2|3:0,0:0:0:0:
431,287,84492,1,10,0:0:0:0:
431,205,84645,2,0,B|422:133|422:133|435:118|435:118|426:37,1,163,2|10,3:2|0:0,0:0:0:0:
356,89,85107,1,0,0:0:0:0:
286,45,85261,2,0,P|266:42|228:54,2,40.75,2|2|2,3:2|0:0|0:0,0:0:0:0:
188,103,85568,1,0,3:0:0:0:
119,59,85722,1,8,0:0:0:0:
29,161,85876,5,2,3:2:0:0:
37,169,86030,2,0,L|48:268,1,81.5,2|8,3:2|0:0,0:0:0:0:
46,323,86338,1,0,0:0:0:0:
54,331,86492,1,2,3:2:0:0:
120,284,86645,6,0,B|160:272|160:272|222:288,1,81.5,2|2,0:0|3:2,0:0:0:0:
275,310,86953,1,8,0:0:0:0:
221,163,87107,2,0,B|251:191|251:191|268:253,1,81.5,2|2,3:2|3:2,0:0:0:0:
275,310,87415,1,10,0:0:0:0:
338,258,87568,2,0,B|366:230|366:230|376:190,1,81.5,0|2,3:0|3:2,0:0:0:0:
388,108,87876,70,0,P|441:136|457:212,1,122.25,2|2,0:0|3:2,0:0:0:0:
452,232,88184,2,0,L|452:325,1,81.5,8|2,3:2|3:2,0:0:0:0:
376,189,88492,2,0,L|376:282,1,81.5,10|2,0:0|3:2,0:0:0:0:
298,148,88799,2,0,L|298:241,1,81.5,8|2,3:2|3:2,0:0:0:0:
219,104,89107,6,0,L|219:197,2,81.5,2|0|10,0:0|3:0|0:2,0:0:0:0:
168,39,89568,2,0,B|141:75|141:75|141:202,1,163,2|10,3:2|0:2,0:0:0:0:
75,243,90030,1,0,0:0:0:0:
83,252,90184,1,2,3:2:0:0:
163,269,90338,6,0,L|268:263,1,81.5,2|0,0:0|3:0,0:0:0:0:
301,321,90645,1,8,0:0:0:0:
309,313,90799,1,2,3:2:0:0:
365,254,90953,2,0,P|372:215|359:170,1,81.5,0|10,3:0|0:0,0:0:0:0:
358,96,91261,2,0,P|351:135|364:180,1,81.5,0|0,0:0|3:0,0:0:0:0:
291,217,91568,38,0,L|243:215,2,40.75,2|0|0,0:0|0:0|3:0,0:0:0:0:
272,137,91876,2,0,L|163:130,1,81.5,10|0,0:0|3:0,0:0:0:0:
149,129,92107,1,2,0:0:0:0:
149,129,92184,1,0,3:0:0:0:
80,173,92338,1,10,0:0:0:0:
71,91,92492,2,0,P|99:58|156:45,1,81.5,2|8,3:2|0:0,0:0:0:0:
219,163,92722,1,2,0:0:0:0:
221,166,92799,6,0,P|193:199|136:212,1,81.5,2|0,0:0|3:0,0:0:0:0:
80,173,93030,1,2,3:2:0:0:
80,173,93107,2,0,L|17:175,3,40.75,8|2|0|2,3:2|0:0|0:0|0:0,0:0:0:0:
89,250,93415,2,0,L|85:353,1,81.5,10|2,0:0|3:2,0:0:0:0:
88,372,93645,1,2,3:2:0:0:
88,372,93722,1,8,3:2:0:0:
164,344,93876,1,2,3:2:0:0:
305,384,94030,69,4,3:2:0:0:
297,376,94184,1,0,3:0:0:0:
359,323,94338,1,8,0:0:0:0:
282,294,94492,2,0,P|347:243|431:282,1,163,2|10,3:2|0:2,0:0:0:0:
490,228,94953,1,2,0:0:0:0:
430,172,95107,2,0,L|421:127,2,40.75,2|2|2,3:2|0:2|0:2,0:0:0:0:
479,69,95415,69,2,3:2:0:0:
399,55,95568,2,0,P|362:74|340:113,1,81.5,8|2,0:0|3:2,0:0:0:0:
279,211,95876,2,0,P|281:169|258:130,1,81.5,0|8,3:0|0:0,0:0:0:0:
227,113,96107,1,0,0:0:0:0:
227,113,96184,2,0,L|167:110,3,40.75,2|0|0|2,0:0|0:0|3:0|0:0,0:0:0:0:
147,193,96492,22,0,L|207:190,3,40.75,2|0|0|2,0:0|0:0|3:0|0:0,0:0:0:0:
115,265,96799,5,8,0:0:0:0:
117,281,96876,1,2,0:0:0:0:
119,297,96953,1,2,3:2:0:0:
121,313,97030,1,0,0:0:0:0:
123,329,97107,22,0,P|169:317|222:340,1,81.5,0|10,3:0|0:0,0:0:0:0:
233,351,97338,1,0,0:0:0:0:
233,351,97415,2,0,L|288:351,3,40.75,2|2|0|2,3:2|0:0|3:0|0:0,0:0:0:0:
345,384,97722,6,0,P|350:331|314:285,1,81.5,4|4,3:2|3:2,0:0:0:0:
338,306,98184,1,4,3:2:0:0:
352,192,98492,1,4,3:2:0:0:
364,78,98799,1,4,3:2:0:0:
299,127,98953,38,0,L|242:122,3,40.75,4|4|4|4,3:0|3:0|3:0|3:0,0:0:0:0:
217,117,99261,1,4,3:2:0:0:
151,68,99415,2,0,P|135:105|152:166,2,81.5,2|0|10,3:2|0:0|0:2,0:0:0:0:
217,117,99876,1,0,0:0:0:0:
276,60,100030,6,0,P|294:142|214:201,1,163,2|2,3:2|3:2,0:0:0:0:
203,205,100415,1,2,3:2:0:0:
203,205,100492,1,10,3:2:0:0:
243,275,100645,1,0,3:0:0:0:
197,342,100799,2,0,P|235:355|280:346,1,81.5,10|0,0:0|3:0,0:0:0:0:
348,310,101107,2,0,P|387:303|426:315,1,81.5,10|2,0:2|3:2,0:0:0:0:
487,260,101415,6,0,L|480:149,1,81.5,8|0,0:0|3:0,0:0:0:0:
476,138,101645,1,0,3:0:0:0:
476,138,101722,1,2,3:2:0:0:
409,185,101876,2,0,P|353:200|274:176,1,122.25,8|2,0:0|3:2,0:0:0:0:
257,162,102184,1,10,3:2:0:0:
328,123,102338,2,0,P|351:127|381:117,3,40.75,2|2|0|0,3:2|3:2|3:2|3:2,0:0:0:0:
259,81,102645,6,0,L|254:24,3,40.75,8|10|2|2,0:2|0:2|3:2|3:2,0:0:0:0:
178,75,102953,6,0,L|174:115,3,40.75,8|10|2|0,3:2|0:2|3:2|3:2,0:0:0:0:
93,64,103261,5,8,3:3:0:0:
94,76,103338,1,8,0:3:0:0:
95,88,103415,1,8,0:3:0:0:
96,100,103492,1,8,0:3:0:0:
97,111,103568,1,8,0:3:0:0:
98,123,103645,1,8,0:3:0:0:
99,135,103722,1,8,0:3:0:0:
100,147,103799,1,8,0:3:0:0:
102,159,103876,37,4,0:0:0:0:
