osu file format v14

[General]
AudioFilename: audio.mp3
AudioLeadIn: 0
PreviewTime: 54645
Countdown: 0
SampleSet: Soft
StackLeniency: 0.3
Mode: 0
LetterboxInBreaks: 0
WidescreenStoryboard: 1

[Editor]
Bookmarks: 5415,10338,20184,22645,32492,42338,44799,54645,64492,74338,84184,94030,103876,113568
DistanceSpacing: 2
BeatDivisor: 8
GridSize: 32
TimelineZoom: 8

[Metadata]
Title:Altros
TitleUnicode:Altros
Artist:ARForest
ArtistUnicode:ARForest
Creator:Shiirn
Version:Ongaku's Another
Source:BMS
Tags:PABAT! 2017 k-bms inukoro artcore Ambient Halfslashed Anxient Mir Ongaku
BeatmapID:1319770
BeatmapSetID:625822

[Difficulty]
HPDrainRate:7
CircleSize:3.8
OverallDifficulty:7.5
ApproachRate:9
SliderMultiplier:1.75
SliderTickRate:1

[Events]
//Background and Video events
0,0,"abstract-futuristic.jpg",0,0
Video,9,"COLORS.flv"
//Break Periods
2,20384,21584
2,42538,44199
2,64691,73122
//Storyboard Layer 0 (Background)
//Storyboard Layer 1 (Fail)
//Storyboard Layer 2 (Pass)
//Storyboard Layer 3 (Foreground)
//Storyboard Sound Samples

[TimingPoints]
492,307.692307692308,4,2,1,35,1,0
492,-133.333333333333,4,2,1,35,0,0
953,-133.333333333333,4,2,1,5,0,0
1107,-133.333333333333,4,2,1,35,0,0
1415,-133.333333333333,4,2,1,5,0,0
1568,-133.333333333333,4,2,1,35,0,0
1722,-133.333333333333,4,2,1,5,0,0
1876,-133.333333333333,4,2,1,35,0,0
2184,-133.333333333333,4,2,1,5,0,0
2338,-133.333333333333,4,2,1,35,0,0
2645,-133.333333333333,4,2,1,5,0,0
2799,-133.333333333333,4,2,1,35,0,0
3568,-133.333333333333,4,2,1,5,0,0
3722,-133.333333333333,4,2,1,35,0,0
4030,-133.333333333333,4,2,1,5,0,0
4184,-133.333333333333,4,2,1,35,0,0
4338,-133.333333333333,4,2,1,5,0,0
4492,-133.333333333333,4,2,1,35,0,0
4799,-133.333333333333,4,2,1,5,0,0
4953,-133.333333333333,4,2,1,35,0,0
10338,-100,4,2,1,35,0,0
22645,-100,4,2,1,55,0,1
42415,-100,4,2,1,55,0,0
44799,-200,4,2,1,35,0,0
45107,-200,4,2,1,15,0,0
45261,-100,4,2,1,35,0,0
46492,-100,4,2,1,15,0,0
46568,-100,4,2,1,35,0,0
46799,-100,4,2,1,15,0,0
46875,-100,4,2,1,35,0,0
47107,-100,4,2,1,15,0,0
47183,-100,4,2,1,35,0,0
47261,-200,4,2,1,35,0,0
47338,-200,4,2,1,15,0,0
47722,-100,4,2,1,35,0,0
47953,-100,4,2,1,15,0,0
48030,-100,4,2,1,35,0,0
49722,-200,4,2,1,35,0,0
50030,-200,4,2,1,15,0,0
50184,-100,4,2,1,35,0,0
52184,-200,4,2,1,35,0,0
52492,-200,4,2,1,15,0,0
52645,-100,4,2,1,35,0,0
52722,-100,4,2,1,15,0,0
52799,-100,4,2,1,35,0,0
54799,-100,4,2,1,15,0,0
54953,-100,4,2,1,35,0,0
55338,-100,4,2,1,15,0,0
55415,-100,4,2,1,35,0,0
55953,-100,4,2,1,15,0,0
56030,-100,4,2,1,35,0,0
57261,-100,4,2,1,15,0,0
57415,-100,4,2,1,35,0,0
57799,-100,4,2,1,15,0,0
57876,-100,4,2,1,35,0,0
58415,-100,4,2,1,15,0,0
58492,-100,4,2,1,35,0,0
59722,-100,4,2,1,15,0,0
59876,-100,4,2,1,35,0,0
60261,-100,4,2,1,15,0,0
60338,-100,4,2,1,35,0,0
60876,-100,4,2,1,15,0,0
60953,-100,4,2,1,35,0,0
62107,-100,4,2,1,15,0,0
62184,-100,4,2,1,35,0,0
62568,-100,4,2,1,15,0,0
62645,-100,4,2,1,35,0,0
64184,-100,4,2,1,25,0,0
64492,-100,4,2,1,35,0,0
73722,-200,4,2,1,35,0,0
74261,-200,4,2,1,35,0,0
74338,-133.333333333333,4,2,1,35,0,0
74953,-133.333333333333,4,2,1,15,0,0
75030,-133.333333333333,4,2,1,35,0,0
75261,-133.333333333333,4,2,1,15,0,0
75338,-133.333333333333,4,2,1,35,0,0
75568,-133.333333333333,4,2,1,15,0,0
75645,-133.333333333333,4,2,1,35,0,0
76184,-133.333333333333,4,2,1,15,0,0
76261,-133.333333333333,4,2,1,35,0,0
76953,-133.333333333333,4,2,1,15,0,0
77030,-133.333333333333,4,2,1,35,0,0
77415,-133.333333333333,4,2,1,15,0,0
77492,-133.333333333333,4,2,1,35,0,0
78030,-133.333333333333,4,2,1,15,0,0
78107,-133.333333333333,4,2,1,35,0,0
78645,-133.333333333333,4,2,1,15,0,0
78722,-133.333333333333,4,2,1,35,0,0
79415,-133.333333333333,4,2,1,15,0,0
79492,-133.333333333333,4,2,1,35,0,0
79876,-133.333333333333,4,2,1,15,0,0
79953,-133.333333333333,4,2,1,35,0,0
80184,-133.333333333333,4,2,1,15,0,0
80261,-133.333333333333,4,2,1,35,0,0
80492,-133.333333333333,4,2,1,15,0,0
80569,-133.333333333333,4,2,1,35,0,0
80799,-133.333333333333,4,2,1,15,0,0
80876,-133.333333333333,4,2,1,35,0,0
81107,-133.333333333333,4,2,1,15,0,0
81184,-133.333333333333,4,2,1,35,0,0
82338,-133.333333333333,4,2,1,15,0,0
82415,-133.333333333333,4,2,1,35,0,0
82953,-133.333333333333,4,2,1,15,0,0
83030,-133.333333333333,4,2,1,35,0,0
84184,-100,4,2,1,55,0,1
103261,-100,4,2,1,35,0,1
103876,-100,4,2,1,55,0,0

[Colours]
Combo1 : 232,197,89
Combo2 : 0,202,0
Combo3 : 18,124,255
Combo4 : 242,24,57
Combo5 : 255,192,0
Combo6 : 142,237,80
Combo7 : 92,73,224
Combo8 : 236,77,160

[HitObjects]
108,54,492,69,0,0:0:0:0:
106,73,645,1,0,0:0:0:0:
104,92,799,6,0,L|183:91,1,65.6250025033952,0|0,0:0|0:0,0:0:0:0:
408,92,1107,1,0,0:0:0:0:
410,111,1261,6,0,L|331:110,1,65.6250025033952,0|0,0:0|0:0,0:0:0:0:
412,130,1568,6,0,L|333:129,1,65.6250025033952,0|0,0:0|0:0,0:0:0:0:
100,130,1876,1,0,0:0:0:0:
98,149,2030,70,0,L|177:148,1,65.6250025033952,0|0,0:0|0:0,0:0:0:0:
414,149,2338,1,0,0:0:0:0:
416,168,2492,6,0,L|337:167,1,65.6250025033952,0|0,0:0|0:0,0:0:0:0:
96,168,2799,1,0,0:0:0:0:
46,342,2953,5,0,0:0:0:0:
65,337,3107,1,0,0:0:0:0:
84,332,3261,1,0,0:0:0:0:
103,327,3415,6,0,L|112:246,1,65.6250025033952,0|0,0:0|0:0,0:0:0:0:
409,327,3722,1,0,0:0:0:0:
390,322,3876,70,0,L|381:241,1,65.6250025033952,0|0,0:0|0:0,0:0:0:0:
141,317,4184,6,0,L|150:236,1,65.6250025033952,0|0,0:0|0:0,0:0:0:0:
371,317,4492,1,0,0:0:0:0:
352,312,4646,6,0,L|343:231,1,65.6250025033952
160,312,4953,1,0,0:0:0:0:
174,234,5107,1,0,0:0:0:0:
188,156,5261,1,0,0:0:0:0:
197,54,5415,6,0,B|210:88|205:127|175:163|175:163|188:156,1,131.25000500679
98,91,5876,1,0,0:0:0:0:
90,172,6030,2,0,L|86:107,1,65.6250025033952,0|0,0:0|0:0,0:0:0:0:
82,253,6338,2,0,L|78:188,1,65.6250025033952,0|0,0:0|0:0,0:0:0:0:
16,321,6645,69,0,0:0:0:0:
111,344,6799,1,0,0:0:0:0:
177,271,6953,1,0,0:0:0:0:
272,294,7107,1,0,0:0:0:0:
387,331,7261,2,0,B|339:330|313:288|313:288|272:294,1,131.25000500679
389,244,7722,1,0,0:0:0:0:
382,112,7876,6,0,L|389:244,1,131.25000500679,0|0,0:0|0:0,0:0:0:0:
465,192,8338,1,0,0:0:0:0:
468,107,8492,2,0,L|471:172,1,65.6250025033952,0|0,0:0|0:0,0:0:0:0:
471,22,8799,2,0,L|474:87,1,65.6250025033952,0|0,0:0|0:0,0:0:0:0:
389,244,9107,5,0,0:0:0:0:
382,112,9261,1,0,0:0:0:0:
299,182,9415,1,0,0:0:0:0:
471,172,9568,5,0,0:0:0:0:
468,180,9644,1,0,0:0:0:0:
464,189,9721,1,0,0:0:0:0:
382,112,9876,2,0,L|365:155,2,32.8125012516976,0|0|0,0:0|0:0|0:0,0:0:0:0:
283,33,10184,1,0,0:0:0:0:
280,41,10260,1,0,0:0:0:0:
276,50,10338,6,0,L|266:117,1,43.75,4|0,3:0|0:0,0:0:0:0:
192,131,10492,2,0,L|186:175,1,43.75
131,34,10645,2,0,L|125:77,3,43.75,0|0|0|0,0:0|0:0|0:0|0:0,0:0:0:0:
38,111,10953,2,0,L|49:13,1,87.5,8|0,0:0|0:0,0:0:0:0:
48,24,11184,1,0,0:0:0:0:
48,24,11261,1,0,0:0:0:0:
25,197,11415,1,0,0:0:0:0:
154,195,11568,2,0,B|122:208|87:196|87:196|57:187|25:198,1,131.25,0|0,0:0|0:0,0:0:0:0:
54,315,11876,6,0,L|59:271,3,43.75,0|0|0|0,3:0|0:0|0:0|0:0,0:0:0:0:
38,330,12184,2,0,L|181:331,1,131.25,8|0,0:0|0:0,0:0:0:0:
191,332,12492,1,0,0:0:0:0:
403,272,12645,5,0,0:0:0:0:
406,261,12723,1,0,0:0:0:0:
410,252,12799,6,0,L|403:148,1,87.5,0|0,3:0|0:0,0:0:0:0:
415,145,13030,1,0,0:0:0:0:
415,145,13107,1,0,0:0:0:0:
288,142,13261,2,0,L|187:152,1,87.5,0|8,0:0|0:0,0:0:0:0:
235,70,13568,1,0,0:0:0:0:
415,145,13722,2,0,L|502:136,1,87.5,0|0,0:0|0:0,0:0:0:0:
450,64,13953,1,0,0:0:0:0:
450,64,14030,2,0,B|404:69|404:69|382:55|382:55|299:61,1,131.25,0|0,0:0|0:0,0:0:0:0:
191,74,14338,70,0,L|235:69,3,43.75,0|0|0|0,3:0|0:0|0:0|0:0,0:0:0:0:
175,60,14645,2,0,P|160:125|200:189,1,131.25,8|0,0:0|0:0,0:0:0:0:
279,199,14953,1,0,0:0:0:0:
277,220,15030,1,0,0:0:0:0:
275,241,15107,1,0,0:0:0:0:
273,262,15184,1,0,0:0:0:0:
271,283,15261,6,0,L|203:276,1,43.75,0|0,3:0|0:0,0:0:0:0:
123,361,15415,2,0,L|130:293,1,43.75,0|0,0:0|0:0,0:0:0:0:
45,214,15568,2,0,L|89:218,3,43.75,0|0|0|0,0:0|0:0|0:0|0:0,0:0:0:0:
188,179,15876,2,0,L|197:91,1,87.5,8|0,0:0|0:0,0:0:0:0:
196,92,16107,1,0,0:0:0:0:
196,92,16184,1,0,0:0:0:0:
315,150,16338,1,0,0:0:0:0:
434,149,16492,2,0,P|374:126|315:150,1,131.25,0|0,0:0|0:0,0:0:0:0:
374,254,16799,6,0,L|375:211,3,43.75,0|0|0|0,3:0|0:0|0:0|0:0,0:0:0:0:
359,271,17107,2,0,L|471:269,1,87.5,8|0,0:0|0:0,0:0:0:0:
275,316,17415,5,0,0:0:0:0:
253,316,17492,1,0,0:0:0:0:
231,316,17568,1,0,0:0:0:0:
209,317,17645,1,0,0:0:0:0:
187,317,17722,70,0,L|93:323,1,87.5,0|0,3:0|0:0,0:0:0:0:
80,333,17953,1,0,0:0:0:0:
80,333,18030,1,0,0:0:0:0:
0,237,18184,2,0,L|-1:138,1,87.5,0|8,0:0|0:0,0:0:0:0:
80,148,18492,1,0,0:0:0:0:
80,333,18645,2,0,L|79:245,1,87.5
80,148,18876,1,0,0:0:0:0:
80,148,18953,2,0,B|139:174|139:174|211:143,1,131.25,0|0,0:0|0:0,0:0:0:0:
311,162,19261,5,0,0:0:0:0:
339,150,19337,1,0,0:0:0:0:
367,138,19414,1,0,0:0:0:0:
395,146,19491,1,0,0:0:0:0:
423,158,19568,6,0,L|424:57,1,87.5,8|0,0:0|0:0,0:0:0:0:
374,231,19876,2,0,L|373:318,1,87.5,0|0,3:0|0:0,0:0:0:0:
311,162,20184,5,0,3:2:0:0:
70,96,22184,102,0,L|133:81,1,43.75
145,0,22338,5,8,0:3:0:0:
141,43,22415,1,8,0:3:0:0:
138,86,22492,1,8,0:3:0:0:
136,129,22568,1,8,0:3:0:0:
134,172,22645,85,4,3:2:0:0:
231,329,22799,1,0,3:2:0:0:
227,122,22953,53,10,0:0:0:0:
225,143,23030,1,0,0:0:0:0:
223,165,23107,1,2,0:0:0:0:
222,186,23183,1,0,0:0:0:0:
220,208,23261,54,0,L|283:193,1,43.75,0|0,3:0|0:0,0:0:0:0:
465,173,23415,1,10,0:2:0:0:
356,285,23568,1,2,0:2:0:0:
355,295,23645,1,0,0:0:0:0:
354,306,23722,2,0,L|349:369,1,43.75,0|0,0:0|0:0,0:0:0:0:
465,173,23876,54,0,L|472:85,1,87.5,2|0,0:0|3:0,0:0:0:0:
372,100,24184,1,8,0:0:0:0:
262,198,24338,2,0,L|278:24,1,175,2|0,3:2|3:0,0:0:0:0:
364,187,24799,2,0,L|372:100,1,87.5,8|2,0:0|0:0,0:0:0:0:
147,187,25107,37,2,3:2:0:0:
128,12,25261,1,0,3:0:0:0:
49,168,25415,1,8,0:0:0:0:
197,77,25568,2,0,B|112:96|112:96|36:47,1,175,2|8,3:2|0:0,0:0:0:0:
147,187,26030,1,2,0:0:0:0:
149,199,26107,1,0,0:0:0:0:
151,211,26184,2,0,L|151:271,1,43.75,0|0,3:0|0:0,0:0:0:0:
0,317,26338,54,0,P|28:284|68:267,1,87.5,2|2,0:0|0:0,0:0:0:0:
155,259,26568,1,2,0:0:0:0:
155,259,26645,1,8,0:0:0:0:
86,361,26799,1,2,0:0:0:0:
49,168,26953,2,0,P|113:153|153:96,1,131.25,10|2,0:0|0:0,0:0:0:0:
151,102,27261,1,0,0:0:0:0:
62,75,27415,1,10,0:0:0:0:
256,32,27568,21,4,3:2:0:0:
450,75,27722,1,0,0:0:0:0:
333,86,27876,53,8,0:0:0:0:
333,107,27953,1,0,0:0:0:0:
333,128,28030,1,2,0:0:0:0:
334,149,28107,1,0,0:0:0:0:
335,170,28184,54,0,L|336:220,1,43.75,0|0,3:0|0:0,0:0:0:0:
342,379,28338,1,8,0:0:0:0:
391,268,28492,1,0,0:0:0:0:
379,286,28568,1,0,0:0:0:0:
367,304,28645,2,0,P|341:300|306:308,1,43.75,0|0,3:0|0:0,0:0:0:0:
225,356,28799,54,0,P|211:311|231:244,1,87.5,2|0,0:0|3:0,0:0:0:0:
323,301,29107,1,10,0:2:0:0:
153,384,29261,2,0,P|136:323|142:254,1,131.25,0|0,3:0|0:0,0:0:0:0:
200,189,29568,1,2,0:0:0:0:
216,174,29645,1,2,0:0:0:0:
232,159,29722,2,0,L|228:94,1,43.75,10|0,0:0|0:0,0:0:0:0:
218,1,29876,1,0,3:0:0:0:
200,189,30030,6,0,L|193:101,1,87.5,4|0,0:0|3:0,0:0:0:0:
141,255,30338,1,8,0:0:0:0:
110,131,30492,2,0,B|116:218|116:218|141:255,1,131.25,0|0,3:0|0:0,0:0:0:0:
200,189,30799,1,10,0:0:0:0:
371,255,30953,1,2,0:0:0:0:
401,223,31030,1,0,0:0:0:0:
430,189,31107,1,2,0:0:0:0:
323,102,31261,54,0,L|311:203,1,87.5,8|2,0:0|0:0,0:0:0:0:
209,291,31568,2,0,L|209:334,3,43.75,8|0|2|0,0:0|0:0|0:0|0:0,0:0:0:0:
222,272,31876,2,0,P|179:274|122:234,1,87.5,8|0,0:0|0:0,0:0:0:0:
53,272,32107,1,0,0:0:0:0:
43,252,32184,2,0,L|51:192,1,43.75,2|0,0:0|0:0,0:0:0:0:
200,189,32338,1,10,0:0:0:0:
195,145,32415,1,8,0:0:0:0:
190,101,32492,21,4,3:2:0:0:
392,131,32645,1,0,3:2:0:0:
277,28,32799,53,10,0:0:0:0:
277,49,32876,1,0,0:0:0:0:
278,70,32953,1,2,0:0:0:0:
279,91,33030,1,0,0:0:0:0:
280,112,33107,54,0,L|281:167,1,43.75,0|0,3:0|0:0,0:0:0:0:
288,338,33261,1,10,0:2:0:0:
392,131,33415,1,2,0:2:0:0:
378,148,33492,1,0,0:0:0:0:
364,164,33568,2,0,L|365:219,1,43.75,0|0,0:0|0:0,0:0:0:0:
288,338,33722,6,0,L|285:245,1,87.5,2|0,0:0|3:0,0:0:0:0:
368,296,34030,1,8,0:0:0:0:
213,382,34184,2,0,L|206:189,1,175,2|0,3:2|3:0,0:0:0:0:
368,296,34645,2,0,L|365:208,1,87.5,8|2,0:0|0:0,0:0:0:0:
357,32,34953,5,2,3:2:0:0:
457,175,35107,1,0,3:0:0:0:
290,111,35261,1,8,0:0:0:0:
462,78,35415,2,0,B|388:123|388:123|358:233,1,175,2|8,3:2|0:0,0:0:0:0:
357,32,35876,1,2,0:0:0:0:
335,26,35953,1,0,0:0:0:0:
313,20,36030,2,0,L|249:20,1,43.75,0|0,3:0|0:0,0:0:0:0:
127,20,36184,86,0,P|142:66|129:126,1,87.5,2|2,0:0|0:0,0:0:0:0:
86,177,36415,1,2,0:0:0:0:
86,177,36492,1,8,0:0:0:0:
46,72,36645,1,2,0:0:0:0:
180,190,36799,2,0,P|165:236|195:324,1,131.25,10|2,0:0|0:0,0:0:0:0:
186,313,37107,1,0,0:0:0:0:
273,247,37261,1,10,0:0:0:0:
345,331,37415,53,4,3:2:0:0:
370,115,37568,1,0,0:0:0:0:
273,247,37722,1,8,0:0:0:0:
294,242,37799,1,0,0:0:0:0:
315,237,37876,1,2,0:0:0:0:
336,232,37953,1,0,0:0:0:0:
357,228,38030,54,0,L|423:214,1,43.75,0|0,3:0|0:0,0:0:0:0:
512,192,38184,1,8,0:0:0:0:
370,115,38338,1,0,0:0:0:0:
391,109,38415,1,0,0:0:0:0:
412,104,38492,2,0,L|478:90,1,43.75,0|0,3:0|0:0,0:0:0:0:
399,218,38645,70,0,L|279:245,1,87.5,2|0,0:0|3:0,0:0:0:0:
198,266,38953,1,10,0:2:0:0:
241,143,39107,2,0,L|370:115,1,131.25,0|0,3:0|0:0,0:0:0:0:
458,54,39415,1,2,0:0:0:0:
465,74,39492,1,2,0:0:0:0:
472,94,39568,2,0,L|470:144,1,43.75,10|0,0:0|0:0,0:0:0:0:
464,312,39722,1,0,3:0:0:0:
468,224,39876,38,0,L|463:332,1,87.5,4|0,0:0|3:0,0:0:0:0:
261,261,40184,1,8,0:0:0:0:
384,263,40338,2,0,B|325:240|325:240|254:263,1,131.25,0|0,3:0|0:0,0:0:0:0:
324,324,40645,1,10,0:0:0:0:
325,196,40799,1,2,0:0:0:0:
325,152,40876,1,0,0:0:0:0:
325,108,40953,1,2,0:0:0:0:
187,108,41107,54,0,L|187:229,1,87.5,8|2,0:0|0:0,0:0:0:0:
114,52,41415,2,0,L|114:96,3,43.75,8|0|2|0,0:0|0:0|0:0|0:0,0:0:0:0:
102,113,41722,2,0,P|144:101|187:108,1,87.5,8|0,0:0|0:0,0:0:0:0:
272,92,41953,1,0,0:0:0:0:
282,110,42030,2,0,L|284:174,1,43.75,2|0,0:0|0:0,0:0:0:0:
288,262,42184,1,10,0:0:0:0:
288,262,42261,1,8,0:0:0:0:
288,262,42338,5,4,0:1:0:0:
380,59,44799,54,0,L|372:147,1,87.5,0|0,0:0|0:0,0:0:0:0:
446,195,45261,86,0,B|373:146|373:146|276:183,1,175,0|0,0:0|0:0,0:0:0:0:
365,241,45722,1,0,0:0:0:0:
282,287,45876,2,0,B|355:336|355:336|436:304,1,175,0|0,0:0|0:0,0:0:0:0:
175,283,46338,2,0,B|217:271|217:271|256:293,1,87.5,0|0,0:0|0:0,0:0:0:0:
103,307,46645,2,0,B|124:269|124:269|167:258,1,87.5,0|0,0:0|0:0,0:0:0:0:
69,377,46953,2,0,B|57:335|57:335|79:297,1,87.5,0|0,0:0|0:0,0:0:0:0:
84,136,47261,86,0,L|71:108,4,21.875,0|0|0|0|0,0:0|0:0|0:0|0:0|0:0,0:0:0:0:
201,160,47722,54,0,B|218:124|218:124|83:135,1,175,0|0,0:0|0:0,0:0:0:0:
291,174,48184,1,0,0:0:0:0:
408,198,48338,2,0,B|425:162|425:162|291:174,1,175,0|0,0:0|0:0,0:0:0:0:
453,345,48799,2,0,P|397:282|408:198,1,175,0|0,0:0|0:0,0:0:0:0:
490,254,49261,1,0,0:0:0:0:
510,157,49415,2,0,L|497:47,1,87.5,0|0,0:0|0:0,0:0:0:0:
398,111,49722,6,0,L|408:197,1,87.5,0|0,0:0|0:0,0:0:0:0:
298,238,50184,86,0,L|287:151,1,87.5,0|0,0:0|0:0,0:0:0:0:
288,137,50415,1,0,0:0:0:0:
288,137,50492,1,0,0:0:0:0:
197,277,50645,1,0,0:0:0:0:
175,103,50799,2,0,L|197:277,1,175,0|0,0:0|0:0,0:0:0:0:
32,250,51261,2,0,L|10:76,1,175,0|0,0:0|0:0,0:0:0:0:
87,35,51722,1,0,0:0:0:0:
98,127,51876,2,0,L|108:213,1,87.5,0|0,0:0|0:0,0:0:0:0:
282,280,52184,6,0,B|245:275|245:275|238:281|238:281|191:275,1,87.5
265,363,52645,6,0,L|446:379,1,175,0|0,0:0|0:0,0:0:0:0:
362,285,53107,1,0,0:0:0:0:
456,206,53261,2,0,L|281:190,1,175,0|0,0:0|0:0,0:0:0:0:
380,101,53722,1,0,0:0:0:0:
362,285,53876,1,0,0:0:0:0:
456,206,54030,1,0,0:0:0:0:
281,190,54184,53,0,0:0:0:0:
193,196,54338,1,0,0:0:0:0:
105,200,54492,1,0,0:0:0:0:
18,205,54645,54,0,P|26:159|79:118,1,87.5,4|0,3:2|0:0,0:0:0:0:
105,200,54953,1,8,0:0:0:0:
193,196,55107,86,0,B|185:260|185:260|203:288|203:288|190:377,1,175,0|0,0:3|3:3,0:0:0:0:
113,309,55568,1,0,0:0:0:0:
269,240,55722,2,0,P|355:264|448:240,1,175,8|0,0:0|3:0,0:0:0:0:
432,157,56184,1,0,0:0:0:0:
498,313,56338,1,8,0:0:0:0:
440,63,56492,53,0,3:0:0:0:
432,157,56645,1,0,3:0:0:0:
440,63,56799,2,0,L|327:62,1,87.5,8|0,0:0|0:0,0:0:0:0:
175,102,57107,102,0,L|262:102,1,87.5,0|0,3:0|0:0,0:0:0:0:
115,43,57415,1,8,0:0:0:0:
150,185,57568,54,0,P|93:124|115:42,1,175,0|0,3:0|3:0,0:0:0:0:
175,102,58030,1,0,0:0:0:0:
297,128,58184,2,0,B|263:103|263:103|175:102,1,131.25,8|0,0:0|0:0,0:0:0:0:
235,180,58492,1,0,3:0:0:0:
240,191,58568,1,0,3:0:0:0:
243,203,58645,54,0,P|241:247|220:303,1,87.5,8|0,3:2|3:0,0:0:0:0:
297,128,58953,2,0,P|298:83|320:28,1,87.5,8|0,0:0|3:0,0:0:0:0:
356,231,59261,1,0,3:0:0:0:
175,102,59415,1,8,0:0:0:0:
385,96,59568,22,0,L|493:91,1,87.5,0|0,3:0|0:0,0:0:0:0:
434,169,59876,1,8,0:0:0:0:
424,19,60030,102,0,B|385:96|385:96|437:174,1,175,0|0,3:0|3:0,0:0:0:0:
486,239,60492,1,0,0:0:0:0:
318,247,60645,2,0,B|355:229|397:248|397:248|443:267|485:239,1,175,8|0,0:0|3:0,0:0:0:0:
434,169,61107,1,0,3:0:0:0:
356,322,61261,1,8,0:0:0:0:
285,126,61415,5,0,3:0:0:0:
318,247,61568,1,0,3:0:0:0:
285,126,61722,2,0,P|241:132|193:121,1,87.5,8|0,0:0|3:0,0:0:0:0:
127,72,62030,5,0,3:0:0:0:
247,24,62184,1,8,0:0:0:0:
247,24,62338,1,0,3:0:0:0:
121,158,62492,53,0,3:0:0:0:
19,78,62646,1,8,0:0:0:0:
19,78,62800,1,0,3:0:0:0:
199,123,62953,5,0,3:0:0:0:
180,251,63107,1,8,0:0:0:0:
127,72,63261,5,0,3:0:0:0:
141,56,63338,1,0,3:0:0:0:
160,45,63415,2,0,P|203:37|260:60,1,87.5,8|0,3:2|3:0,0:0:0:0:
285,126,63722,1,0,3:0:0:0:
370,107,63876,2,0,L|382:16,1,87.5,8|0,0:0|3:0,0:0:0:0:
461,51,64107,1,0,3:0:0:0:
461,51,64184,2,0,L|455:94,4,43.75,8|8|8|8|0,0:3|0:3|0:3|0:3|0:0,0:0:0:0:
121,76,73722,6,0,L|138:72,6,10.9375
121,76,74030,2,0,L|117:148,1,65.625,0|0,0:0|0:0,0:0:0:0:
113,224,74338,6,0,P|144:214|192:226,1,65.6250025033952,0|0,0:0|0:0,0:0:0:0:
256,274,74645,1,0,0:0:0:0:
336,218,74799,2,0,L|327:83,2,131.25000500679,0|0|0,0:0|0:0|0:0,0:0:0:0:
336,218,75722,53,0,0:0:0:0:
395,296,75876,1,0,0:0:0:0:
316,356,76030,1,0,0:0:0:0:
316,356,76338,5,0,0:0:0:0:
395,296,76492,1,0,0:0:0:0:
336,218,76645,1,0,0:0:0:0:
256,274,76799,6,0,P|241:235|251:182,1,65.6250025033952,0|0,0:0|0:0,0:0:0:0:
292,126,77107,1,0,0:0:0:0:
215,63,77261,2,0,L|68:74,1,131.25000500679,0|0,0:0|0:0,0:0:0:0:
3,15,77722,1,0,0:0:0:0:
80,85,77876,6,0,L|210:75,1,131.25000500679,0|0,0:0|0:0,0:0:0:0:
292,126,78338,1,0,0:0:0:0:
373,70,78492,2,0,P|390:137|351:204,1,131.25000500679,0|0,0:0|0:0,0:0:0:0:
271,222,78953,1,0,0:0:0:0:
292,126,79107,1,0,0:0:0:0:
197,154,79261,6,0,P|176:186|171:226,1,65.6250025033952,0|0,0:0|0:0,0:0:0:0:
271,222,79568,1,0,0:0:0:0:
292,126,79722,2,0,P|256:69|184:55,2,131.25000500679,0|0|0,0:0|0:0|0:0,0:0:0:0:
292,126,80645,38,0,L|454:122,1,131.25000500679,0|0,0:0|0:0,0:0:0:0:
423,123,81261,21,0,0:0:0:0:
419,221,81415,1,0,0:0:0:0:
416,318,81568,1,0,0:0:0:0:
385,329,81722,5,0,0:0:0:0:
388,232,81875,1,0,0:0:0:0:
392,134,82029,1,0,0:0:0:0:
260,138,82184,6,0,L|391:134,1,131.25000500679,0|0,0:0|0:0,0:0:0:0:
388,232,82645,1,0,0:0:0:0:
322,233,82799,2,0,L|407:231,1,65.6250025033952,0|0,0:0|0:0,0:0:0:0:
385,329,83107,1,0,0:0:0:0:
286,334,83261,1,0,0:0:0:0:
187,337,83415,1,0,0:0:0:0:
106,316,83568,6,0,L|71:308,3,32.8125012516976,0|0|0|0,0:0|0:0|0:0|0:0,0:0:0:0:
187,337,83876,6,0,L|197:371,3,32.8125012516976,0|0|0|0,0:0|0:0|0:0|0:0,0:0:0:0:
164,253,84184,6,0,L|238:171,1,87.5,6|0,3:2|3:0,0:0:0:0:
317,59,84492,1,10,0:0:0:0:
352,136,84645,2,0,B|282:136|282:136|256:115|256:115|175:114,1,175,2|10,3:2|0:0,0:0:0:0:
47,116,85107,1,0,0:0:0:0:
122,43,85261,1,2,3:2:0:0:
122,43,85338,1,2,0:0:0:0:
122,43,85415,5,2,0:0:0:0:
118,188,85568,1,0,3:0:0:0:
119,335,85722,1,8,0:0:0:0:
29,262,85876,1,2,3:2:0:0:
207,260,86030,1,2,3:2:0:0:
44,278,86184,5,8,0:0:0:0:
222,276,86338,1,0,0:0:0:0:
402,270,86492,1,2,3:2:0:0:
328,316,86645,22,0,P|315:272|327:228,1,87.5,2|2,0:0|3:2,0:0:0:0:
383,101,86953,1,8,0:0:0:0:
461,142,87107,2,0,P|429:175|385:187,1,87.5,2|2,3:2|3:2,0:0:0:0:
243,196,87415,1,10,0:0:0:0:
240,109,87569,2,0,P|285:119|317:151,1,87.5,0|2,3:0|3:2,0:0:0:0:
324,233,87876,6,0,L|317:355,1,87.5,2|0,0:0|3:0,0:0:0:0:
323,342,88107,1,2,3:2:0:0:
323,342,88184,1,8,3:2:0:0:
390,187,88338,1,2,3:2:0:0:
237,283,88492,2,0,L|242:195,1,87.5,10|2,0:0|3:2,0:0:0:0:
246,174,88722,1,0,3:0:0:0:
246,174,88799,1,8,3:2:0:0:
252,11,88953,1,2,3:2:0:0:
290,80,89107,22,0,P|250:90|206:76,1,87.5,2|0,0:0|3:0,0:0:0:0:
128,35,89415,1,10,0:2:0:0:
55,83,89568,2,0,L|60:260,1,175,2|10,3:2|0:2,0:0:0:0:
31,341,90030,1,0,0:0:0:0:
200,292,90184,1,2,3:2:0:0:
115,317,90338,5,2,0:0:0:0:
130,186,90492,1,0,3:0:0:0:
215,161,90645,1,8,0:0:0:0:
200,292,90799,1,2,3:2:0:0:
312,292,90953,5,0,3:0:0:0:
297,161,91107,1,10,0:0:0:0:
382,186,91260,1,0,0:0:0:0:
397,317,91414,1,0,3:0:0:0:
297,161,91568,5,2,0:0:0:0:
297,161,91645,1,0,0:0:0:0:
297,161,91722,1,0,3:0:0:0:
357,98,91876,2,0,L|349:6,1,87.5,10|0,0:0|3:0,0:0:0:0:
349,10,92107,1,2,0:0:0:0:
349,10,92184,1,0,3:0:0:0:
444,52,92338,1,10,0:0:0:0:
269,79,92492,2,0,P|229:107|210:155,1,87.5,2|8,3:2|0:0,0:0:0:0:
239,229,92722,1,2,0:0:0:0:
239,229,92799,22,0,L|120:230,1,87.5,2|0,0:0|3:0,0:0:0:0:
76,283,93030,1,2,3:2:0:0:
63,300,93107,2,0,L|61:358,3,43.75,8|2|0|2,3:2|0:0|0:0|0:0,0:0:0:0:
12,210,93415,2,0,L|14:90,1,87.5,10|2,0:0|3:2,0:0:0:0:
76,51,93645,1,2,3:2:0:0:
76,51,93722,2,0,P|116:60|169:51,1,87.5,8|2,3:2|3:2,0:0:0:0:
302,10,94030,6,0,L|308:118,1,87.5,4|0,3:2|3:0,0:0:0:0:
319,252,94338,1,8,0:0:0:0:
443,172,94492,2,0,B|404:195|355:177|355:177|308:159|260:186,1,175,2|10,3:2|0:2,0:0:0:0:
397,104,94953,1,2,0:0:0:0:
319,252,95107,1,2,3:2:0:0:
315,273,95184,1,2,0:2:0:0:
312,294,95261,21,2,0:2:0:0:
180,303,95415,1,2,3:2:0:0:
49,310,95568,1,8,0:0:0:0:
120,374,95722,1,2,3:2:0:0:
112,242,95876,1,0,3:0:0:0:
135,371,96030,5,8,0:0:0:0:
127,239,96184,1,2,0:0:0:0:
126,217,96261,1,0,0:0:0:0:
126,195,96338,1,0,3:0:0:0:
126,173,96415,1,2,0:0:0:0:
109,158,96492,6,0,L|57:160,3,43.75,2|0|0|2,0:0|0:0|3:0|0:0,0:0:0:0:
181,114,96799,6,0,L|224:112,3,43.75,8|2|2|0,0:0|0:0|3:2|0:0,0:0:0:0:
292,71,97107,22,0,P|303:130|272:179,1,87.5,0|10,3:0|0:0,0:0:0:0:
220,201,97338,1,0,0:0:0:0:
220,201,97415,2,0,L|222:268,3,43.75,2|2|0|2,3:2|0:0|3:0|0:0,0:0:0:0:
229,341,97722,5,4,3:2:0:0:
229,341,97876,1,4,3:2:0:0:
398,140,98184,1,4,3:2:0:0:
140,94,98492,1,4,3:2:0:0:
229,341,98799,1,4,3:2:0:0:
321,244,98953,21,4,3:0:0:0:
341,251,99030,1,4,3:0:0:0:
361,258,99107,1,4,3:0:0:0:
381,265,99184,1,4,3:0:0:0:
401,272,99261,6,0,L|394:379,1,87.5,4|2,3:2|3:2,0:0:0:0:
414,182,99568,1,0,0:0:0:0:
422,88,99722,1,10,0:2:0:0:
401,272,99876,1,0,0:0:0:0:
415,182,100030,2,0,P|355:196|256:170,1,131.25,2|0,3:2|0:0,0:0:0:0:
240,117,100338,5,2,3:2:0:0:
243,95,100415,1,2,3:2:0:0:
247,73,100492,1,10,3:2:0:0:
345,116,100645,1,0,3:0:0:0:
148,29,100799,2,0,P|108:25|57:42,1,87.5,10|0,0:0|3:0,0:0:0:0:
84,195,101107,2,0,P|93:152|118:116,1,87.5,10|2,0:2|3:2,0:0:0:0:
184,186,101415,6,0,P|202:225|234:254,1,87.5,8|0,0:0|3:0,0:0:0:0:
253,265,101645,1,0,3:0:0:0:
253,265,101722,1,2,3:2:0:0:
362,160,101876,2,0,P|321:173|278:170,1,87.5,8|0,0:0|3:0,0:0:0:0:
225,94,102107,1,2,3:2:0:0:
217,73,102184,2,0,L|219:26,1,43.75,10|0,3:2|3:0,0:0:0:0:
314,49,102338,2,0,L|312:92,3,43.75,2|2|0|0,3:2|3:2|3:2|3:2,0:0:0:0:
414,66,102645,21,8,0:2:0:0:
480,158,102799,1,2,3:2:0:0:
478,179,102876,1,2,3:2:0:0:
477,200,102953,2,0,L|474:271,1,43.75,8|10,3:2|0:2,0:0:0:0:
471,351,103107,1,2,3:2:0:0:
471,351,103184,1,0,3:2:0:0:
471,351,103261,6,0,L|409:338,3,43.75,8|8|8|8,3:3|0:3|0:3|0:3,0:0:0:0:
340,241,103568,22,0,L|382:249,3,43.75,8|8|8|8,0:3|0:3|0:3|0:3,0:0:0:0:
477,200,103876,5,4,0:0:0:0:
