osu file format v14

[General]
AudioFilename: audio.mp3
AudioLeadIn: 0
PreviewTime: 54645
Countdown: 0
SampleSet: Soft
StackLeniency: 0.2
Mode: 0
LetterboxInBreaks: 0
WidescreenStoryboard: 1

[Editor]
Bookmarks: 5415,10338,20184,22645,32492,42338,44799,54645,64492,74338,84184,94030,103876,113568
DistanceSpacing: 0.3
BeatDivisor: 4
GridSize: 8
TimelineZoom: 2.1

[Metadata]
Title:Altros
TitleUnicode:Altros
Artist:ARForest
ArtistUnicode:ARForest
Creator:Shiirn
Version:Dream Fragments
Source:BMS
Tags:PABAT! 2017 k-bms inukoro artcore Ambient Halfslashed Anxient Mir Ongaku
BeatmapID:1319206
BeatmapSetID:625822

[Difficulty]
HPDrainRate:9
CircleSize:4.2
OverallDifficulty:9.3
ApproachRate:9.5
SliderMultiplier:1.81
SliderTickRate:1

[Events]
//Background and Video events
0,0,"abstract-futuristic.jpg",0,0
Video,9,"COLORS.flv"
//Break Periods
2,20384,21813
2,42538,44274
2,64692,73813
//Storyboard Layer 0 (Background)
//Storyboard Layer 1 (Fail)
//Storyboard Layer 2 (Pass)
//Storyboard Layer 3 (Foreground)
//Storyboard Sound Samples

[TimingPoints]
492,307.692307692308,4,2,1,35,1,0
492,-133.333333333333,4,2,1,35,0,0
645,-133.333333333333,4,2,1,15,0,0
722,-133.333333333333,4,2,1,35,0,0
1261,-133.333333333333,4,2,1,15,0,0
1338,-133.333333333333,4,2,1,35,0,0
1722,-133.333333333333,4,2,1,15,0,0
1799,-133.333333333333,4,2,1,35,0,0
2030,-133.333333333333,4,2,1,15,0,0
2107,-133.333333333333,4,2,1,35,0,0
2492,-133.333333333333,4,2,1,15,0,0
2569,-133.333333333333,4,2,1,35,0,0
2799,-133.333333333333,4,2,1,15,0,0
2876,-133.333333333333,4,2,1,35,0,0
3415,-133.333333333333,4,2,1,15,0,0
3492,-133.333333333333,4,2,1,35,0,0
3876,-133.333333333333,4,2,1,15,0,0
3953,-133.333333333333,4,2,1,35,0,0
4184,-133.333333333333,4,2,1,15,0,0
4261,-133.333333333333,4,2,1,35,0,0
4645,-133.333333333333,4,2,1,15,0,0
4722,-133.333333333333,4,2,1,35,0,0
4953,-133.333333333333,4,2,1,15,0,0
5030,-133.333333333333,4,2,1,35,0,0
5261,-133.333333333333,4,2,1,15,0,0
5338,-133.333333333333,4,2,1,35,0,0
5645,-133.333333333333,4,2,1,15,0,0
5722,-133.333333333333,4,2,1,35,0,0
7415,-133.333333333333,4,2,1,15,0,0
7492,-133.333333333333,4,2,1,35,0,0
8107,-133.333333333333,4,2,1,15,0,0
8184,-133.333333333333,4,2,1,35,0,0
9415,-133.333333333333,4,2,1,15,0,0
9492,-133.333333333333,4,2,1,35,0,0
9799,-133.333333333333,4,2,1,15,0,0
9876,-133.333333333333,4,2,1,35,0,0
10107,-133.333333333333,4,2,1,15,0,0
10184,-133.333333333333,4,2,1,35,0,0
10338,-100,4,2,1,35,0,0
10722,-100,4,2,1,15,0,0
10799,-100,4,2,1,35,0,0
10876,-100,4,2,1,15,0,0
10953,-100,4,2,1,35,0,0
11415,-100,4,2,1,15,0,0
11492,-100,4,2,1,35,0,0
11953,-100,4,2,1,15,0,0
12030,-100,4,2,1,35,0,0
12107,-100,4,2,1,15,0,0
12184,-100,4,2,1,35,0,0
14415,-100,4,2,1,15,0,0
14492,-100,4,2,1,35,0,0
14568,-100,4,2,1,15,0,0
14645,-100,4,2,1,35,0,0
15030,-100,4,2,1,15,0,0
15107,-100,4,2,1,35,0,0
15184,-100,4,2,1,15,0,0
15261,-100,4,2,1,35,0,0
15645,-100,4,2,1,15,0,0
15722,-100,4,2,1,35,0,0
15799,-100,4,2,1,15,0,0
15876,-100,4,2,1,35,0,0
16338,-100,4,2,1,15,0,0
16415,-100,4,2,1,35,0,0
16492,-100,4,2,1,15,0,0
16569,-100,4,2,1,35,0,0
16876,-100,4,2,1,15,0,0
16953,-100,4,2,1,35,0,0
17030,-100,4,2,1,15,0,0
17107,-100,4,2,1,35,0,0
17492,-100,4,2,1,15,0,0
17569,-100,4,2,1,35,0,0
17645,-100,4,2,1,15,0,0
17722,-100,4,2,1,35,0,0
18953,-100,4,2,1,15,0,0
19030,-100,4,2,1,35,0,0
19338,-100,4,2,1,15,0,0
19415,-100,4,2,1,35,0,0
19492,-100,4,2,1,15,0,0
19569,-100,4,2,1,35,0,0
22645,-100,4,2,1,55,0,1
32415,-100,4,2,1,55,0,0
32492,-100,4,2,1,55,0,1
42338,-100,4,2,1,55,0,0
44799,-133.333333333333,4,2,1,35,0,0
45184,-133.333333333333,4,2,1,15,0,0
45261,-133.333333333333,4,2,1,35,0,0
47645,-133.333333333333,4,2,1,15,0,0
47722,-133.333333333333,4,2,1,35,0,0
47953,-133.333333333333,4,2,1,15,0,0
48030,-133.333333333333,4,2,1,35,0,0
50107,-133.333333333333,4,2,1,15,0,0
50184,-133.333333333333,4,2,1,35,0,0
52568,-133.333333333333,4,2,1,15,0,0
52645,-133.333333333333,4,2,1,35,0,0
52722,-133.333333333333,4,2,1,15,0,0
52799,-133.333333333333,4,2,1,35,0,0
54876,-133.333333333333,4,2,1,15,0,0
54953,-133.333333333333,4,2,1,35,0,0
55338,-133.333333333333,4,2,1,15,0,0
55415,-133.333333333333,4,2,1,35,0,0
55953,-133.333333333333,4,2,1,15,0,0
56030,-133.333333333333,4,2,1,35,0,0
57338,-133.333333333333,4,2,1,15,0,0
57415,-133.333333333333,4,2,1,35,0,0
57799,-133.333333333333,4,2,1,15,0,0
57876,-133.333333333333,4,2,1,35,0,0
58415,-133.333333333333,4,2,1,15,0,0
58492,-133.333333333333,4,2,1,35,0,0
59799,-133.333333333333,4,2,1,15,0,0
59876,-133.333333333333,4,2,1,35,0,0
60261,-133.333333333333,4,2,1,15,0,0
60338,-133.333333333333,4,2,1,35,0,0
60876,-133.333333333333,4,2,1,15,0,0
60953,-133.333333333333,4,2,1,35,0,0
62107,-133.333333333333,4,2,1,15,0,0
62184,-133.333333333333,4,2,1,35,0,0
62568,-133.333333333333,4,2,1,15,0,0
62645,-133.333333333333,4,2,1,35,0,0
64184,-133.333333333333,4,2,1,25,0,0
64492,-133.333333333333,4,2,1,35,0,0
74338,-133.333333333333,4,2,1,35,0,0
74953,-133.333333333333,4,2,1,15,0,0
75030,-133.333333333333,4,2,1,35,0,0
75261,-133.333333333333,4,2,1,15,0,0
75338,-133.333333333333,4,2,1,35,0,0
75568,-133.333333333333,4,2,1,15,0,0
75645,-133.333333333333,4,2,1,35,0,0
76184,-133.333333333333,4,2,1,15,0,0
76261,-133.333333333333,4,2,1,35,0,0
76953,-133.333333333333,4,2,1,15,0,0
77030,-133.333333333333,4,2,1,35,0,0
77415,-133.333333333333,4,2,1,15,0,0
77492,-133.333333333333,4,2,1,35,0,0
78030,-133.333333333333,4,2,1,15,0,0
78107,-133.333333333333,4,2,1,35,0,0
78645,-133.333333333333,4,2,1,15,0,0
78722,-133.333333333333,4,2,1,35,0,0
79415,-133.333333333333,4,2,1,15,0,0
79492,-133.333333333333,4,2,1,35,0,0
79876,-133.333333333333,4,2,1,15,0,0
79953,-133.333333333333,4,2,1,35,0,0
80184,-133.333333333333,4,2,1,15,0,0
80261,-133.333333333333,4,2,1,35,0,0
80492,-133.333333333333,4,2,1,15,0,0
80569,-133.333333333333,4,2,1,35,0,0
80799,-133.333333333333,4,2,1,15,0,0
80876,-133.333333333333,4,2,1,35,0,0
81107,-133.333333333333,4,2,1,15,0,0
81184,-133.333333333333,4,2,1,35,0,0
82338,-133.333333333333,4,2,1,15,0,0
82415,-133.333333333333,4,2,1,35,0,0
82953,-133.333333333333,4,2,1,15,0,0
83030,-133.333333333333,4,2,1,35,0,0
84184,-100,4,2,1,55,0,1
93876,-100,4,2,1,55,0,0
94030,-100,4,2,1,55,0,1
103261,-100,4,2,1,35,0,1
103876,-100,4,2,1,55,0,0

[Colours]
Combo1 : 232,197,89
Combo2 : 0,202,0
Combo3 : 18,124,255
Combo4 : 242,24,57
Combo5 : 255,192,0
Combo6 : 142,237,80
Combo7 : 92,73,224
Combo8 : 236,77,160

[HitObjects]
40,144,492,54,0,L|138:121,1,67.8750025892259,0|0,0:0|0:0,0:0:0:0:
172,112,799,1,0,0:0:0:0:
48,152,953,5,0,0:0:0:0:
114,136,1107,2,0,L|212:113,1,67.8750025892259
56,160,1415,5,0,0:0:0:0:
122,144,1569,2,0,L|220:121,1,67.8750025892259,0|0,0:0|0:0,0:0:0:0:
64,168,1876,6,0,L|162:145,1,67.8750025892259,0|0,0:0|0:0,0:0:0:0:
196,136,2184,1,0,0:0:0:0:
72,176,2338,6,0,L|170:153,1,67.8750025892259,0|0,0:0|0:0,0:0:0:0:
270,159,2645,2,0,L|172:136,1,67.8750025892259,0|0,0:0|0:0,0:0:0:0:
80,184,2953,69,0,0:0:0:0:
88,192,3107,1,0,0:0:0:0:
286,175,3261,2,0,L|188:152,1,67.8750025892259,0|0,0:0|0:0,0:0:0:0:
96,200,3568,5,0,0:0:0:0:
304,192,3722,2,0,L|206:169,1,67.8750025892259
106,209,4030,2,0,L|204:186,1,67.8750025892259,0|0,0:0|0:0,0:0:0:0:
242,185,4338,5,0,0:0:0:0:
111,218,4492,2,0,L|209:195,1,67.8750025892259,0|0,0:0|0:0,0:0:0:0:
378,193,4799,6,0,L|280:216,1,67.8750025892259,0|0,0:0|0:0,0:0:0:0:
120,224,5107,2,0,L|218:247,1,67.8750025892259,0|0,0:0|0:0,0:0:0:0:
385,301,5415,70,0,B|401:236|401:236|382:199,1,101.812503883839
378,193,5722,1,0,0:0:0:0:
296,215,5876,1,0,0:0:0:0:
384,184,6030,1,0,0:0:0:0:
302,206,6184,1,0,0:0:0:0:
392,176,6338,5,0,0:0:0:0:
310,198,6492,1,0,0:0:0:0:
228,176,6645,1,0,0:0:0:0:
146,198,6799,1,0,0:0:0:0:
400,168,6953,5,0,0:0:0:0:
236,168,7107,1,0,0:0:0:0:
408,160,7261,2,0,B|368:160|368:160|336:136,1,67.8750025892259,0|0,0:0|0:0,0:0:0:0:
136,208,7568,1,0,0:0:0:0:
218,186,7722,1,0,0:0:0:0:
304,200,7876,6,0,B|320:272|320:272|312:304,1,101.812503883839,0|0,0:0|0:0,0:0:0:0:
304,312,8184,1,0,0:0:0:0:
224,304,8338,1,0,0:0:0:0:
296,320,8492,1,0,0:0:0:0:
216,312,8646,1,0,0:0:0:0:
288,328,8799,69,0,0:0:0:0:
208,320,8953,1,0,0:0:0:0:
128,312,9107,1,0,0:0:0:0:
48,304,9261,2,0,L|64:216,1,67.8750025892259,0|0,0:0|0:0,0:0:0:0:
208,320,9568,1,0,0:0:0:0:
208,320,9645,1,0,0:0:0:0:
208,320,9722,6,0,L|218:260,1,33.9375012946129,0|0,0:0|0:0,0:0:0:0:
264,176,9876,1,0,0:0:0:0:
264,176,9953,1,0,0:0:0:0:
264,176,10030,6,0,L|274:235,1,33.9375012946129,0|0,0:0|0:0,0:0:0:0:
373,350,10184,1,0,0:0:0:0:
381,334,10261,1,0,0:0:0:0:
389,318,10338,70,0,L|301:294,1,90.5,4|0,3:0|0:0,0:0:0:0:
461,186,10645,2,0,L|468:245,1,45.25,0|0,0:0|0:0,0:0:0:0:
381,182,10799,2,0,L|388:241,1,45.25,0|0,0:0|0:0,0:0:0:0:
481,246,10953,70,0,L|466:131,1,90.5,8|0,0:0|0:0,0:0:0:0:
372,172,11184,1,0,0:0:0:0:
365,163,11261,2,0,L|377:269,1,90.5,0|0,0:0|0:0,0:0:0:0:
247,186,11568,5,0,0:0:0:0:
398,256,11722,2,0,L|388:180,1,45.25,0|0,0:0|0:0,0:0:0:0:
264,176,11876,2,0,L|271:235,1,45.25,0|0,3:0|0:0,0:0:0:0:
196,228,12030,2,0,L|203:287,1,45.25,0|0,0:0|0:0,0:0:0:0:
281,168,12184,6,0,L|293:266,1,90.5,8|0,0:0|0:0,0:0:0:0:
389,318,12492,2,0,L|301:342,1,90.5
296,349,12722,1,0,0:0:0:0:
291,356,12799,6,0,L|271:247,1,90.5,0|0,3:0|0:0,0:0:0:0:
259,186,13107,1,0,0:0:0:0:
389,318,13261,2,0,L|309:339,1,45.25
251,194,13415,70,0,L|267:283,1,90.5,8|0,0:0|0:0,0:0:0:0:
283,364,13722,1,0,0:0:0:0:
243,202,13876,2,0,L|255:272,1,45.25,0|0,0:0|0:0,0:0:0:0:
275,372,14030,5,0,0:0:0:0:
144,299,14184,1,0,0:0:0:0:
352,305,14338,2,0,L|422:292,1,45.25,0|0,3:0|0:0,0:0:0:0:
364,225,14492,2,0,L|434:212,1,45.25,0|0,0:0|0:0,0:0:0:0:
344,313,14645,6,0,L|444:294,1,90.5,8|0,0:0|0:0,0:0:0:0:
299,128,14953,2,0,L|369:140,1,45.25,0|0,0:0|0:0,0:0:0:0:
311,208,15107,2,0,L|381:220,1,45.25,0|0,0:0|0:0,0:0:0:0:
351,128,15261,6,0,L|255:109,1,90.5,0|0,3:0|0:0,0:0:0:0:
408,216,15568,2,0,L|364:225,1,45.25,0|0,0:0|0:0,0:0:0:0:
396,296,15722,2,0,L|352:305,1,45.25
416,208,15876,70,0,L|326:191,1,90.5,8|0,0:0|0:0,0:0:0:0:
313,187,16107,1,0,0:0:0:0:
299,184,16184,2,0,B|308:230|308:230|293:277,2,90.5
198,95,16645,5,0,0:0:0:0:
180,223,16799,2,0,L|246:215,1,45.25,0|0,3:0|0:0,0:0:0:0:
163,298,16953,2,0,L|229:290,1,45.25,0|0,0:0|0:0,0:0:0:0:
232,209,17107,6,0,L|122:222,1,90.5,8|0,0:0|0:0,0:0:0:0:
151,136,17415,2,0,L|217:128,1,45.25,0|0,0:0|0:0,0:0:0:0:
134,211,17569,2,0,L|200:203,1,45.25,0|0,0:0|0:0,0:0:0:0:
159,128,17722,6,0,L|266:114,1,90.5,0|0,3:0|0:0,0:0:0:0:
316,159,18030,1,0,0:0:0:0:
167,120,18184,2,0,L|227:112,1,45.25,0|0,0:0|0:0,0:0:0:0:
324,167,18338,1,8,0:0:0:0:
159,108,18492,1,0,0:0:0:0:
126,203,18645,1,0,0:0:0:0:
225,185,18799,2,0,L|334:166,1,90.5,0|0,0:0|0:0,0:0:0:0:
396,156,19107,70,0,P|343:211|378:268,1,135.75
431,353,19415,2,0,P|422:328|398:313,1,45.25,0|0,0:0|0:0,0:0:0:0:
244,327,19568,2,0,P|291:339|350:316,1,90.5,8|0,0:0|0:0,0:0:0:0:
356,175,19876,2,0,P|374:161|396:155,1,45.25,0|0,3:0|0:0,0:0:0:0:
308,236,20030,2,0,P|325:250|347:255,1,45.25,0|0,0:0|0:0,0:0:0:0:
256,152,20184,5,4,3:1:0:0:
123,207,22338,5,8,0:3:0:0:
119,193,22415,1,8,0:3:0:0:
115,179,22492,1,8,0:3:0:0:
111,165,22568,1,8,0:3:0:0:
106,153,22645,102,0,P|136:119|194:104,1,90.5,4|0,3:2|3:2,0:0:0:0:
330,281,22953,1,10,0:0:0:0:
189,200,23107,1,2,0:0:0:0:
324,147,23261,1,0,3:0:0:0:
228,296,23415,1,10,0:2:0:0:
273,74,23568,1,2,0:2:0:0:
236,304,23722,1,0,0:0:0:0:
281,66,23876,53,2,0:0:0:0:
335,160,24030,1,0,3:0:0:0:
177,194,24184,1,8,0:0:0:0:
244,312,24338,1,2,3:2:0:0:
218,118,24492,54,0,P|174:110|131:122,1,90.5,2|0,0:0|3:0,0:0:0:0:
166,254,24722,1,2,0:0:0:0:
174,246,24799,2,0,L|191:175,1,45.25,8|0,0:0|0:0,0:0:0:0:
71,62,24953,1,2,0:0:0:0:
127,316,25107,102,0,P|178:328|226:292,1,90.5,2|0,3:2|3:0,0:0:0:0:
277,142,25415,1,8,0:0:0:0:
166,254,25568,1,2,3:2:0:0:
317,256,25722,1,2,0:0:0:0:
140,131,25876,1,8,0:0:0:0:
325,264,26030,1,2,0:0:0:0:
148,139,26184,1,0,3:0:0:0:
333,272,26338,53,2,0:0:0:0:
140,131,26492,1,2,0:0:0:0:
148,139,26568,1,2,0:0:0:0:
156,147,26645,2,0,L|145:206,1,45.25,8|0,0:0|0:0,0:0:0:0:
245,241,26799,1,2,0:0:0:0:
241,253,26875,1,2,0:0:0:0:
237,265,26953,54,0,B|243:309|243:309|287:354,1,90.5,10|0,0:0|0:0,0:0:0:0:
377,308,27184,1,2,0:0:0:0:
387,300,27261,2,0,L|312:283,1,45.25,0|0,0:0|0:0,0:0:0:0:
82,322,27415,1,10,0:0:0:0:
343,290,27568,22,0,P|316:326|274:341,1,90.5,4|0,3:2|0:0,0:0:0:0:
119,164,27876,1,8,0:0:0:0:
260,245,28030,1,2,0:0:0:0:
252,237,28107,1,0,0:0:0:0:
244,229,28184,1,0,3:0:0:0:
353,167,28338,1,8,0:0:0:0:
157,255,28491,1,0,0:0:0:0:
361,159,28645,1,0,3:0:0:0:
149,263,28799,53,2,0:0:0:0:
298,331,28953,1,0,3:0:0:0:
228,147,29107,1,10,0:2:0:0:
186,355,29261,1,0,3:0:0:0:
236,139,29415,1,2,0:0:0:0:
83,311,29568,53,2,0:0:0:0:
86,322,29645,1,2,0:0:0:0:
89,333,29722,1,10,0:0:0:0:
137,110,29876,1,0,3:0:0:0:
353,167,30030,5,4,0:0:0:0:
144,197,30184,2,0,L|151:297,1,90.5,0|8,3:0|0:0,0:0:0:0:
232,32,30492,1,0,3:0:0:0:
144,197,30645,1,2,0:0:0:0:
132,210,30723,1,0,0:0:0:0:
118,223,30800,2,0,L|72:222,1,45.25,10|0,0:0|0:0,0:0:0:0:
150,287,30952,1,2,0:0:0:0:
162,301,31030,1,0,0:0:0:0:
176,314,31107,54,0,L|222:313,1,45.25,2|0,0:0|0:0,0:0:0:0:
346,242,31261,2,0,L|313:210,1,45.25,8|0,0:0|0:0,0:0:0:0:
215,126,31415,53,2,0:0:0:0:
193,134,31491,1,2,0:0:0:0:
176,149,31568,1,8,0:0:0:0:
165,168,31645,1,0,0:0:0:0:
161,190,31722,53,2,0:0:0:0:
168,155,31798,1,0,0:0:0:0:
161,122,31876,1,8,0:0:0:0:
145,95,31952,1,2,0:0:0:0:
120,76,32030,53,0,0:0:0:0:
160,111,32107,1,0,0:0:0:0:
209,127,32184,1,2,0:0:0:0:
257,127,32261,1,0,0:0:0:0:
301,108,32338,1,10,0:0:0:0:
333,73,32415,1,8,0:0:0:0:
355,31,32492,86,0,P|354:74|382:123,1,90.5,4|0,3:2|3:2,0:0:0:0:
478,207,32799,1,10,0:0:0:0:
445,52,32953,1,2,0:0:0:0:
328,212,33107,1,0,3:0:0:0:
512,115,33261,1,10,0:2:0:0:
265,116,33414,1,2,0:2:0:0:
486,215,33568,1,0,0:0:0:0:
273,108,33722,53,2,0:0:0:0:
320,220,33876,1,0,3:0:0:0:
160,192,34030,1,8,0:0:0:0:
219,327,34184,1,2,3:2:0:0:
162,118,34338,6,0,P|105:139|90:183,1,90.5,2|0,0:0|3:0,0:0:0:0:
174,250,34568,1,2,0:0:0:0:
182,242,34645,2,0,L|163:185,1,45.25,8|0,0:0|0:0,0:0:0:0:
13,205,34799,1,2,0:0:0:0:
211,320,34953,54,0,P|160:332|112:296,1,90.5,2|0,3:2|3:0,0:0:0:0:
100,170,35261,1,8,0:0:0:0:
219,327,35414,1,2,3:2:0:0:
31,311,35568,1,2,0:0:0:0:
231,153,35722,1,8,0:0:0:0:
39,303,35876,1,2,0:0:0:0:
238,145,36030,1,0,3:0:0:0:
47,295,36184,69,2,0:0:0:0:
238,145,36338,1,2,0:0:0:0:
231,153,36414,1,2,0:0:0:0:
223,161,36492,2,0,L|234:220,1,45.25,8|0,0:0|0:0,0:0:0:0:
170,311,36645,1,2,0:0:0:0:
174,299,36721,1,2,0:0:0:0:
178,287,36799,6,0,B|172:243|172:243|131:196,1,90.5,10|0,0:0|0:0,0:0:0:0:
44,289,37030,1,2,0:0:0:0:
55,297,37107,2,0,L|104:272,1,45.25,0|0,0:0|0:0,0:0:0:0:
238,145,37261,1,10,0:0:0:0:
118,357,37415,6,0,P|157:380|202:373,1,90.5,4|0,3:2|0:0,0:0:0:0:
246,137,37723,1,8,0:0:0:0:
95,276,37877,1,2,0:0:0:0:
107,281,37954,1,0,0:0:0:0:
119,285,38031,1,0,3:0:0:0:
285,224,38185,1,8,0:0:0:0:
105,172,38338,1,0,0:0:0:0:
257,324,38492,1,0,3:0:0:0:
113,164,38645,53,2,0:0:0:0:
249,332,38799,1,0,3:0:0:0:
257,137,38953,1,10,0:2:0:0:
111,293,39107,1,0,3:0:0:0:
249,129,39261,1,2,0:0:0:0:
103,301,39415,1,2,0:0:0:0:
110,322,39492,1,2,0:0:0:0:
117,343,39568,1,10,0:0:0:0:
121,156,39722,1,0,3:0:0:0:
95,309,39876,53,4,0:0:0:0:
275,234,40030,2,0,L|268:334,1,90.5,0|8,3:0|0:0,0:0:0:0:
129,148,40338,1,0,3:0:0:0:
283,242,40491,1,2,0:0:0:0:
295,255,40569,1,0,0:0:0:0:
309,268,40646,2,0,L|355:267,1,45.25,10|0,0:0|0:0,0:0:0:0:
424,195,40798,1,2,0:0:0:0:
412,181,40876,1,0,0:0:0:0:
398,168,40953,54,0,L|352:169,1,45.25,2|0,0:0|0:0,0:0:0:0:
187,167,41107,2,0,L|220:135,1,45.25,8|0,0:0|0:0,0:0:0:0:
186,248,41261,53,2,0:0:0:0:
158,245,41337,1,2,0:0:0:0:
133,233,41414,1,8,0:0:0:0:
115,214,41491,1,0,0:0:0:0:
103,190,41568,53,2,0:0:0:0:
122,229,41644,1,0,0:0:0:0:
124,269,41722,1,8,0:0:0:0:
114,305,41798,1,2,0:0:0:0:
91,335,41876,53,0,0:0:0:0:
127,282,41953,1,0,0:0:0:0:
178,248,42030,1,2,0:0:0:0:
234,233,42107,1,0,0:0:0:0:
291,242,42184,1,10,0:0:0:0:
338,272,42261,1,8,0:0:0:0:
377,314,42338,53,4,0:1:0:0:
459,174,44799,6,0,B|439:178|439:178|436:174|436:174|432:181|428:174|428:174|423:177|423:177|374:163|336:183|336:183|355:179|379:201,1,169.687506473065
374,206,45261,1,0,0:0:0:0:
291,332,45568,21,0,0:0:0:0:
324,257,45722,1,0,0:0:0:0:
324,257,45876,1,0,0:0:0:0:
291,332,46184,53,0,0:0:0:0:
324,257,46338,1,0,0:0:0:0:
324,257,46645,1,0,0:0:0:0:
324,257,46953,1,0,0:0:0:0:
324,257,47261,6,0,B|310:254|310:254|313:264|313:264|283:253|277:238|277:238|284:240|284:240|278:231|278:231|283:232|283:232|260:187|215:193|215:236,1,169.687506473065
208,218,47722,70,0,B|223:192|250:194|250:194|281:209|323:188,1,101.812503883839,0|0,0:0|0:0,0:0:0:0:
317,189,48030,5,0,0:0:0:0:
400,232,48184,1,0,0:0:0:0:
400,232,48338,1,0,0:0:0:0:
317,189,48645,53,0,0:0:0:0:
400,232,48799,1,0,0:0:0:0:
400,232,49107,1,0,0:0:0:0:
317,189,49261,1,0,0:0:0:0:
400,232,49415,1,0,0:0:0:0:
317,189,49569,1,0,0:0:0:0:
319,322,49722,22,0,B|260:304|206:335|206:335|203:344|203:344|195:333|195:333|193:341|193:341|181:337|175:324,1,169.687506473065
169,320,50184,54,0,B|156:279|156:279|166:285,2,50.9062519419194
174,339,50492,53,0,0:0:0:0:
84,310,50645,1,0,0:0:0:0:
84,310,50799,1,0,0:0:0:0:
174,339,51107,53,0,0:0:0:0:
84,310,51260,1,0,0:0:0:0:
84,310,51568,1,0,0:0:0:0:
174,339,51722,1,0,0:0:0:0:
84,310,51876,1,0,0:0:0:0:
174,339,52030,1,0,0:0:0:0:
129,216,52184,70,0,B|142:221|142:221|151:215|151:215|159:221|159:221|168:214|168:214|173:221|173:221|183:214|183:214|211:235|253:194|308:229,1,169.687506473065
294,224,52645,6,0,L|310:164,1,33.9375012946129
349,109,52799,1,0,0:0:0:0:
278,348,52953,53,0,0:0:0:0:
202,272,53107,1,0,0:0:0:0:
202,272,53261,1,0,0:0:0:0:
278,348,53568,53,0,0:0:0:0:
202,272,53722,1,0,0:0:0:0:
278,348,53876,1,0,0:0:0:0:
254,188,54030,1,0,0:0:0:0:
202,272,54184,1,0,0:0:0:0:
198,113,54338,1,0,0:0:0:0:
254,188,54492,1,0,0:0:0:0:
57,210,54645,54,0,L|160:193,1,101.812503883839,4|0,3:2|0:0,0:0:0:0:
165,185,54953,1,8,0:0:0:0:
0,250,55107,22,0,L|103:267,1,101.812503883839,0|0,0:3|0:0,0:0:0:0:
108,274,55415,1,0,3:3:0:0:
27,136,55568,1,0,0:0:0:0:
115,282,55722,54,0,L|218:265,1,101.812503883839,8|0,0:0|0:0,0:0:0:0:
223,273,56030,1,0,3:0:0:0:
35,144,56184,53,0,0:0:0:0:
231,281,56338,1,8,0:0:0:0:
43,152,56492,1,0,3:0:0:0:
340,100,56645,1,0,3:0:0:0:
51,160,56799,2,0,L|140:174,1,67.8750025892259,8|0,0:0|0:0,0:0:0:0:
315,282,57107,38,0,L|212:265,1,101.812503883839,0|0,3:0|0:0,0:0:0:0:
206,273,57415,1,8,0:0:0:0:
372,322,57569,54,0,L|269:339,1,101.812503883839,0|0,3:0|0:0,0:0:0:0:
263,346,57876,1,0,3:0:0:0:
327,182,58030,1,0,0:0:0:0:
255,354,58184,54,0,L|152:337,1,101.812503883839,8|0,0:0|0:0,0:0:0:0:
90,248,58492,1,0,3:0:0:0:
81,254,58568,1,0,3:0:0:0:
72,260,58645,1,8,3:2:0:0:
319,190,58799,1,0,3:0:0:0:
64,268,58953,1,8,0:0:0:0:
335,270,59107,1,0,3:0:0:0:
41,191,59261,1,0,3:0:0:0:
160,345,59415,1,8,0:0:0:0:
165,127,59568,22,0,L|187:244,1,101.812503883839,0|0,3:0|0:0,0:0:0:0:
191,235,59876,1,8,0:0:0:0:
125,67,60030,102,0,L|103:184,1,101.812503883839,0|0,3:0|0:0,0:0:0:0:
98,175,60338,1,0,3:0:0:0:
210,110,60492,1,0,0:0:0:0:
90,183,60645,6,0,L|112:300,1,101.812503883839,8|0,0:0|0:0,0:0:0:0:
100,291,60953,1,0,3:0:0:0:
202,102,61107,1,0,3:0:0:0:
92,299,61261,1,8,0:0:0:0:
194,94,61415,1,0,3:0:0:0:
275,296,61568,1,0,3:0:0:0:
28,249,61722,1,8,0:0:0:0:
302,201,61876,1,0,3:0:0:0:
20,257,62030,6,0,L|71:274,1,33.9375012946129,0|0,3:0|0:0,0:0:0:0:
124,338,62184,1,8,0:0:0:0:
225,232,62338,1,0,3:0:0:0:
61,273,62492,54,0,L|112:256,1,33.9375012946129,0|0,3:0|0:0,0:0:0:0:
167,172,62646,1,8,0:0:0:0:
266,298,62800,1,0,3:0:0:0:
49,194,62953,1,0,3:0:0:0:
233,224,63107,1,8,0:0:0:0:
64,330,63261,5,0,3:0:0:0:
67,313,63338,1,0,3:0:0:0:
70,296,63415,1,8,3:2:0:0:
216,365,63568,1,0,3:0:0:0:
146,148,63722,1,0,3:0:0:0:
129,384,63876,1,8,0:0:0:0:
277,103,64030,1,0,3:0:0:0:
277,103,64107,1,0,3:0:0:0:
277,103,64184,5,8,0:3:0:0:
317,97,64261,1,8,0:3:0:0:
356,121,64338,1,8,0:3:0:0:
396,127,64415,1,8,0:3:0:0:
431,106,64492,5,0,0:0:0:0:
97,182,74338,85,0,0:0:0:0:
173,160,74492,1,0,0:0:0:0:
90,176,74645,1,0,0:0:0:0:
181,153,74799,6,0,L|170:222,1,67.8750025892259
191,145,75107,2,0,L|180:214,1,67.8750025892259,0|0,0:0|0:0,0:0:0:0:
201,137,75415,2,0,L|190:206,1,67.8750025892259,0|0,0:0|0:0,0:0:0:0:
171,285,75722,5,0,0:0:0:0:
254,301,75875,1,0,0:0:0:0:
163,278,76030,2,0,L|174:347,1,67.8750025892259
255,250,76338,5,0,0:0:0:0:
172,266,76491,1,0,0:0:0:0:
262,242,76645,1,0,0:0:0:0:
181,254,76799,2,0,L|192:323,1,67.8750025892259
274,234,77107,1,0,0:0:0:0:
172,266,77261,70,0,L|183:335,1,67.8750025892259
283,226,77568,1,0,0:0:0:0:
190,201,77722,1,0,0:0:0:0:
275,218,77876,6,0,L|264:287,1,67.8750025892259
182,193,78184,1,0,0:0:0:0:
250,151,78338,1,0,0:0:0:0:
173,182,78492,6,0,L|184:251,1,67.8750025892259,0|0,0:0|0:0,0:0:0:0:
258,143,78799,1,0,0:0:0:0:
193,99,78953,1,0,0:0:0:0:
266,135,79107,1,0,0:0:0:0:
187,85,79261,6,0,L|176:154,1,67.8750025892259
281,47,79568,1,0,0:0:0:0:
180,73,79722,2,0,L|169:142,1,67.8750025892259,0|0,0:0|0:0,0:0:0:0:
131,223,80030,70,0,L|142:292,1,67.8750025892259
123,237,80338,2,0,L|134:306,1,67.8750025892259,0|0,0:0|0:0,0:0:0:0:
246,238,80645,22,0,L|256:170,1,67.8750025892259
238,224,80953,2,0,L|248:156,1,67.8750025892259,0|0,0:0|0:0,0:0:0:0:
142,106,81261,1,0,0:0:0:0:
210,64,81415,1,0,0:0:0:0:
134,98,81569,1,0,0:0:0:0:
218,56,81722,5,0,0:0:0:0:
287,95,81876,1,0,0:0:0:0:
226,48,82030,1,0,0:0:0:0:
295,87,82184,70,0,L|284:156,1,67.8750025892259
297,244,82492,1,0,0:0:0:0:
361,187,82646,1,0,0:0:0:0:
288,233,82800,6,0,L|299:302,1,67.8750025892259,0|0,0:0|0:0,0:0:0:0:
443,162,83107,1,0,0:0:0:0:
379,105,83261,1,0,0:0:0:0:
452,151,83415,1,0,0:0:0:0:
373,96,83568,5,0,0:0:0:0:
367,108,83645,1,0,0:0:0:0:
362,120,83722,1,0,0:0:0:0:
357,132,83799,1,0,0:0:0:0:
333,150,83876,5,0,0:0:0:0:
339,162,83953,1,0,0:0:0:0:
344,174,84030,1,0,0:0:0:0:
349,186,84107,1,0,0:0:0:0:
356,199,84184,5,6,3:2:0:0:
271,87,84338,1,0,3:0:0:0:
360,208,84492,1,10,0:0:0:0:
263,75,84645,2,0,P|233:106|235:156,1,90.5,2|0,3:2|0:0,0:0:0:0:
318,303,84953,1,10,0:0:0:0:
431,137,85107,1,0,0:0:0:0:
315,144,85261,1,2,3:2:0:0:
315,144,85338,1,2,0:0:0:0:
315,144,85415,5,2,0:0:0:0:
432,268,85568,1,0,3:0:0:0:
442,126,85722,1,8,0:0:0:0:
318,314,85876,1,2,3:2:0:0:
315,144,86030,53,2,3:2:0:0:
432,268,86183,1,8,0:0:0:0:
442,126,86338,1,0,0:0:0:0:
254,268,86492,1,2,3:2:0:0:
500,231,86645,1,2,0:0:0:0:
366,80,86799,2,0,P|322:59|268:75,1,90.5,2|8,3:2|0:0,0:0:0:0:
258,278,87107,37,2,3:2:0:0:
315,144,87261,1,2,3:2:0:0:
263,288,87415,1,10,0:0:0:0:
196,76,87568,1,0,3:0:0:0:
268,298,87722,1,2,3:2:0:0:
120,140,87876,6,0,P|148:186|131:245,1,90.5,2|0,0:0|3:0,0:0:0:0:
14,225,88107,1,2,3:2:0:0:
22,215,88184,2,0,L|94:202,1,45.25,8|0,3:2|0:0,0:0:0:0:
263,288,88338,1,2,3:2:0:0:
76,203,88492,1,10,0:0:0:0:
176,350,88645,1,2,3:2:0:0:
181,331,88722,1,0,3:0:0:0:
187,314,88799,1,8,3:2:0:0:
83,190,88953,1,2,3:2:0:0:
78,171,89030,1,0,3:0:0:0:
71,154,89107,86,0,P|117:146|174:168,1,90.5,2|0,0:0|3:0,0:0:0:0:
255,358,89415,1,10,0:2:0:0:
89,327,89568,2,0,L|115:241,1,90.5,2|0,3:2|0:0,0:0:0:0:
263,349,89876,1,10,0:2:0:0:
107,232,90030,1,0,0:0:0:0:
164,373,90184,1,2,3:2:0:0:
208,135,90338,6,0,L|222:242,1,90.5,2|0,0:0|3:0,0:0:0:0:
308,149,90568,1,2,0:0:0:0:
321,159,90645,2,0,L|311:216,1,45.25,8|0,0:0|0:0,0:0:0:0:
279,298,90799,1,2,3:2:0:0:
434,149,90953,1,0,3:0:0:0:
199,128,91107,1,10,0:0:0:0:
442,158,91261,1,0,0:0:0:0:
246,49,91415,1,0,3:0:0:0:
325,266,91568,69,2,0:0:0:0:
336,241,91645,1,0,0:0:0:0:
341,214,91722,1,0,3:0:0:0:
336,187,91799,1,0,0:0:0:0:
329,160,91876,5,10,0:0:0:0:
352,180,91953,1,0,0:0:0:0:
379,196,92030,1,0,3:0:0:0:
410,200,92107,1,2,0:0:0:0:
441,195,92184,37,0,3:0:0:0:
433,225,92261,1,0,0:0:0:0:
425,255,92338,1,10,0:0:0:0:
417,285,92415,1,2,0:0:0:0:
399,311,92492,6,0,L|307:301,1,90.5,2|8,3:2|0:0,0:0:0:0:
234,325,92722,1,2,0:0:0:0:
220,336,92799,2,0,L|155:329,1,45.25,2|0,0:0|0:0,0:0:0:0:
97,348,92953,1,0,3:0:0:0:
85,318,93030,1,2,3:2:0:0:
74,287,93107,5,8,3:2:0:0:
105,290,93184,1,2,0:0:0:0:
133,276,93261,1,0,0:0:0:0:
155,253,93338,1,2,0:0:0:0:
169,224,93415,2,0,P|175:196|164:152,1,45.25,10|0,0:0|0:0,0:0:0:0:
0,42,93568,101,2,3:2:0:0:
18,67,93645,1,2,3:2:0:0:
44,86,93722,2,0,P|70:96|115:93,1,45.25,8|0,3:2|0:0,0:0:0:0:
272,85,93876,1,2,3:2:0:0:
79,14,94030,85,4,3:2:0:0:
81,195,94184,1,0,3:0:0:0:
88,1,94338,1,8,0:0:0:0:
74,208,94492,2,0,P|114:229|185:215,1,90.5,2|0,3:2|0:0,0:0:0:0:
438,176,94799,2,0,P|398:155|327:169,1,90.5,10|2,0:2|0:0,0:0:0:0:
156,96,95107,53,2,3:2:0:0:
171,123,95184,1,2,0:2:0:0:
188,149,95261,1,2,0:2:0:0:
260,15,95415,1,2,3:2:0:0:
196,158,95568,1,8,0:0:0:0:
363,90,95722,1,2,3:2:0:0:
398,245,95876,1,0,3:0:0:0:
206,169,96030,1,8,0:0:0:0:
215,199,96107,1,0,0:0:0:0:
210,230,96184,53,2,0:0:0:0:
240,223,96261,1,0,0:0:0:0:
271,217,96338,1,0,3:0:0:0:
301,209,96415,1,2,0:0:0:0:
331,200,96492,37,2,0:0:0:0:
320,234,96568,1,0,0:0:0:0:
322,270,96645,1,0,3:0:0:0:
343,298,96722,1,2,0:0:0:0:
374,316,96799,1,8,0:0:0:0:
409,321,96876,1,2,0:0:0:0:
443,311,96953,1,2,3:2:0:0:
462,280,97030,1,0,0:0:0:0:
456,244,97107,37,0,3:0:0:0:
421,233,97184,1,2,0:0:0:0:
389,250,97261,1,10,0:0:0:0:
363,275,97338,1,0,0:0:0:0:
336,300,97415,1,2,3:2:0:0:
301,311,97492,1,2,0:0:0:0:
266,303,97568,1,0,3:0:0:0:
234,284,97645,1,2,0:0:0:0:
214,253,97722,53,4,3:2:0:0:
512,352,97876,1,4,3:2:0:0:
507,342,98184,5,4,3:2:0:0:
502,332,98492,85,4,3:2:0:0:
497,322,98799,101,4,3:2:0:0:
456,244,98953,53,4,3:0:0:0:
405,264,99030,1,4,3:0:0:0:
350,258,99107,1,4,3:0:0:0:
306,225,99184,1,4,3:0:0:0:
294,171,99261,1,4,3:2:0:0:
234,335,99415,1,2,3:2:0:0:
395,171,99568,5,0,0:0:0:0:
208,193,99722,1,10,0:2:0:0:
395,350,99876,1,0,0:0:0:0:
198,184,100030,2,0,P|177:224|183:277,1,90.5,2|0,3:2|0:0,0:0:0:0:
448,266,100338,5,2,3:2:0:0:
425,265,100415,1,2,3:2:0:0:
405,264,100492,1,10,3:2:0:0:
351,158,100645,1,0,3:0:0:0:
302,353,100799,1,10,0:0:0:0:
362,151,100953,1,0,3:0:0:0:
303,365,101107,1,10,0:2:0:0:
227,162,101261,1,2,3:2:0:0:
476,384,101415,37,8,0:0:0:0:
486,344,101492,1,2,0:0:0:0:
486,303,101568,1,0,3:0:0:0:
473,264,101645,1,0,3:0:0:0:
449,230,101722,1,2,3:2:0:0:
413,210,101799,1,2,0:0:0:0:
372,202,101876,1,8,0:0:0:0:
332,210,101953,1,2,0:0:0:0:
295,226,102030,21,0,3:0:0:0:
281,187,102107,1,2,3:2:0:0:
258,153,102183,1,10,3:2:0:0:
225,128,102260,1,0,3:0:0:0:
186,113,102337,1,2,3:2:0:0:
145,117,102414,1,2,3:2:0:0:
107,133,102491,1,0,3:2:0:0:
78,162,102568,1,0,3:2:0:0:
62,204,102645,21,8,0:2:0:0:
106,226,102722,1,10,0:2:0:0:
154,216,102799,1,2,3:2:0:0:
194,186,102876,1,2,3:2:0:0:
232,154,102953,1,8,3:2:0:0:
281,147,103030,1,10,0:2:0:0:
329,156,103107,1,2,3:2:0:0:
369,184,103184,1,0,3:2:0:0:
398,218,103261,53,8,3:3:0:0:
341,250,103337,1,8,0:3:0:0:
277,254,103414,1,8,0:3:0:0:
218,226,103491,1,8,0:3:0:0:
191,166,103569,5,8,0:3:0:0:
200,242,103645,1,8,0:3:0:0:
151,303,103722,1,8,0:3:0:0:
71,309,103799,1,8,0:3:0:0:
8,258,103876,5,4,0:0:0:0:
