osu file format v14

[General]
AudioFilename: audio.mp3
AudioLeadIn: 0
PreviewTime: 54645
Countdown: 0
SampleSet: Soft
StackLeniency: 0.2
Mode: 0
LetterboxInBreaks: 0
WidescreenStoryboard: 1

[Editor]
Bookmarks: 5415,10338,20184,22645,32492,42338,44799,54645,64492,74338,84184,94030,103876,113568
DistanceSpacing: 1.5
BeatDivisor: 4
GridSize: 8
TimelineZoom: 2.1

[Metadata]
Title:Altros
TitleUnicode:Altros
Artist:ARForest
ArtistUnicode:ARForest
Creator:Shiirn
Version:Anxient's Easy
Source:BMS
Tags:PABAT! 2017 k-bms inukoro artcore Ambient Halfslashed Anxient Mir Ongaku
BeatmapID:1323427
BeatmapSetID:625822

[Difficulty]
HPDrainRate:3
CircleSize:3.5
OverallDifficulty:3
ApproachRate:3
SliderMultiplier:0.749999999999999
SliderTickRate:1

[Events]
//Background and Video events
0,0,"abstract-futuristic.jpg",0,0
Video,9,"COLORS.flv"
//Break Periods
2,20384,21085
2,42538,43239
2,64691,72778
//Storyboard Layer 0 (Background)
//Storyboard Layer 1 (Fail)
//Storyboard Layer 2 (Pass)
//Storyboard Layer 3 (Foreground)
//Storyboard Sound Samples

[TimingPoints]
492,307.692307692308,4,2,1,35,1,0
492,-100,4,2,1,35,0,0
645,-100,4,2,1,15,0,0
722,-100,4,2,1,35,0,0
1261,-100,4,2,1,15,0,0
1338,-100,4,2,1,35,0,0
1722,-100,4,2,1,15,0,0
1799,-100,4,2,1,35,0,0
2030,-100,4,2,1,15,0,0
2107,-100,4,2,1,35,0,0
2492,-100,4,2,1,15,0,0
2569,-100,4,2,1,35,0,0
2799,-100,4,2,1,15,0,0
2876,-100,4,2,1,35,0,0
3415,-100,4,2,1,15,0,0
3492,-100,4,2,1,35,0,0
3953,-100,4,2,1,35,0,0
4184,-100,4,2,1,15,0,0
4261,-100,4,2,1,35,0,0
4645,-100,4,2,1,15,0,0
4722,-100,4,2,1,35,0,0
4953,-100,4,2,1,15,0,0
5030,-100,4,2,1,35,0,0
5261,-100,4,2,1,15,0,0
5338,-100,4,2,1,35,0,0
5645,-100,4,2,1,15,0,0
5722,-100,4,2,1,35,0,0
7415,-100,4,2,1,15,0,0
7492,-100,4,2,1,35,0,0
8107,-100,4,2,1,15,0,0
8184,-100,4,2,1,35,0,0
9415,-100,4,2,1,15,0,0
9492,-100,4,2,1,35,0,0
9799,-100,4,2,1,15,0,0
9876,-100,4,2,1,35,0,0
10107,-100,4,2,1,15,0,0
10184,-100,4,2,1,35,0,0
10722,-100,4,2,1,15,0,0
10799,-100,4,2,1,35,0,0
10876,-100,4,2,1,15,0,0
10953,-100,4,2,1,35,0,0
11415,-100,4,2,1,15,0,0
11492,-100,4,2,1,35,0,0
11953,-100,4,2,1,15,0,0
12030,-100,4,2,1,35,0,0
12107,-100,4,2,1,15,0,0
12184,-100,4,2,1,35,0,0
14415,-100,4,2,1,15,0,0
14492,-100,4,2,1,35,0,0
14568,-100,4,2,1,15,0,0
14645,-100,4,2,1,35,0,0
15030,-100,4,2,1,15,0,0
15107,-100,4,2,1,35,0,0
15184,-100,4,2,1,15,0,0
15261,-100,4,2,1,35,0,0
15645,-100,4,2,1,15,0,0
15722,-100,4,2,1,35,0,0
15799,-100,4,2,1,15,0,0
15876,-100,4,2,1,35,0,0
16338,-100,4,2,1,15,0,0
16415,-100,4,2,1,35,0,0
16492,-100,4,2,1,15,0,0
16569,-100,4,2,1,35,0,0
16876,-100,4,2,1,15,0,0
16953,-100,4,2,1,35,0,0
17030,-100,4,2,1,15,0,0
17107,-100,4,2,1,35,0,0
17492,-100,4,2,1,15,0,0
17569,-100,4,2,1,35,0,0
17645,-100,4,2,1,15,0,0
17722,-100,4,2,1,35,0,0
18953,-100,4,2,1,15,0,0
19030,-100,4,2,1,35,0,0
19338,-100,4,2,1,15,0,0
19415,-100,4,2,1,35,0,0
19492,-100,4,2,1,15,0,0
19569,-100,4,2,1,35,0,0
22645,-100,4,2,1,55,0,1
42338,-100,4,2,1,55,0,0
44799,-100,4,2,1,35,0,0
45184,-100,4,2,1,15,0,0
45261,-100,4,2,1,35,0,0
47645,-100,4,2,1,15,0,0
47722,-100,4,2,1,35,0,0
47953,-100,4,2,1,15,0,0
48030,-100,4,2,1,35,0,0
50107,-100,4,2,1,15,0,0
50184,-100,4,2,1,35,0,0
52568,-100,4,2,1,15,0,0
52645,-100,4,2,1,35,0,0
52722,-100,4,2,1,15,0,0
52799,-100,4,2,1,35,0,0
54876,-100,4,2,1,15,0,0
54953,-100,4,2,1,35,0,0
55338,-100,4,2,1,15,0,0
55415,-100,4,2,1,35,0,0
55953,-100,4,2,1,15,0,0
56030,-100,4,2,1,35,0,0
57338,-100,4,2,1,15,0,0
57415,-100,4,2,1,35,0,0
57799,-100,4,2,1,15,0,0
57876,-100,4,2,1,35,0,0
58415,-100,4,2,1,15,0,0
58492,-100,4,2,1,35,0,0
59799,-100,4,2,1,15,0,0
59876,-100,4,2,1,35,0,0
60261,-100,4,2,1,15,0,0
60338,-100,4,2,1,35,0,0
60876,-100,4,2,1,15,0,0
60953,-100,4,2,1,35,0,0
62107,-100,4,2,1,15,0,0
62184,-100,4,2,1,35,0,0
62568,-100,4,2,1,15,0,0
62645,-100,4,2,1,35,0,0
64184,-100,4,2,1,25,0,0
64492,-100,4,2,1,35,0,0
74953,-100,4,2,1,15,0,0
75030,-100,4,2,1,35,0,0
75261,-100,4,2,1,15,0,0
75338,-100,4,2,1,35,0,0
75568,-100,4,2,1,15,0,0
75645,-100,4,2,1,35,0,0
76184,-100,4,2,1,15,0,0
76261,-100,4,2,1,35,0,0
76953,-100,4,2,1,15,0,0
77030,-100,4,2,1,35,0,0
77415,-100,4,2,1,15,0,0
77492,-100,4,2,1,35,0,0
78030,-100,4,2,1,15,0,0
78107,-100,4,2,1,35,0,0
78645,-100,4,2,1,15,0,0
78722,-100,4,2,1,35,0,0
79415,-100,4,2,1,15,0,0
79492,-100,4,2,1,35,0,0
79876,-100,4,2,1,15,0,0
79953,-100,4,2,1,35,0,0
80184,-100,4,2,1,15,0,0
80261,-100,4,2,1,35,0,0
80492,-100,4,2,1,15,0,0
80569,-100,4,2,1,35,0,0
80799,-100,4,2,1,15,0,0
80876,-100,4,2,1,35,0,0
81107,-100,4,2,1,15,0,0
81184,-100,4,2,1,35,0,0
82338,-100,4,2,1,15,0,0
82415,-100,4,2,1,35,0,0
83030,-100,4,2,1,35,0,0
84184,-100,4,2,1,55,0,1
103261,-100,4,2,1,35,0,1
103876,-100,4,2,1,55,0,0

[Colours]
Combo1 : 232,197,89
Combo2 : 0,202,0
Combo3 : 18,124,255
Combo4 : 242,24,57
Combo5 : 255,192,0
Combo6 : 142,237,80
Combo7 : 92,73,224
Combo8 : 236,77,160

[HitObjects]
49,43,492,6,0,L|214:33,1,150,0|0,0:0|0:0,0:0:0:0:
289,99,1415,2,0,L|299:264,1,150,0|0,0:0|0:0,0:0:0:0:
388,313,2338,1,0,0:0:0:0:
163,326,2953,6,0,L|13:335,1,150,0|0,0:0|0:0,0:0:0:0:
6,222,3876,2,0,L|155:212,1,150
232,129,4799,2,0,P|271:190|257:262,1,150,0|0,0:0|0:0,0:0:0:0:
321,354,5722,6,0,L|470:344,1,150,0|0,0:0|0:0,0:0:0:0:
512,240,6645,2,0,P|526:168|486:106,1,150,0|0,0:0|0:0,0:0:0:0:
409,188,7568,1,0,0:0:0:0:
373,82,7876,6,0,L|223:91,1,150,0|0,0:0|0:0,0:0:0:0:
155,180,8799,2,0,L|5:171,1,150,0|0,0:0|0:0,0:0:0:0:
35,279,9722,2,0,L|110:283,1,74.9999999999999,0|0,0:0|0:0,0:0:0:0:
204,344,10338,6,0,B|287:287|305:177|305:177|270:125|205:165,1,300,4|0,3:0|0:0,0:0:0:0:
107,139,11876,2,0,P|85:121|55:2,1,150,0|0,3:0|0:0,0:0:0:0:
161,41,12799,2,0,B|234:87|304:42|380:-5|466:40,1,300,0|0,3:0|0:0,0:0:0:0:
505,133,14338,2,0,L|496:283,1,150,0|0,3:0|0:0,0:0:0:0:
405,350,15261,6,0,P|324:191|400:143,1,300,0|0,3:0|0:0,0:0:0:0:
505,133,16799,2,0,P|506:208|496:283,1,150,0|0,3:0|0:0,0:0:0:0:
405,350,17722,2,0,B|377:332|276:277|271:419|124:365|146:303|205:269|223:304,1,300,0|0,3:0|0:0,0:0:0:0:
298,218,19261,2,0,B|321:152|318:96|318:96|306:68,1,150,0|0,0:0|3:0,0:0:0:0:
210,16,20184,1,4,3:1:0:0:
184,33,22645,6,0,P|149:33|28:73,1,150,4|0,3:2|3:0,0:0:0:0:
0,171,23568,2,0,P|17:201|112:286,1,150,2|8,0:2|0:0,0:0:0:0:
191,347,24492,2,0,P|209:306|212:261,1,74.9999999999999,2|8,0:0|0:0,0:0:0:0:
189,166,25107,6,0,L|339:157,1,150,2|2,3:2|0:0,0:0:0:0:
413,241,26030,1,2,0:0:0:0:
492,160,26338,2,0,P|504:139|503:7,2,150,2|10|4,0:0|0:0|3:2,0:0:0:0:
413,241,27876,6,0,P|402:314|428:384,1,150,8|0,0:0|0:0,0:0:0:0:
507,303,28799,2,0,P|517:229|491:159,1,150,2|2,0:0|0:0,0:0:0:0:
416,76,29722,1,10,0:0:0:0:
339,157,30030,6,0,L|99:171,1,225,4|2,0:0|0:0,0:0:0:0:
26,241,31261,2,0,P|0:310|10:384,1,150,8|8,0:0|0:0,0:0:0:0:
217,295,32492,6,0,P|208:239|219:184,2,112.5,4|2|2,3:2|0:0|0:2,0:0:0:0:
314,350,33722,2,0,P|351:363|416:230,1,225,2|8,0:0|0:0,0:0:0:0:
364,135,34953,2,0,P|374:80|366:24,2,112.5,2|2|2,3:2|3:2|0:0,0:0:0:0:
267,76,36184,2,0,L|100:86,1,150,2|10,0:0|0:0,0:0:0:0:
52,177,37107,1,0,0:0:0:0:
108,274,37415,6,0,P|116:329|105:384,2,112.5,4|2|0,3:2|0:0|0:0,0:0:0:0:
52,177,38645,2,0,L|201:168,1,150,2|2,0:0|0:0,0:0:0:0:
300,222,39568,1,10,0:0:0:0:
377,140,39876,6,0,P|432:131|487:142,2,112.5,4|0|2,0:0|3:0|0:0,0:0:0:0:
300,222,41107,2,0,L|308:371,1,150,8|8,0:0|0:0,0:0:0:0:
93,305,42338,1,4,0:1:0:0:
93,305,44799,6,0,P|84:249|88:193,1,112.5,0|0,0:0|0:0,0:0:0:0:
419,79,47261,6,0,L|426:192,1,112.5,0|0,0:0|0:0,0:0:0:0:
397,330,49722,6,0,P|405:274|401:218,1,112.5,0|0,0:0|0:0,0:0:0:0:
71,104,52184,6,0,L|64:217,1,112.5,0|0,0:0|0:0,0:0:0:0:
397,330,54645,6,0,L|404:217,1,112.5,4|0,3:2|0:3,0:0:0:0:
407,104,55415,2,0,P|334:88|267:119,1,150,0|0,3:3|3:0,0:0:0:0:
168,172,56338,2,0,L|55:165,1,112.5,8|8,0:0|0:0,0:0:0:0:
68,53,57107,6,0,L|181:60,1,112.5,0|0,3:0|3:0,0:0:0:0:
291,65,57876,2,0,L|279:252,1,187.5,0|8,3:0|3:2,0:0:0:0:
237,357,58953,2,0,P|273:363|311:360,1,74.9999999999999,8|0,0:0|3:0,0:0:0:0:
411,309,59568,6,0,L|418:196,1,112.5,0|0,3:0|3:0,0:0:0:0:
478,101,60338,2,0,P|405:85|338:116,1,150,0|0,3:0|3:0,0:0:0:0:
275,208,61261,2,0,P|220:219|167:202,1,112.5,8|8,0:0|0:0,0:0:0:0:
225,106,62030,6,0,P|171:89|117:100,1,112.5,0|0,3:0|3:0,0:0:0:0:
52,192,62799,2,0,P|60:247|76:271,1,74.9999999999999,0|8,3:0|0:0,0:0:0:0:
167,202,63415,2,0,L|279:209,1,112.5,8|8,3:2|0:0,0:0:0:0:
355,292,64184,2,0,L|433:297,1,74.9999999999999,8|0,0:3|0:0,0:0:0:0:
512,180,74338,6,0,L|400:173,1,112.5,0|0,0:0|0:0,0:0:0:0:
303,230,75107,2,0,P|289:196|287:159,1,74.9999999999999
381,97,75722,2,0,P|388:79|396:26,2,74.9999999999999
261,14,76799,6,0,L|149:7,1,112.5
109,112,77568,2,0,P|111:149|125:183,1,74.9999999999999,0|0,0:0|0:0,0:0:0:0:
221,244,78184,2,0,P|235:209|237:172,1,74.9999999999999,0|0,0:0|0:0,0:0:0:0:
124,297,78953,6,0,P|126:334|140:368,1,74.9999999999999,0|0,0:0|0:0,0:0:0:0:
252,374,79568,2,0,L|364:381,1,112.5,0|0,0:0|0:0,0:0:0:0:
408,276,80338,2,0,L|329:271,2,74.9999999999999,0|0|0,0:0|0:0|0:0,0:0:0:0:
385,108,81415,1,0,0:0:0:0:
288,166,81722,6,0,L|176:159,2,112.5,0|0|0,0:0|0:0|0:0,0:0:0:0:
385,108,82953,2,0,L|497:115,2,112.5,0|0|0,0:0|0:0|0:0,0:0:0:0:
287,53,84184,6,0,L|175:46,1,112.5,6|2,3:2|3:2,0:0:0:0:
89,119,84953,2,0,L|84:197,1,74.9999999999999,10|2,0:0|3:2,0:0:0:0:
153,282,85568,2,0,L|148:360,2,74.9999999999999,0|2|8,3:0|3:2|0:0,0:0:0:0:
235,204,86492,6,0,P|272:197|324:209,1,74.9999999999999,2|2,3:2|3:2,0:0:0:0:
380,289,87107,2,0,P|417:296|469:283,1,74.9999999999999,2|10,3:2|0:0,0:0:0:0:
419,183,87722,2,0,L|426:71,1,112.5,2|8,3:2|3:2,0:0:0:0:
324,21,88492,2,0,L|318:110,2,74.9999999999999,10|8|2,0:0|3:2|0:0,0:0:0:0:
215,50,89415,6,0,L|164:46,1,37.5,10|2,0:2|3:2,0:0:0:0:
111,138,89876,2,0,L|-16:129,1,112.5,10|2,0:2|0:0,0:0:0:0:
24,240,90645,2,0,P|15:278|18:329,1,74.9999999999999,8|0,0:0|3:0,0:0:0:0:
117,362,91261,1,0,0:0:0:0:
227,343,91568,6,0,L|316:349,1,74.9999999999999,2|10,0:0|0:0,0:0:0:0:
392,280,92184,2,0,L|398:190,1,74.9999999999999,0|2,3:0|3:2,0:0:0:0:
329,115,92799,2,0,L|239:108,1,74.9999999999999,2|8,0:0|3:2,0:0:0:0:
164,178,93415,2,0,L|157:267,1,74.9999999999999,10|8,0:0|3:2,0:0:0:0:
54,207,94030,6,0,L|63:88,1,112.5,4|2,3:2|3:2,0:0:0:0:
171,65,94799,2,0,L|163:177,1,112.5,10|2,0:2|0:2,0:0:0:0:
262,231,95568,2,0,P|291:236|385:230,2,112.5,8|8|2,0:0|0:0|0:0,0:0:0:0:
317,132,96799,6,0,P|372:126|428:133,1,112.5,8|10,0:0|0:0,0:0:0:0:
486,230,97568,2,0,L|482:284,2,37.5,0|4|4,3:0|3:2|3:2,0:0:0:0:
373,232,98184,2,0,L|368:307,2,74.9999999999999,4|4|4,3:2|3:2|3:2,0:0:0:0:
286,86,99261,6,0,L|135:76,1,150,4|0,3:2|0:0,0:0:0:0:
49,148,100184,2,0,P|43:203|46:238,1,74.9999999999999,0|10,0:0|3:2,0:0:0:0:
117,308,100799,2,0,P|172:313|207:311,1,74.9999999999999,10|10,0:0|0:2,0:0:0:0:
265,227,101415,6,0,P|320:221|355:224,1,74.9999999999999,8|2,0:0|3:2,0:0:0:0:
443,178,102030,2,0,P|448:233|446:268,1,74.9999999999999,0|2,3:0|3:2,0:0:0:0:
492,356,102645,2,0,P|436:361|402:359,1,74.9999999999999,8|8,0:2|3:2,0:0:0:0:
323,298,103261,2,0,L|333:147,1,150,8|4,3:3|0:0,0:0:0:0:
