osu file format v14

[General]
AudioFilename: audio.mp3
AudioLeadIn: 0
PreviewTime: 84120
Countdown: 0
SampleSet: Normal
StackLeniency: 0.7
Mode: 1
LetterboxInBreaks: 0
WidescreenStoryboard: 1

[Editor]
Bookmarks: 5415,10338,20184,22645,32492,42338,44799,54645,64492,74338,84184,94030,103876
DistanceSpacing: 0.9
BeatDivisor: 8
GridSize: 32
TimelineZoom: 2.899999

[Metadata]
Title:Altros
TitleUnicode:Altros
Artist:ARForest
ArtistUnicode:ARForest
Creator:Eyenine
Version:Kantan
Source:
Tags:electronic instrumental artcore pabat! 2017 k-bms inukoro musync musynx video game
BeatmapID:2469844
BeatmapSetID:1184727

[Difficulty]
HPDrainRate:7
CircleSize:5
OverallDifficulty:3
ApproachRate:5
SliderMultiplier:1.4
SliderTickRate:1

[Events]
//Background and Video events
0,0,"altros.jpg",0,0
//Break Periods
//Storyboard Layer 0 (Background)
//Storyboard Layer 1 (Fail)
//Storyboard Layer 2 (Pass)
//Storyboard Layer 3 (Foreground)
//Storyboard Layer 4 (Overlay)
//Storyboard Sound Samples

[TimingPoints]
428,307.692307692308,4,1,0,15,1,0
5351,-100,4,1,0,25,0,0
10235,-100,4,1,0,50,0,0
20197,-100,4,1,0,20,0,0
22581,-100,4,1,0,80,0,1
42274,-100,4,1,0,80,0,0
42351,-100,4,1,0,20,0,0
44658,-100,4,1,0,50,0,0
54543,-100,4,1,0,65,0,0
64504,-100,4,1,0,40,0,0
74197,-100,4,1,0,30,0,0
83466,-100,4,1,0,65,0,0
84120,-100,4,1,0,80,0,1
97658,-100,4,1,0,80,0,0
99197,-100,4,1,0,80,0,1
103812,-100,4,1,0,80,0,0
103851,-100,4,1,0,40,0,0

[HitObjects]
352,128,428,5,8,0:0:0:0:
352,128,1658,1,8,0:0:0:0:
352,128,2889,1,8,0:0:0:0:
352,128,4735,1,8,0:0:0:0:
160,128,5351,1,0,0:0:0:0:
352,128,5966,1,8,0:0:0:0:
352,128,7197,1,8,0:0:0:0:
160,128,7812,1,0,0:0:0:0:
352,128,8428,1,8,0:0:0:0:
352,128,9658,1,8,0:0:0:0:
160,256,10274,1,4,0:0:0:0:
352,128,10889,1,8,0:0:0:0:
160,128,11812,1,0,0:0:0:0:
352,128,12120,1,8,0:0:0:0:
160,128,12735,1,0,0:0:0:0:
352,128,13351,1,8,0:0:0:0:
160,128,14274,1,0,0:0:0:0:
352,128,14581,1,8,0:0:0:0:
160,128,15197,1,0,0:0:0:0:
352,128,15812,1,8,0:0:0:0:
160,128,16735,1,0,0:0:0:0:
352,128,17043,1,8,0:0:0:0:
160,128,17658,1,0,0:0:0:0:
352,128,18274,1,8,0:0:0:0:
160,128,19197,1,0,0:0:0:0:
352,128,19504,1,8,0:0:0:0:
352,128,19812,1,8,0:0:0:0:
160,256,20120,1,4,0:0:0:0:
256,160,21351,2,0,L|256:256,4,70
160,128,22581,1,4,0:0:0:0:
160,128,23812,1,0,0:0:0:0:
352,128,24120,1,8,0:0:0:0:
352,128,24735,1,8,0:0:0:0:
160,128,25043,1,0,0:0:0:0:
352,128,25658,1,8,0:0:0:0:
160,128,26120,1,0,0:0:0:0:
352,128,26581,1,8,0:0:0:0:
352,128,26889,1,8,0:0:0:0:
160,128,27504,1,4,0:0:0:0:
160,128,28735,1,0,0:0:0:0:
352,128,29043,1,8,0:0:0:0:
352,128,29658,1,8,0:0:0:0:
160,256,29966,1,4,0:0:0:0:
352,128,30581,1,8,0:0:0:0:
160,256,31197,1,4,0:0:0:0:
352,128,31504,1,8,0:0:0:0:
352,128,31812,1,8,0:0:0:0:
160,128,32428,1,4,0:0:0:0:
160,128,33351,1,0,0:0:0:0:
160,128,33966,1,0,0:0:0:0:
352,128,34274,1,8,0:0:0:0:
352,128,34581,1,8,0:0:0:0:
160,128,34889,1,0,0:0:0:0:
352,128,35351,1,0,0:0:0:0:
160,128,36120,1,0,0:0:0:0:
352,128,36428,1,8,0:0:0:0:
352,128,36735,1,8,0:0:0:0:
160,128,37351,1,4,0:0:0:0:
160,128,38274,1,0,0:0:0:0:
160,128,38889,1,0,0:0:0:0:
352,128,39197,1,8,0:0:0:0:
352,128,39504,1,8,0:0:0:0:
160,256,39812,1,4,0:0:0:0:
352,128,40274,1,8,0:0:0:0:
160,256,41043,1,4,0:0:0:0:
352,128,41658,1,8,0:0:0:0:
160,128,42274,1,4,0:0:0:0:
160,256,44735,1,4,0:0:0:0:
160,256,45197,1,4,0:0:0:0:
160,256,47197,1,4,0:0:0:0:
160,256,47658,1,4,0:0:0:0:
160,256,49658,1,4,0:0:0:0:
352,256,50120,1,12,0:0:0:0:
352,256,52120,1,12,0:0:0:0:
160,256,52581,1,4,0:0:0:0:
160,256,54581,1,4,0:0:0:0:
160,128,55043,1,0,0:0:0:0:
352,128,55658,1,8,0:0:0:0:
160,128,57043,1,0,0:0:0:0:
160,128,57504,1,0,0:0:0:0:
352,128,58120,1,8,0:0:0:0:
352,128,58581,1,8,0:0:0:0:
352,128,58889,1,8,0:0:0:0:
160,128,59504,1,0,0:0:0:0:
160,128,59966,1,0,0:0:0:0:
352,128,60581,1,8,0:0:0:0:
160,128,61966,1,0,0:0:0:0:
160,128,62428,1,0,0:0:0:0:
352,128,63043,1,8,0:0:0:0:
352,128,63812,1,8,0:0:0:0:
352,128,64120,1,8,0:0:0:0:
160,128,64428,1,0,0:0:0:0:
352,128,66889,1,8,0:0:0:0:
160,128,69351,1,0,0:0:0:0:
352,128,71812,5,8,0:0:0:0:
160,128,73043,1,0,0:0:0:0:
256,192,73658,2,0,L|256:288,2,70
352,128,74274,5,8,0:0:0:0:
352,128,74735,1,8,0:0:0:0:
352,128,75351,1,8,0:0:0:0:
352,128,76735,1,8,0:0:0:0:
352,128,77197,1,8,0:0:0:0:
352,128,77812,1,8,0:0:0:0:
352,128,79197,1,8,0:0:0:0:
352,128,79658,1,8,0:0:0:0:
352,128,79966,1,8,0:0:0:0:
352,128,80274,1,8,0:0:0:0:
352,128,81658,1,8,0:0:0:0:
352,128,82120,1,8,0:0:0:0:
352,128,82889,1,8,0:0:0:0:
352,128,83504,1,8,0:0:0:0:
160,128,84120,1,4,0:0:0:0:
160,128,84581,1,0,0:0:0:0:
352,128,85043,1,8,0:0:0:0:
352,128,85351,1,8,0:0:0:0:
352,128,85966,1,8,0:0:0:0:
160,128,86581,1,0,0:0:0:0:
352,128,87043,1,8,0:0:0:0:
352,128,87504,1,8,0:0:0:0:
160,128,87812,1,0,0:0:0:0:
160,128,89043,1,0,0:0:0:0:
352,128,89504,1,8,0:0:0:0:
352,128,89966,1,8,0:0:0:0:
160,128,90274,1,0,0:0:0:0:
352,128,90889,1,8,0:0:0:0:
160,128,91504,1,0,0:0:0:0:
160,128,92120,1,0,0:0:0:0:
352,128,92428,1,8,0:0:0:0:
160,128,92735,1,0,0:0:0:0:
352,128,93043,1,8,0:0:0:0:
352,128,93351,1,8,0:0:0:0:
160,256,93966,1,4,0:0:0:0:
160,128,94428,1,0,0:0:0:0:
352,128,94889,1,8,0:0:0:0:
352,128,95197,1,8,0:0:0:0:
160,128,95812,1,0,0:0:0:0:
352,128,96428,1,8,0:0:0:0:
352,128,96735,1,8,0:0:0:0:
160,128,97043,1,0,0:0:0:0:
352,128,97351,1,8,0:0:0:0:
160,256,97658,1,4,0:0:0:0:
352,256,98120,1,12,0:0:0:0:
352,256,99197,1,12,0:0:0:0:
352,128,99812,1,8,0:0:0:0:
160,128,100428,1,0,0:0:0:0:
352,128,100735,1,8,0:0:0:0:
352,128,101043,1,8,0:0:0:0:
160,256,101351,1,4,0:0:0:0:
160,128,101812,1,0,0:0:0:0:
352,128,102274,1,8,0:0:0:0:
160,256,102581,1,4,0:0:0:0:
352,128,102889,1,0,0:0:0:0:
352,128,103197,1,8,0:0:0:0:
352,128,103504,1,8,0:0:0:0:
160,256,103812,1,4,0:0:0:0:
160,128,105043,1,0,0:0:0:0:
352,128,106274,1,8,0:0:0:0:
352,128,107504,1,8,0:0:0:0:
352,128,108120,1,8,0:0:0:0:
160,128,108735,1,0,0:0:0:0:
160,128,109966,1,0,0:0:0:0:
352,128,111197,1,8,0:0:0:0:
352,128,112428,1,8,0:0:0:0:
352,128,113043,1,8,0:0:0:0:
352,128,113351,1,8,0:0:0:0:
