osu file format v14

[General]
AudioFilename: audio.mp3
AudioLeadIn: 0
PreviewTime: 84120
Countdown: 0
SampleSet: Normal
StackLeniency: 0.7
Mode: 1
LetterboxInBreaks: 0
WidescreenStoryboard: 1

[Editor]
Bookmarks: 5415,10338,20184,22645,32492,42338,44799,54645,64492,74338,84184,94030,103876
DistanceSpacing: 1
BeatDivisor: 4
GridSize: 32
TimelineZoom: 2.899999

[Metadata]
Title:Altros
TitleUnicode:Altros
Artist:ARForest
ArtistUnicode:ARForest
Creator:Eyenine
Version:Futsuu
Source:
Tags:electronic instrumental artcore pabat! 2017 k-bms inukoro musync musynx video game
BeatmapID:2469843
BeatmapSetID:1184727

[Difficulty]
HPDrainRate:6
CircleSize:5
OverallDifficulty:4
ApproachRate:5
SliderMultiplier:1.4
SliderTickRate:1

[Events]
//Background and Video events
0,0,"altros.jpg",0,0
//Break Periods
//Storyboard Layer 0 (Background)
//Storyboard Layer 1 (Fail)
//Storyboard Layer 2 (Pass)
//Storyboard Layer 3 (Foreground)
//Storyboard Layer 4 (Overlay)
//Storyboard Sound Samples

[TimingPoints]
428,307.692307692308,4,1,0,15,1,0
5351,-100,4,1,0,25,0,0
10235,-100,4,1,0,50,0,0
20197,-100,4,1,0,20,0,0
22581,-100,4,1,0,80,0,1
42274,-100,4,1,0,80,0,0
42351,-100,4,1,0,20,0,0
44658,-100,4,1,0,50,0,0
54543,-100,4,1,0,65,0,0
64504,-100,4,1,0,40,0,0
74197,-100,4,1,0,30,0,0
83466,-100,4,1,0,65,0,0
84120,-100,4,1,0,80,0,1
97658,-100,4,1,0,80,0,0
99197,-100,4,1,0,80,0,1
103812,-100,4,1,0,80,0,0
103851,-100,4,1,0,40,0,0

[HitObjects]
352,128,428,5,8,0:0:0:0:
352,128,1812,1,8,0:0:0:0:
352,128,3351,1,8,0:0:0:0:
352,128,3966,1,8,0:0:0:0:
352,128,4428,1,8,0:0:0:0:
352,128,4735,1,8,0:0:0:0:
160,128,5351,1,0,0:0:0:0:
352,128,5966,1,8,0:0:0:0:
160,128,6274,1,0,0:0:0:0:
160,128,6889,1,0,0:0:0:0:
352,128,7197,1,8,0:0:0:0:
160,128,7504,1,0,0:0:0:0:
160,128,7812,1,0,0:0:0:0:
352,128,8428,1,8,0:0:0:0:
160,128,8735,1,0,0:0:0:0:
352,128,9351,1,8,0:0:0:0:
352,128,9658,1,8,0:0:0:0:
160,256,10274,1,4,0:0:0:0:
352,128,10889,1,8,0:0:0:0:
352,128,11043,1,8,0:0:0:0:
160,128,11812,1,0,0:0:0:0:
352,128,12120,1,8,0:0:0:0:
160,128,12735,1,0,0:0:0:0:
352,128,13351,1,8,0:0:0:0:
160,128,14120,1,0,0:0:0:0:
160,128,14274,1,0,0:0:0:0:
352,128,14581,1,8,0:0:0:0:
352,128,14889,1,8,0:0:0:0:
160,128,15197,1,0,0:0:0:0:
352,128,15812,1,8,0:0:0:0:
352,128,15966,1,8,0:0:0:0:
160,128,16735,1,0,0:0:0:0:
352,128,17043,1,8,0:0:0:0:
160,128,17658,1,0,0:0:0:0:
352,128,18274,1,8,0:0:0:0:
352,128,19043,1,8,0:0:0:0:
160,128,19197,1,0,0:0:0:0:
352,128,19504,1,8,0:0:0:0:
352,128,19812,1,8,0:0:0:0:
160,256,20120,1,4,0:0:0:0:
256,160,21351,2,0,L|256:256,4,70
160,128,22581,1,4,0:0:0:0:
352,128,22889,1,8,0:0:0:0:
352,128,23351,1,8,0:0:0:0:
160,128,23658,1,0,0:0:0:0:
160,128,23966,1,0,0:0:0:0:
352,128,24120,1,8,0:0:0:0:
160,128,24274,1,0,0:0:0:0:
160,128,24581,1,0,0:0:0:0:
352,128,24735,1,8,0:0:0:0:
160,128,25043,1,0,0:0:0:0:
352,128,25351,1,8,0:0:0:0:
352,128,25812,1,8,0:0:0:0:
160,128,26120,1,0,0:0:0:0:
160,128,26428,1,0,0:0:0:0:
352,128,26581,1,8,0:0:0:0:
352,128,26889,1,8,0:0:0:0:
160,128,27504,1,4,0:0:0:0:
352,128,27812,1,8,0:0:0:0:
352,128,28274,1,8,0:0:0:0:
160,128,28581,1,0,0:0:0:0:
160,128,28889,1,0,0:0:0:0:
352,128,29043,1,8,0:0:0:0:
160,128,29197,1,0,0:0:0:0:
160,128,29504,1,0,0:0:0:0:
352,128,29658,1,8,0:0:0:0:
160,128,29966,1,4,0:0:0:0:
352,128,30274,1,8,0:0:0:0:
160,128,30428,1,0,0:0:0:0:
352,128,30735,1,8,0:0:0:0:
160,128,30889,1,0,0:0:0:0:
160,128,31197,1,4,0:0:0:0:
352,128,31504,1,8,0:0:0:0:
160,128,31658,1,0,0:0:0:0:
352,128,31812,1,8,0:0:0:0:
160,128,32428,1,4,0:0:0:0:
352,128,32735,1,8,0:0:0:0:
352,128,33197,1,8,0:0:0:0:
160,128,33504,1,0,0:0:0:0:
160,128,33812,1,0,0:0:0:0:
352,128,33966,1,8,0:0:0:0:
160,128,34120,1,0,0:0:0:0:
160,128,34428,1,0,0:0:0:0:
352,128,34581,1,8,0:0:0:0:
160,128,34889,1,0,0:0:0:0:
352,128,35197,1,8,0:0:0:0:
352,128,35658,1,8,0:0:0:0:
160,128,35966,1,0,0:0:0:0:
160,128,36274,1,0,0:0:0:0:
352,128,36428,1,8,0:0:0:0:
352,128,36735,1,8,0:0:0:0:
160,256,37351,1,4,0:0:0:0:
352,128,37658,1,8,0:0:0:0:
352,128,38120,1,8,0:0:0:0:
160,128,38428,1,0,0:0:0:0:
160,128,38735,1,0,0:0:0:0:
352,128,38889,1,8,0:0:0:0:
160,128,39043,1,0,0:0:0:0:
352,128,39351,1,8,0:0:0:0:
352,128,39504,1,8,0:0:0:0:
160,256,39812,1,4,0:0:0:0:
352,128,40120,1,8,0:0:0:0:
160,128,40274,1,0,0:0:0:0:
352,128,40581,1,8,0:0:0:0:
160,128,40735,1,0,0:0:0:0:
160,256,41043,1,4,0:0:0:0:
352,128,41351,1,8,0:0:0:0:
160,128,41504,1,0,0:0:0:0:
352,128,41658,1,8,0:0:0:0:
352,128,41966,1,8,0:0:0:0:
160,256,42274,1,4,0:0:0:0:
160,256,44735,1,4,0:0:0:0:
160,256,45197,1,4,0:0:0:0:
352,128,45812,1,8,0:0:0:0:
160,128,46274,1,0,0:0:0:0:
352,128,46581,1,8,0:0:0:0:
160,256,47197,1,4,0:0:0:0:
160,256,47658,1,4,0:0:0:0:
352,128,48274,1,8,0:0:0:0:
160,128,48735,1,0,0:0:0:0:
352,128,49043,1,8,0:0:0:0:
352,128,49351,1,8,0:0:0:0:
160,256,49658,1,4,0:0:0:0:
352,256,50120,1,12,0:0:0:0:
352,128,50735,1,8,0:0:0:0:
160,128,51197,1,0,0:0:0:0:
352,128,51504,1,8,0:0:0:0:
352,256,52120,1,12,0:0:0:0:
160,256,52581,1,4,0:0:0:0:
352,128,53197,1,8,0:0:0:0:
160,128,53658,1,0,0:0:0:0:
160,128,53966,1,0,0:0:0:0:
352,128,54274,1,8,0:0:0:0:
160,256,54581,1,4,0:0:0:0:
160,128,55043,1,0,0:0:0:0:
160,128,55351,1,0,0:0:0:0:
352,128,55658,1,8,0:0:0:0:
160,128,55966,1,0,0:0:0:0:
160,128,56428,1,0,0:0:0:0:
352,128,56735,1,8,0:0:0:0:
160,128,57043,1,0,0:0:0:0:
160,128,57504,1,0,0:0:0:0:
160,128,57812,1,0,0:0:0:0:
352,128,58120,1,8,0:0:0:0:
160,128,58428,1,0,0:0:0:0:
352,128,58581,1,8,0:0:0:0:
352,128,58889,1,8,0:0:0:0:
160,128,59504,1,0,0:0:0:0:
160,128,59966,1,0,0:0:0:0:
160,128,60274,1,0,0:0:0:0:
352,128,60581,1,8,0:0:0:0:
160,128,60889,1,0,0:0:0:0:
160,128,61351,1,0,0:0:0:0:
352,128,61658,1,8,0:0:0:0:
160,128,61966,1,0,0:0:0:0:
160,128,62428,1,0,0:0:0:0:
160,128,62735,1,0,0:0:0:0:
352,128,63043,1,8,0:0:0:0:
160,128,63197,1,0,0:0:0:0:
352,128,63351,1,8,0:0:0:0:
352,128,63812,1,8,0:0:0:0:
352,128,64120,1,8,0:0:0:0:
352,128,64274,1,8,0:0:0:0:
160,128,64428,1,0,0:0:0:0:
160,128,64889,1,0,0:0:0:0:
160,128,65658,1,0,0:0:0:0:
352,128,66581,1,8,0:0:0:0:
160,128,66889,1,0,0:0:0:0:
160,128,67351,1,0,0:0:0:0:
160,128,68120,1,0,0:0:0:0:
352,128,69043,1,8,0:0:0:0:
160,128,69351,1,0,0:0:0:0:
160,128,69812,1,0,0:0:0:0:
160,128,70581,1,0,0:0:0:0:
352,128,71504,5,8,0:0:0:0:
352,128,71812,5,8,0:0:0:0:
160,128,72274,1,0,0:0:0:0:
160,128,73043,1,0,0:0:0:0:
256,192,73658,2,0,L|256:288,2,70
352,128,74274,5,8,0:0:0:0:
352,128,74735,1,8,0:0:0:0:
160,128,75043,1,0,0:0:0:0:
352,128,75351,1,8,0:0:0:0:
160,128,75658,1,0,0:0:0:0:
352,128,75966,1,8,0:0:0:0:
352,128,76735,1,8,0:0:0:0:
352,128,77197,1,8,0:0:0:0:
160,128,77504,1,0,0:0:0:0:
352,128,77812,1,8,0:0:0:0:
352,128,78120,1,8,0:0:0:0:
352,128,78428,1,8,0:0:0:0:
352,128,79197,1,8,0:0:0:0:
160,128,79658,1,0,0:0:0:0:
352,128,79966,1,8,0:0:0:0:
352,128,80274,1,8,0:0:0:0:
352,128,80581,1,8,0:0:0:0:
160,128,80889,1,0,0:0:0:0:
352,128,81658,1,8,0:0:0:0:
352,128,82120,1,8,0:0:0:0:
352,128,82428,1,8,0:0:0:0:
352,128,82581,1,8,0:0:0:0:
352,128,82735,1,8,0:0:0:0:
160,128,83043,1,0,0:0:0:0:
352,128,83197,1,8,0:0:0:0:
352,128,83504,1,8,0:0:0:0:
160,256,84120,1,4,0:0:0:0:
160,128,84581,1,0,0:0:0:0:
352,128,84889,1,8,0:0:0:0:
352,128,85197,1,8,0:0:0:0:
352,128,85351,1,8,0:0:0:0:
160,128,85658,1,0,0:0:0:0:
352,128,85812,1,8,0:0:0:0:
352,128,85966,1,8,0:0:0:0:
160,128,86274,1,0,0:0:0:0:
352,128,86581,1,8,0:0:0:0:
160,128,86735,1,0,0:0:0:0:
352,128,87043,1,8,0:0:0:0:
160,128,87197,1,0,0:0:0:0:
352,128,87504,1,8,0:0:0:0:
352,128,87812,1,8,0:0:0:0:
352,128,88120,1,8,0:0:0:0:
160,128,88428,1,0,0:0:0:0:
160,128,89043,1,0,0:0:0:0:
160,128,89504,1,0,0:0:0:0:
352,128,89812,1,8,0:0:0:0:
352,128,89966,1,8,0:0:0:0:
160,128,90274,1,0,0:0:0:0:
352,128,90581,1,8,0:0:0:0:
160,128,90889,1,0,0:0:0:0:
352,128,91043,1,8,0:0:0:0:
160,128,91197,1,0,0:0:0:0:
160,128,91504,1,0,0:0:0:0:
352,128,91812,1,8,0:0:0:0:
352,128,92120,1,0,0:0:0:0:
352,128,92428,1,8,0:0:0:0:
160,128,92735,1,0,0:0:0:0:
160,128,92889,1,0,0:0:0:0:
352,128,93043,1,8,0:0:0:0:
352,128,93351,1,8,0:0:0:0:
160,128,93966,1,4,0:0:0:0:
160,128,94428,1,0,0:0:0:0:
352,128,94735,1,8,0:0:0:0:
352,128,95043,1,8,0:0:0:0:
352,128,95197,1,8,0:0:0:0:
352,128,95504,1,8,0:0:0:0:
160,128,95812,1,0,0:0:0:0:
352,128,96120,1,8,0:0:0:0:
352,128,96428,1,8,0:0:0:0:
352,128,96581,1,8,0:0:0:0:
352,128,96735,1,8,0:0:0:0:
160,128,97043,1,0,0:0:0:0:
352,128,97351,1,8,0:0:0:0:
160,256,97658,1,4,0:0:0:0:
352,256,98120,1,12,0:0:0:0:
352,256,98735,1,12,0:0:0:0:
352,256,99197,1,12,0:0:0:0:
352,128,99658,1,8,0:0:0:0:
352,128,99812,1,8,0:0:0:0:
160,128,99966,1,0,0:0:0:0:
160,128,100274,1,0,0:0:0:0:
160,128,100428,1,0,0:0:0:0:
352,128,100735,1,8,0:0:0:0:
352,128,101043,1,8,0:0:0:0:
160,256,101351,1,4,0:0:0:0:
352,128,101812,1,8,0:0:0:0:
352,128,102120,1,8,0:0:0:0:
352,128,102274,1,8,0:0:0:0:
160,256,102581,1,4,0:0:0:0:
352,128,102889,1,8,0:0:0:0:
352,128,103197,1,8,0:0:0:0:
160,128,103351,1,0,0:0:0:0:
352,128,103504,1,8,0:0:0:0:
352,128,103658,1,8,0:0:0:0:
160,256,103812,1,4,0:0:0:0:
352,128,104428,1,8,0:0:0:0:
160,128,104889,1,0,0:0:0:0:
352,128,105351,1,8,0:0:0:0:
160,128,105658,1,0,0:0:0:0:
352,128,106120,1,8,0:0:0:0:
352,128,106889,1,8,0:0:0:0:
160,128,107351,1,0,0:0:0:0:
352,128,107812,1,8,0:0:0:0:
160,128,108120,1,0,0:0:0:0:
352,128,108428,1,8,0:0:0:0:
352,128,108581,1,8,0:0:0:0:
352,128,109351,1,8,0:0:0:0:
160,128,109812,1,0,0:0:0:0:
352,128,110274,1,8,0:0:0:0:
160,128,110581,1,0,0:0:0:0:
352,128,111043,1,8,0:0:0:0:
352,128,111812,1,8,0:0:0:0:
352,128,112120,1,8,0:0:0:0:
352,128,112274,1,8,0:0:0:0:
352,128,112735,1,8,0:0:0:0:
160,128,113043,1,0,0:0:0:0:
352,128,113351,1,8,0:0:0:0:
352,128,113504,1,8,0:0:0:0:
