osu file format v14

[General]
AudioFilename: audio.mp3
AudioLeadIn: 0
PreviewTime: 83506
Countdown: 0
SampleSet: Soft
StackLeniency: 0.7
Mode: 0
LetterboxInBreaks: 0
WidescreenStoryboard: 1

[Editor]
Bookmarks: 10276,20122,22583,32430,42276,44737,54583,64430,74276,84122,93968,103814,113660
DistanceSpacing: 1
BeatDivisor: 4
GridSize: 4
TimelineZoom: 3.699999

[Metadata]
Title:Altros
TitleUnicode:Altros
Artist:ARForest
ArtistUnicode:ARForest
Creator:Down
Version:milr_'s Extra
Source:
Tags:omc ofc contest helloscv dailycare milr_ [_white_music_] len fast cellina reana taeyang
BeatmapID:1394753
BeatmapSetID:658433

[Difficulty]
HPDrainRate:6
CircleSize:4.5
OverallDifficulty:8
ApproachRate:9.3
SliderMultiplier:1.8
SliderTickRate:1

[Events]
//Background and Video events
0,0,"bg.jpg",0,0
//Break Periods
2,42501,44209
2,64656,73132
2,104039,108209
//Storyboard Layer 0 (Background)
//Storyboard Layer 1 (Fail)
//Storyboard Layer 2 (Pass)
//Storyboard Layer 3 (Foreground)
//Storyboard Sound Samples

[TimingPoints]
456,307.692307692308,4,2,3,70,1,0
10302,-133.333333333333,4,2,3,70,0,0
21225,-100,4,2,3,40,0,0
21379,-100,4,2,3,40,0,0
21994,-166.666666666667,4,2,3,40,0,0
22302,-166.666666666667,4,2,3,70,0,0
22609,-100,4,2,3,70,0,0
44761,-50,4,2,3,60,0,0
45532,-133.333333333333,4,2,3,60,0,0
47225,-50,4,2,3,60,0,0
47994,-133.333333333333,4,2,3,60,0,0
49686,-50,4,2,3,60,0,0
50456,-133.333333333333,4,2,3,60,0,0
52148,-50,4,2,3,60,0,0
52917,-133.333333333333,4,2,3,60,0,0
53994,-114.942528735632,4,2,3,60,0,0
54609,-100,4,2,3,60,0,0
54917,-80,4,2,3,60,0,0
55071,-100,4,2,3,60,0,0
57379,-80,4,2,3,60,0,0
57532,-100,4,2,3,60,0,0
59840,-80,4,2,3,60,0,0
59994,-100,4,2,3,60,0,0
64456,-100,4,2,3,60,0,0
73686,-200,4,2,3,50,0,0
74302,-133.333333333333,4,2,3,50,0,0
84148,-90.9090909090909,4,2,3,70,0,1
93917,-90.9090909090909,4,2,3,70,0,0
93994,-90.9090909090909,4,2,3,70,0,1
97609,-90.9090909090909,4,2,3,70,0,0
97686,-76.9230769230769,4,2,3,70,0,1
97763,-76.9230769230769,4,2,3,70,0,0
97840,-76.9230769230769,4,2,3,70,0,1
97917,-76.9230769230769,4,2,3,70,0,0
98148,-76.9230769230769,4,2,3,70,0,1
98225,-76.9230769230769,4,2,3,70,0,0
98456,-76.9230769230769,4,2,3,70,0,1
98532,-76.9230769230769,4,2,3,70,0,0
98763,-76.9230769230769,4,2,3,70,0,1
98840,-90.9090909090909,4,2,3,70,0,0
99225,-90.9090909090909,4,2,3,70,0,1
103840,-90.9090909090909,4,3,3,70,0,0
108763,-133.333333333333,4,2,3,70,0,0

[Colours]
Combo1 : 143,148,231
Combo2 : 238,218,77
Combo3 : 250,224,137
Combo4 : 106,112,206
SliderTrackOverride : 40,40,40

[HitObjects]
108,308,10302,6,0,P|161:336|230:294,1,135.000005149842,2|0,0:0|0:0,0:0:0:0:
166,260,10763,2,0,L|180:108,1,135.000005149842,2|0,0:0|0:0,0:0:0:0:
128,68,11225,2,0,P|74:47|11:92,1,135.000005149842,2|0,0:0|0:0,0:0:0:0:
78,120,11686,1,2,0:0:0:0:
71,193,11840,1,0,0:0:0:0:
64,204,12148,6,0,L|68:344,1,135.000005149842,2|2,0:0|0:0,0:0:0:0:
136,374,12609,1,0,0:0:0:0:
144,364,12763,6,0,P|217:330|269:371,1,135.000005149842,2|0,0:0|0:0,0:0:0:0:
324,320,13225,2,0,L|316:180,1,135.000005149842,2|0,0:0|0:0,0:0:0:0:
376,140,13686,2,0,P|440:112|501:167,1,135.000005149842,2|0,0:0|0:0,0:0:0:0:
432,187,14148,1,2,0:0:0:0:
436,260,14302,1,0,0:0:0:0:
427,267,14609,2,0,L|291:263,1,135.000005149842,2|2,0:0|0:0,0:0:0:0:
235,216,15071,1,0,0:0:0:0:
244,208,15225,6,0,P|268:152|207:78,1,135.000005149842,2|0,0:0|0:0,0:0:0:0:
192,152,15686,2,0,L|56:148,1,135.000005149842,2|0,0:0|0:0,0:0:0:0:
25,72,16148,2,0,L|160:76,1,135.000005149842,2|0,0:0|0:0,0:0:0:0:
209,22,16609,1,2,0:0:0:0:
284,20,16763,1,0,0:0:0:0:
292,28,17071,2,0,L|444:32,1,135.000005149842,2|2,0:0|0:0,0:0:0:0:
486,81,17532,1,0,0:0:0:0:
476,88,17686,6,0,P|437:124|453:213,1,135.000005149842,2|0,0:0|0:0,0:0:0:0:
504,160,18148,2,0,P|516:204|452:276,1,135.000005149842,2|0,0:0|0:0,0:0:0:0:
394,258,18609,1,2,0:0:0:0:
387,250,19071,5,2,0:0:0:0:
311,254,19225,1,0,0:0:0:0:
303,246,19532,5,2,0:0:0:0:
227,242,19686,1,0,0:0:0:0:
155,278,19840,1,2,0:0:0:0:
79,274,19994,1,6,0:0:0:0:
256,72,21225,6,0,L|260:32,3,22.5
296,64,21379,6,0,L|380:60,3,45,0|0|0|0,0:0|0:0|0:0|0:0,0:0:0:0:
408,20,21686,2,0,L|492:16,3,45
504,76,21994,6,0,P|478:122|495:166,1,80.9999975280763,0|0,0:0|0:0,0:0:0:0:
420,196,22302,1,0,3:0:0:0:
420,209,22378,1,0,3:0:0:0:
421,222,22455,1,0,3:0:0:0:
422,236,22532,1,0,3:0:0:0:
488,280,22609,6,0,L|480:384,1,90,0|0,3:0|0:0,0:0:0:0:
404,320,22840,1,0,0:0:0:0:
400,332,22917,2,0,P|344:312|296:336,1,90,8|0,3:0|0:0,0:0:0:0:
256,373,23148,1,0,0:0:0:0:
244,361,23225,2,0,L|236:297,1,45,0|0,3:0|0:0,0:0:0:0:
280,249,23379,2,0,L|272:185,1,45,8|0,3:0|0:0,0:0:0:0:
168,280,23532,2,0,L|64:288,1,90,0|0,0:0|3:0,0:0:0:0:
8,136,23840,6,0,L|116:144,1,90,0|0,0:0|3:0,0:0:0:0:
164,104,24071,1,0,0:0:0:0:
160,92,24148,2,0,P|172:44|156:0,1,90,8|0,3:0|0:0,0:0:0:0:
444,67,24456,2,0,L|310:72,1,135,0|0,0:0|0:0,0:0:0:0:
243,123,24763,2,0,P|231:165|243:208,1,90,8|0,3:0|0:0,0:0:0:0:
452,360,25071,6,0,L|460:240,1,90,0|0,3:0|0:0,0:0:0:0:
396,220,25302,1,0,0:0:0:0:
404,212,25379,2,0,P|416:169|400:116,1,90,8|0,3:0|3:0,0:0:0:0:
285,275,25686,2,0,L|369:271,1,45,0|0,0:0|0:0,0:0:0:0:
272,352,25840,2,0,L|356:348,1,45,8|0,3:0|0:0,0:0:0:0:
200,320,25994,2,0,L|81:315,1,90,0|0,0:0|3:0,0:0:0:0:
16,188,26302,6,0,L|135:183,1,90,0|0,0:0|3:0,0:0:0:0:
164,136,26532,1,0,0:0:0:0:
156,128,26609,2,0,P|172:68|144:24,1,90,8|0,3:0|3:0,0:0:0:0:
252,112,26840,1,0,0:0:0:0:
244,120,26917,2,0,L|232:280,1,135,0|0,3:0|0:0,0:0:0:0:
293,365,27225,2,0,P|311:318|291:260,1,90,0|8,0:0|3:0,0:0:0:0:
480,208,27532,6,0,L|356:204,1,90,0|0,3:0|0:0,0:0:0:0:
348,144,27763,1,0,0:0:0:0:
356,136,27840,2,0,P|338:89|358:31,1,90,8|0,3:0|0:0,0:0:0:0:
408,12,28071,1,0,0:0:0:0:
416,20,28148,2,0,L|484:16,1,45,0|0,3:0|0:0,0:0:0:0:
431,94,28302,2,0,L|499:90,1,45,8|0,3:0|0:0,0:0:0:0:
264,69,28456,2,0,L|148:63,1,90,0|0,0:0|3:2,0:0:0:0:
12,192,28763,6,0,L|128:186,1,90,0|0,0:0|3:0,0:0:0:0:
156,136,28994,1,0,0:0:0:0:
148,128,29071,2,0,P|160:80|124:28,1,90,8|0,3:0|3:0,0:0:0:0:
60,272,29379,1,0,0:0:0:0:
227,169,29532,2,0,L|286:171,1,45,0|0,3:0|0:0,0:0:0:0:
157,261,29686,2,0,L|37:265,1,90,8|0,3:0|3:0,0:0:0:0:
224,356,29994,6,0,L|344:360,1,90,0|0,0:0|3:0,0:0:0:0:
372,312,30225,1,0,0:0:0:0:
364,304,30302,2,0,P|344:252|360:212,1,90,8|0,3:0|3:0,0:0:0:0:
444,284,30532,1,0,0:0:0:0:
452,276,30609,2,0,L|512:272,1,45,0|0,0:0|3:0,0:0:0:0:
429,204,30763,2,0,L|489:200,1,45,8|0,3:0|0:0,0:0:0:0:
344,148,30917,2,0,L|252:144,1,90,0|0,3:0|0:0,0:0:0:0:
408,104,31148,1,0,0:0:0:0:
416,112,31225,6,0,L|532:108,1,90,8|0,3:0|3:0,0:0:0:0:
507,64,31456,1,0,0:0:0:0:
485,26,31533,1,8,3:0:0:0:
446,5,31610,1,0,0:0:0:0:
402,9,31687,1,0,3:0:0:0:
366,36,31764,1,0,0:0:0:0:
321,43,31840,6,0,L|253:40,3,45,8|0|0|0,3:0|0:0|3:0|0:0,0:0:0:0:
204,16,32148,1,0,0:0:0:0:
192,16,32224,1,0,0:0:0:0:
181,16,32301,1,0,3:0:0:0:
170,16,32378,1,0,0:0:0:0:
96,40,32456,6,0,L|100:152,1,90,0|0,3:0|0:0,0:0:0:0:
29,175,32686,1,0,0:0:0:0:
36,184,32763,2,0,P|85:213|88:280,1,90,8|0,3:0|0:0,0:0:0:0:
48,300,32994,1,0,0:0:0:0:
40,308,33071,2,0,L|44:368,1,45,0|0,3:0|0:0,0:0:0:0:
120,320,33225,2,0,L|124:380,1,45,8|0,3:0|0:0,0:0:0:0:
173,262,33379,2,0,L|285:257,1,90,0|0,0:0|3:0,0:0:0:0:
476,336,33686,6,0,L|364:331,1,90,0|0,0:0|3:0,0:0:0:0:
336,274,33917,1,0,0:0:0:0:
344,268,33994,2,0,P|372:224|344:160,1,90,8|0,3:0|3:0,0:0:0:0:
186,86,34302,2,0,L|362:78,1,135,0|0,0:0|0:0,0:0:0:0:
389,115,34609,2,0,P|435:105|478:119,1,90,8|0,3:0|0:0,0:0:0:0:
256,12,34917,6,0,L|248:112,1,90,0|0,3:0|3:0,0:0:0:0:
192,152,35148,1,0,0:0:0:0:
184,144,35225,2,0,P|152:117|98:124,1,90,8|0,3:0|0:0,0:0:0:0:
8,60,35532,2,0,L|76:64,1,45,0|0,0:0|0:0,0:0:0:0:
0,168,35686,2,0,L|68:172,1,45,8|0,3:0|0:0,0:0:0:0:
99,226,35840,2,0,L|95:330,1,90,0|0,0:0|3:0,0:0:0:0:
240,384,36148,6,0,L|236:294,1,90,0|0,0:0|3:0,0:0:0:0:
174,248,36379,1,0,0:0:0:0:
180,240,36456,2,0,P|202:195|179:150,1,90,8|0,3:0|3:0,0:0:0:0:
276,192,36686,1,0,0:0:0:0:
284,200,36763,2,0,L|448:208,1,135,0|0,3:0|3:0,0:0:0:0:
504,288,37071,2,0,P|459:299|419:283,1,90,0|8,0:0|3:0,0:0:0:0:
465,147,37379,6,0,L|461:27,1,90,0|0,3:0|0:0,0:0:0:0:
400,12,37609,1,0,0:0:0:0:
392,20,37686,2,0,P|348:41|292:18,1,90,8|0,3:0|0:0,0:0:0:0:
240,8,37917,1,0,0:0:0:0:
232,16,37994,2,0,L|236:76,1,45,0|0,3:0|0:0,0:0:0:0:
292,112,38148,2,0,L|296:172,1,45,8|0,3:0|0:0,0:0:0:0:
171,105,38302,2,0,L|67:101,1,90,0|0,0:0|3:0,0:0:0:0:
8,244,38609,6,0,L|112:240,1,90,0|0,0:0|3:0,0:0:0:0:
158,191,38840,1,0,0:0:0:0:
152,184,38917,2,0,P|132:147|161:86,1,90,8|0,3:0|3:0,0:0:0:0:
215,351,39225,1,0,0:0:0:0:
56,318,39379,2,0,L|-14:320,1,45,0|0,3:0|0:0,0:0:0:0:
119,363,39532,2,0,L|243:359,1,90,8|0,3:0|0:0,0:0:0:0:
324,224,39840,6,0,L|200:220,1,90,0|0,0:0|3:0,0:0:0:0:
180,168,40071,1,0,0:0:0:0:
188,160,40148,2,0,P|212:120|180:52,1,90,8|0,3:0|3:0,0:0:0:0:
288,72,40379,1,0,0:0:0:0:
280,64,40456,2,0,L|284:0,1,45,0|0,0:0|3:0,0:0:0:0:
355,88,40609,2,0,L|359:24,1,45,8|0,3:0|0:0,0:0:0:0:
416,140,40763,2,0,L|528:136,1,90,0|0,3:0|3:0,0:0:0:0:
352,188,40994,1,0,0:0:0:0:
344,196,41071,6,0,L|232:192,1,90,8|0,3:0|3:0,0:0:0:0:
214,213,41302,1,0,0:0:0:0:
189,250,41379,1,8,3:0:0:0:
186,294,41456,1,0,0:0:0:0:
204,335,41533,1,0,3:0:0:0:
240,361,41610,1,0,0:0:0:0:
292,364,41686,6,0,L|360:360,3,45,8|0|0|0,3:0|0:0|3:0|0:0,0:0:0:0:
404,328,41994,1,8,3:0:0:0:
415,328,42070,1,8,3:0:0:0:
426,328,42147,1,8,3:0:0:0:
437,329,42224,1,8,3:0:0:0:
448,329,42301,5,0,3:0:0:0:
171,181,44763,6,0,B|159:186|159:186|171:189|171:189|159:194|159:194|172:197|172:197|160:202|160:202|172:205|172:205|161:210|161:210|173:213|173:213|161:218|161:218|173:221|173:221|162:226|162:226|174:229|174:229|162:234|162:234|174:237|174:237|163:242|163:242|175:245|175:245|163:250|163:250|176:253|176:253|164:258|164:258|176:261|176:261|164:266|164:266|177:269|177:269|165:274|165:274|177:277|177:277|166:282|166:282|178:285|178:285|166:290|166:290|178:293|178:293|167:298|167:298,1,360,2|0,3:2|0:0,0:0:0:0:
124,352,45225,1,2,3:2:0:0:
116,344,45532,2,0,P|81:336|31:358,1,67.5000025749208,2|0,0:0|0:0,0:0:0:0:
208,364,45840,1,2,0:0:0:0:
216,356,46148,6,0,P|251:364|296:351,1,67.5000025749208,0|2,0:0|0:0,0:0:0:0:
288,350,46609,2,0,L|292:216,1,135.000005149842,2|2,0:0|0:0,0:0:0:0:
487,89,47225,6,0,B|482:77|482:77|479:89|479:89|474:77|474:77|471:90|471:90|466:78|466:78|463:90|463:90|458:78|458:78|455:91|455:91|450:79|450:79|447:91|447:91|442:80|442:80|439:92|439:92|434:80|434:80|431:92|431:92|426:81|426:81|423:93|423:93|418:81|418:81|415:94|415:94|410:82|410:82|407:94|407:94|402:82|402:82|399:95|399:95|394:83|394:83|391:95|391:95|386:84|386:84|383:96|383:96|378:84|378:84|375:96|375:96|370:85|370:85,1,360,2|0,3:2|0:0,0:0:0:0:
307,38,47686,2,0,B|302:49|302:49|299:37|299:37|294:49|294:49|291:36|291:36|286:48|286:48|283:36|283:36|278:48|278:48|275:35|275:35|270:47|270:47|267:35|267:35|262:46|262:46|259:34|259:34|254:46|254:46|251:34|251:34|246:45|246:45|243:33|243:33,1,180,2|0,3:2|0:0,0:0:0:0:
240,44,47994,2,0,P|200:35|158:58,1,67.5000025749208,2|0,0:0|0:0,0:0:0:0:
104,60,48302,1,2,0:0:0:0:
96,52,48609,6,0,P|63:60|31:50,1,67.5000025749208,0|2,0:0|0:0,0:0:0:0:
24,44,49071,2,0,P|36:96|24:132,1,67.5000025749208,2|0,0:0|0:0,0:0:0:0:
92,156,49379,2,0,P|80:208|92:244,1,67.5000025749208,2|2,0:0|0:0,0:0:0:0:
36,279,49686,6,0,B|40:290|40:290|43:278|43:278|48:290|48:290|51:277|51:277|56:289|56:289|59:277|59:277|64:289|64:289|67:276|67:276|72:288|72:288|75:276|75:276|80:287|80:287|83:275|83:275|88:287|88:287|91:275|91:275|96:286|96:286|99:274|99:274|104:286|104:286|107:273|107:273|112:285|112:285|115:273|115:273|120:285|120:285|123:272|123:272|128:284|128:284|131:272|131:272|136:283|136:283|139:271|139:271|144:283|144:283|147:271|147:271|152:282|152:282,1,360,2|0,3:2|0:0,0:0:0:0:
212,232,50148,2,0,B|216:220|216:220|219:232|219:232|224:220|224:220|227:233|227:233|232:221|232:221|235:233|235:233|240:221|240:221|243:234|243:234|248:222|248:222|251:234|251:234|256:223|256:223|259:235|259:235|264:223|264:223|267:235|267:235|272:224|272:224|275:236|275:236,1,180,2|0,3:2|0:0,0:0:0:0:
276,240,50456,2,0,P|285:264|268:327,1,67.5000025749208,2|0,0:0|0:0,0:0:0:0:
224,352,50763,1,2,0:0:0:0:
216,344,51071,6,0,P|180:336|140:344,1,67.5000025749208,0|2,0:0|0:0,0:0:0:0:
144,348,51532,2,0,P|152:300|132:264,1,67.5000025749208,2|0,0:0|0:0,0:0:0:0:
100,224,51840,2,0,P|92:176|112:140,1,67.5000025749208,2|2,0:0|0:0,0:0:0:0:
44,107,52148,6,0,B|48:96|48:96|51:108|51:108|56:96|56:96|59:109|59:109|64:97|64:97|67:109|67:109|72:97|72:97|75:110|75:110|80:98|80:98|83:110|83:110|88:99|88:99|91:111|91:111|96:99|96:99|99:111|99:111|104:100|104:100|107:112|107:112|112:100|112:100|115:113|115:113|120:101|120:101|123:113|123:113|128:101|128:101|131:114|131:114|136:102|136:102|139:114|139:114|144:103|144:103|147:115|147:115|152:103|152:103|155:115|155:115|160:104|160:104,1,360,2|0,3:2|0:0,0:0:0:0:
213,56,52609,2,0,B|218:67|218:67|221:55|221:55|226:67|226:67|229:54|229:54|234:66|234:66|237:54|237:54|242:66|242:66|245:53|245:53|250:65|250:65|253:53|253:53|258:64|258:64|261:52|261:52|266:64|266:64|269:52|269:52|274:63|274:63|277:51|277:51,1,180,2|0,3:2|0:0,0:0:0:0:
276,60,52917,2,0,P|291:89|281:140,1,67.5000025749208,2|0,0:0|0:0,0:0:0:0:
260,192,53225,1,2,0:0:0:0:
264,200,53532,6,0,P|322:205|344:227,1,67.5000025749208,0|2,0:0|0:0,0:0:0:0:
372,268,53840,1,2,0:0:0:0:
380,260,53994,2,0,P|410:247|456:254,1,78.3000006571198,2|0,0:0|0:0,0:0:0:0:
365,343,54302,2,0,P|334:355|290:350,1,78.3000006571198,2|2,0:0|0:0,0:0:0:0:
236,302,54532,1,2,0:0:0:0:
228,310,54609,6,0,L|68:314,1,135.000005149842,0|0,3:0|0:0,0:0:0:0:
37,262,54917,2,0,P|29:231|48:191,1,56.25,8|0,3:0|0:0,0:0:0:0:
44,256,55071,2,0,B|37:162|37:162|64:112,1,135,0|0,3:0|0:0,0:0:0:0:
35,56,55379,2,0,P|111:104|166:71,1,135,0|0,3:0|0:0,0:0:0:0:
105,29,55686,1,8,3:0:0:0:
112,36,55994,6,0,L|248:32,1,135,0|0,3:0|0:0,0:0:0:0:
304,80,56302,2,0,L|296:152,1,45,8|0,3:0|0:0,0:0:0:0:
312,92,56456,2,0,P|359:76|414:107,1,90,0|0,3:0|3:0,0:0:0:0:
460,52,56763,1,8,3:0:0:0:
468,60,57071,6,0,L|456:228,1,135,0|0,3:0|0:0,0:0:0:0:
404,248,57379,2,0,P|415:285|402:326,1,56.25,8|0,3:0|0:0,0:0:0:0:
396,240,57532,2,0,L|404:388,1,135,0|0,3:0|0:0,0:0:0:0:
471,347,57840,2,0,P|429:308|339:343,1,135,0|0,3:0|0:0,0:0:0:0:
296,364,58148,1,8,3:0:0:0:
292,356,58456,6,0,L|226:351,1,45,0|0,3:0|0:0,0:0:0:0:
240,344,58609,2,0,L|119:337,1,90,8|0,3:0|3:0,0:0:0:0:
16,284,58917,2,0,L|136:273,1,90,8|0,3:0|3:0,0:0:0:0:
159,224,59225,2,0,P|173:182|158:140,1,90,0|8,3:0|3:0,0:0:0:0:
98,186,59532,6,0,L|104:16,1,135,0|0,3:0|0:0,0:0:0:0:
32,14,59840,2,0,P|21:46|43:96,1,56.25,8|0,3:0|3:0,0:0:0:0:
38,22,59994,2,0,L|195:19,1,135,0|0,3:0|0:0,0:0:0:0:
232,68,60302,2,0,P|260:112|363:97,1,135,0|0,3:0|0:0,0:0:0:0:
306,52,60609,1,8,3:0:0:0:
312,44,60917,6,0,L|460:48,1,135,0|0,3:0|0:0,0:0:0:0:
500,110,61225,2,0,L|493:183,1,45,8|0,3:0|0:0,0:0:0:0:
508,118,61379,2,0,L|383:129,1,90,0|0,3:0|3:0,0:0:0:0:
363,178,61686,2,0,P|383:229|352:285,1,90,8|0,3:0|3:0,0:0:0:0:
308,228,61994,5,0,3:0:0:0:
324,368,62148,1,8,3:0:0:0:
324,368,62302,1,0,3:0:0:0:
387,333,62456,2,0,L|484:337,2,90,0|8|0,3:0|3:0|3:0,0:0:0:0:
324,282,62917,1,0,3:0:0:0:
192,360,63071,1,8,3:0:0:0:
192,360,63225,6,0,L|119:363,1,45,0|0,3:0|3:0,0:0:0:0:
139,355,63379,2,0,L|20:361,2,90,8|0|0,3:0|3:0|3:0,0:0:0:0:
244,300,63840,1,8,3:0:0:0:
40,240,63994,2,0,L|36:296,1,45,0|0,3:0|3:0,0:0:0:0:
48,232,64148,2,0,L|47:167,1,45,8|0,3:0|0:0,0:0:0:0:
96,132,64302,2,8,L|95:91,2,22.5,8|8|8,3:0|3:0|3:0,0:0:0:0:
43,56,64456,5,4,3:0:0:0:
276,332,73686,6,0,L|368:328,1,90
374,335,74302,6,0,P|394:287|360:215,1,135.000005149842,0|0,0:0|0:0,0:0:0:0:
292,184,74763,2,0,L|445:174,2,135.000005149842,0|0|0,0:0|0:0|0:0,0:0:0:0:
284,176,75686,2,0,P|276:142|300:86,1,67.5000025749208,0|0,0:0|0:0,0:0:0:0:
332,52,75994,1,0,0:0:0:0:
340,60,76302,2,0,P|380:64|416:48,2,67.5000025749208,0|0|0,0:0|0:0|0:0,0:0:0:0:
269,15,76763,6,0,P|206:7|136:64,1,135.000005149842,0|0,0:0|0:0,0:0:0:0:
75,26,77225,2,0,L|67:178,1,135.000005149842,0|0,0:0|0:0,0:0:0:0:
19,217,77686,1,0,0:0:0:0:
71,273,77840,1,0,0:0:0:0:
80,264,78148,2,0,P|124:264|157:294,1,67.5000025749208,0|0,0:0|0:0,0:0:0:0:
184,340,78456,1,0,0:0:0:0:
192,332,78763,2,0,P|225:340|272:322,2,67.5000025749208,0|0|0,0:0|0:0|0:0,0:0:0:0:
225,266,79225,6,0,L|233:127,1,135.000005149842,0|0,0:0|0:0,0:0:0:0:
172,92,79686,2,0,P|224:59|300:108,1,135.000005149842,0|0,0:0|0:0,0:0:0:0:
296,76,80302,2,0,L|432:72,1,135.000005149842
440,64,80917,2,0,P|424:120|480:180,1,135.000005149842
493,247,81379,2,0,L|489:327,1,67.5000025749208,0|0,0:0|0:0,0:0:0:0:
440,372,81686,5,0,0:0:0:0:
378,329,81840,1,0,0:0:0:0:
305,323,81993,1,0,0:0:0:0:
238,354,82148,1,0,0:0:0:0:
232,344,82456,2,0,P|219:313|234:264,1,67.5000025749208
276,228,82763,1,0,0:0:0:0:
268,216,83071,6,0,P|226:202|178:220,1,67.5000025749208
149,259,83379,1,0,0:0:0:0:
78,241,83532,6,0,P|59:246|34:242,3,33.7500012874604
108,177,83840,2,0,P|124:172|140:173,3,33.7500012874604
36,144,84148,6,0,P|80:80|60:8,1,148.50000453186,0|0,3:0|0:0,0:0:0:0:
162,27,84456,2,0,P|212:17|254:31,1,49.5000015106202,8|0,3:0|0:0,0:0:0:0:
152,36,84609,2,0,L|172:204,1,148.50000453186,0|0,3:0|0:0,0:0:0:0:
240,136,84917,2,0,P|264:134|287:125,1,49.5000015106202,8|0,3:0|0:0,0:0:0:0:
104,228,85071,1,0,0:0:0:0:
192,348,85225,1,0,3:0:0:0:
193,323,85301,1,0,0:0:0:0:
195,298,85379,5,0,0:0:0:0:
340,288,85532,1,0,3:0:0:0:
198,278,85686,2,0,L|258:272,1,49.5000015106202,8|0,3:0|0:0,0:0:0:0:
301,223,85840,1,0,3:0:0:0:
472,204,85994,1,0,3:0:0:0:
292,212,86148,2,0,L|352:206,1,49.5000015106202,8|0,3:0|0:0,0:0:0:0:
400,168,86302,2,0,P|395:114|450:69,1,99.0000030212403,0|0,0:0|3:0,0:0:0:0:
272,24,86609,6,0,P|244:88|156:97,1,148.50000453186,0|0,0:0|0:0,0:0:0:0:
194,190,86917,2,0,P|206:230|182:266,1,49.5000015106202,8|0,3:0|0:0,0:0:0:0:
184,180,87071,2,0,L|36:172,1,148.50000453186,0|0,3:0|0:0,0:0:0:0:
59,97,87379,2,0,P|47:57|71:21,1,49.5000015106202,8|0,3:0|0:0,0:0:0:0:
52,248,87532,1,0,3:0:0:0:
141,103,87686,1,0,3:0:0:0:
133,252,87840,5,0,0:0:0:0:
278,259,87994,1,0,3:0:0:0:
145,321,88148,2,0,L|143:376,1,49.5000015106202,8|0,3:0|0:0,0:0:0:0:
290,328,88302,1,0,3:0:0:0:
264,187,88456,2,0,L|330:177,1,49.5000015106202,8|0,3:0|0:0,0:0:0:0:
375,242,88609,1,0,3:0:0:0:
380,266,88685,1,0,0:0:0:0:
384,290,88763,2,0,L|450:279,1,49.5000015106202,8|0,3:0|0:0,0:0:0:0:
504,272,88917,1,0,3:0:0:0:
428,180,89071,6,0,P|416:104|488:24,1,148.50000453186
348,60,89379,2,0,P|345:92|305:125,1,49.5000015106202,8|0,3:0|0:0,0:0:0:0:
337,50,89532,2,0,L|164:41,1,148.50000453186,0|0,3:0|0:0,0:0:0:0:
119,47,89840,2,0,P|121:14|162:-18,1,49.5000015106202,8|0,3:0|0:0,0:0:0:0:
163,109,89994,1,0,0:0:0:0:
17,117,90148,1,0,3:0:0:0:
127,180,90302,5,0,0:0:0:0:
273,172,90456,1,0,3:0:0:0:
32,250,90609,2,0,L|127:245,1,49.5000015106202,8|0,3:0|0:0,0:0:0:0:
178,242,90763,1,0,3:0:0:0:
139,310,90917,5,0,3:0:0:0:
285,302,91071,2,0,L|380:297,1,49.5000015106202,8|0,3:0|0:0,0:0:0:0:
194,372,91225,1,0,0:0:0:0:
48,380,91379,1,0,3:0:0:0:
285,302,91532,6,0,L|380:297,3,49.5000015106202,0|0|0|0,0:0|0:0|3:0|0:0,0:0:0:0:
392,345,91840,2,0,L|487:350,3,49.5000015106202,8|0|0|0,3:0|0:0|3:0|0:0,0:0:0:0:
504,308,92148,5,0,0:0:0:0:
485,291,92224,1,0,0:0:0:0:
470,271,92301,1,0,3:0:0:0:
459,249,92378,1,0,0:0:0:0:
452,226,92455,1,0,3:0:0:0:
449,201,92532,1,0,0:0:0:0:
451,177,92609,1,8,3:0:0:0:
457,153,92686,1,0,0:0:0:0:
468,128,92763,6,0,L|464:68,3,49.5000015106202,0|0|0|0,0:0|0:0|3:0|0:0,0:0:0:0:
396,24,93071,2,0,L|392:73,3,49.5000015106202,8|0|0|0,3:0|0:0|3:0|0:0,0:0:0:0:
344,128,93379,2,0,L|264:120,1,49.5000015106202,8|0,3:0|0:0,0:0:0:0:
284,112,93532,2,0,L|204:104,1,49.5000015106202,0|0,3:0|0:0,0:0:0:0:
132,56,93686,2,0,L|212:48,1,49.5000015106202,8|0,3:0|0:0,0:0:0:0:
192,40,93840,2,0,L|246:33,1,49.5000015106202,0|0,3:0|0:0,0:0:0:0:
61,101,93994,6,0,P|117:161|105:234,1,148.50000453186,0|0,3:0|0:0,0:0:0:0:
38,281,94302,2,0,P|28:319|44:363,1,49.5000015106202,8|0,3:0|0:0,0:0:0:0:
46,270,94456,2,0,L|224:260,1,148.50000453186,0|0,3:0|0:0,0:0:0:0:
248,212,94763,2,0,P|258:174|242:130,1,49.5000015106202,8|0,3:0|0:0,0:0:0:0:
254,310,94917,1,0,0:0:0:0:
376,252,95071,1,0,3:0:0:0:
400,250,95147,1,0,0:0:0:0:
425,249,95224,5,0,0:0:0:0:
431,347,95379,1,0,3:0:0:0:
501,205,95532,1,8,3:0:0:0:
496,108,95687,1,0,3:0:0:0:
416,59,95840,5,0,3:0:0:0:
421,156,95994,2,0,L|363:160,1,49.5000015106202,8|0,3:0|0:0,0:0:0:0:
360,152,96148,2,0,L|296:156,3,49.5000015106202,0|0|0|0,0:0|0:0|3:0|0:0,0:0:0:0:
260,104,96456,6,0,L|196:100,3,49.5000015106202,0|0|0|0,0:0|0:0|3:0|0:0,0:0:0:0:
168,40,96763,1,8,3:0:0:0:
145,66,96839,1,0,0:0:0:0:
116,83,96916,1,0,3:0:0:0:
82,89,96993,1,0,0:0:0:0:
48,83,97071,6,0,L|52:168,3,49.5000015106202,8|0|0|0,3:0|0:0|3:0|0:0,0:0:0:0:
112,180,97379,1,8,3:0:0:0:
93,209,97455,1,0,0:0:0:0:
87,243,97532,1,0,3:0:0:0:
95,276,97609,1,0,0:0:0:0:
114,305,97686,6,0,L|208:308,1,58.4999973220826,8|0,3:0|0:0,0:0:0:0:
310,253,97840,2,0,L|252:252,1,58.4999973220826,8|0,3:0|0:0,0:0:0:0:
40,360,98148,5,8,3:0:0:0:
256,20,98456,1,8,3:0:0:0:
472,360,98763,1,8,3:0:0:0:
408,272,98917,6,0,L|411:235,5,33.0000010070801,0|0|0|0|0|0,0:0|0:0|0:0|0:0|0:0|0:0,0:0:0:0:
405,229,99225,6,0,L|412:137,1,49.5000015106202,8|0,3:0|0:0,0:0:0:0:
473,128,99379,2,0,P|401:92|377:-4,1,148.50000453186,0|0,3:0|0:0,0:0:0:0:
301,64,99686,2,0,L|237:64,1,49.5000015106202,8|0,3:0|0:0,0:0:0:0:
310,72,99840,2,0,L|304:192,1,99.0000030212403,0|0,0:0|3:0,0:0:0:0:
204,124,100148,5,0,0:0:0:0:
40,131,100302,1,0,3:0:0:0:
41,106,100378,1,0,0:0:0:0:
42,81,100456,2,0,L|168:75,1,99.0000030212403,8|0,3:0|3:0,0:0:0:0:
145,187,100686,1,0,0:0:0:0:
137,197,100763,2,8,L|39:202,1,99.0000030212403,8|0,3:0|3:0,0:0:0:0:
27,311,100994,1,0,0:0:0:0:
35,322,101071,2,0,L|134:318,1,99.0000030212403,8|0,3:0|3:0,0:0:0:0:
254,375,101379,5,8,3:0:0:0:
270,339,101455,1,0,0:0:0:0:
300,313,101532,1,0,3:0:0:0:
338,303,101609,1,0,0:0:0:0:
376,310,101686,1,8,3:0:0:0:
408,333,101763,1,0,0:0:0:0:
444,318,101839,1,0,3:0:0:0:
474,292,101916,1,0,0:0:0:0:
492,257,101993,5,8,3:0:0:0:
496,218,102070,1,0,3:0:0:0:
487,180,102147,1,8,3:0:0:0:
464,147,102224,1,0,3:0:0:0:
432,124,102302,2,0,L|368:128,3,49.5000015106202,8|0|8|0,3:0|3:0|3:0|3:0,0:0:0:0:
304,36,102609,5,8,3:0:0:0:
339,70,102685,1,0,3:0:0:0:
356,116,102762,1,8,3:0:0:0:
348,165,102839,1,0,3:0:0:0:
318,204,102917,2,0,L|325:278,3,49.5000015106202,8|0|8|0,3:0|3:0|3:0|3:0,0:0:0:0:
398,311,103225,5,8,3:0:0:0:
359,340,103301,1,8,3:0:0:0:
311,346,103378,1,8,3:0:0:0:
265,327,103455,1,8,3:0:0:0:
235,289,103532,1,8,3:0:0:0:
205,251,103609,1,8,3:0:0:0:
159,232,103686,1,8,3:0:0:0:
111,238,103763,1,8,3:0:0:0:
71,268,103839,5,4,3:0:0:0:
44,160,108763,6,0,P|93:122|181:157,1,135.000005149842,0|2,0:0|0:0,0:0:0:0:
168,144,109379,2,0,L|240:148,1,67.5000025749208,2|2,0:0|0:0,0:0:0:0:
242,141,109840,2,0,P|287:90|266:23,1,135.000005149842,2|0,0:0|0:0,0:0:0:0:
214,73,110302,1,2,0:0:0:0:
208,64,110609,2,0,L|137:66,1,67.5000025749208,2|0,0:0|0:0,0:0:0:0:
80,112,110917,2,0,P|89:144|69:188,1,67.5000025749208,2|2,0:0|0:0,0:0:0:0:
72,184,111379,6,0,P|60:232|84:271,1,67.5000025749208,0|2,0:0|0:0,0:0:0:0:
71,256,111840,2,0,P|107:247|153:261,1,67.5000025749208,2|0,0:0|0:0,0:0:0:0:
195,300,112148,2,0,P|228:305|260:296,1,67.5000025749208,2|2,0:0|0:0,0:0:0:0:
315,352,112456,1,0,0:0:0:0:
383,316,112609,2,0,P|387:280|375:240,1,67.5000025749208,0|2,0:0|0:0,0:0:0:0:
371,243,113071,2,0,P|336:252|284:234,1,67.5000025749208,2|0,0:0|0:0,0:0:0:0:
427,190,113379,2,0,P|462:183|495:191,1,67.5000025749208,2|6,0:0|0:0,0:0:0:0:
