osu file format v14

[General]
AudioFilename: audio.mp3
AudioLeadIn: 0
PreviewTime: 83506
Countdown: 0
SampleSet: Soft
StackLeniency: 0.4
Mode: 0
LetterboxInBreaks: 0
WidescreenStoryboard: 1

[Editor]
Bookmarks: 10276,20122,22583,42276,44737,54583,62276,64430,74276,84122,103814,113660
DistanceSpacing: 1.1
BeatDivisor: 6
GridSize: 8
TimelineZoom: 3.4

[Metadata]
Title:Altros
TitleUnicode:Altros
Artist:ARForest
ArtistUnicode:ARForest
Creator:Down
Version:Taeyang's Extra
Source:
Tags:omc ofc contest helloscv dailycare milr_ [_white_music_] len fast cellina reana taeyang
BeatmapID:1398848
BeatmapSetID:658433

[Difficulty]
HPDrainRate:5
CircleSize:4.7
OverallDifficulty:9
ApproachRate:9.7
SliderMultiplier:2
SliderTickRate:1

[Events]
//Background and Video events
0,0,"bg.jpg",0,0
//Break Periods
//Storyboard Layer 0 (Background)
//Storyboard Layer 1 (Fail)
//Storyboard Layer 2 (Pass)
//Storyboard Layer 3 (Foreground)
//Storyboard Sound Samples

[TimingPoints]
456,307.692307692308,4,2,39,20,1,0
456,-166.666666666667,4,2,39,20,0,0
5379,-142.857142857143,4,2,30,25,0,0
10302,-111.111111111111,4,2,32,50,0,0
10379,-111.111111111111,4,2,32,40,0,0
10532,-111.111111111111,4,2,32,5,0,0
10609,-125,4,2,32,40,0,0
11532,-100,4,2,32,40,0,0
11763,-100,4,2,32,5,0,0
11840,-125,4,2,32,40,0,0
12763,-111.111111111111,4,2,32,40,0,0
12994,-111.111111111111,4,2,32,5,0,0
13071,-125,4,2,32,40,0,0
13994,-100,4,2,32,40,0,0
14225,-100,4,2,32,5,0,0
14302,-125,4,2,32,40,0,0
15225,-111.111111111111,4,2,32,40,0,0
15456,-111.111111111111,4,2,32,5,0,0
15532,-125,4,2,32,40,0,0
16456,-100,4,2,32,40,0,0
16686,-100,4,2,32,5,0,0
16763,-125,4,2,32,40,0,0
17686,-111.111111111111,4,2,32,40,0,0
17917,-111.111111111111,4,2,32,5,0,0
17994,-125,4,2,32,40,0,0
20148,-400,4,2,32,50,0,0
20225,-400,4,2,32,5,0,0
21379,-125,4,2,39,30,0,0
22302,-125,4,2,32,50,0,0
22609,-100,4,2,30,60,0,0
42302,-400,4,2,32,70,0,0
42379,-400,4,2,30,5,0,0
44763,-83.3333333333333,4,2,30,40,0,0
45532,-166.666666666667,4,2,30,20,0,0
45571,-166.666666666667,4,2,30,5,0,0
45686,-166.666666666667,4,2,30,20,0,0
45725,-166.666666666667,4,2,30,5,0,0
45840,-166.666666666667,4,2,30,20,0,0
45879,-166.666666666667,4,2,30,5,0,0
46148,-166.666666666667,4,2,30,20,0,0
46186,-166.666666666667,4,2,30,5,0,0
46302,-166.666666666667,4,2,30,20,0,0
46340,-166.666666666667,4,2,30,5,0,0
46609,-166.666666666667,4,2,30,20,0,0
46648,-166.666666666667,4,2,30,5,0,0
46917,-166.666666666667,4,2,30,20,0,0
46956,-166.666666666667,4,2,30,5,0,0
47225,-83.3333333333333,4,2,30,40,0,0
47994,-166.666666666667,4,2,30,20,0,0
48032,-166.666666666667,4,2,30,5,0,0
48148,-166.666666666667,4,2,30,20,0,0
48186,-166.666666666667,4,2,30,5,0,0
48302,-166.666666666667,4,2,30,20,0,0
48340,-166.666666666667,4,2,30,5,0,0
48609,-166.666666666667,4,2,30,20,0,0
48648,-166.666666666667,4,2,30,5,0,0
48763,-166.666666666667,4,2,30,20,0,0
48802,-166.666666666667,4,2,30,5,0,0
49071,-166.666666666667,4,2,30,20,0,0
49109,-166.666666666667,4,2,30,5,0,0
49225,-166.666666666667,4,2,30,20,0,0
49263,-166.666666666667,4,2,30,5,0,0
49379,-166.666666666667,4,2,30,20,0,0
49417,-166.666666666667,4,2,30,5,0,0
49532,-166.666666666667,4,2,30,20,0,0
49571,-166.666666666667,4,2,30,5,0,0
49686,-125,4,2,30,40,0,0
50456,-166.666666666667,4,2,30,20,0,0
50494,-166.666666666667,4,2,30,5,0,0
50609,-166.666666666667,4,2,30,20,0,0
50648,-166.666666666667,4,2,30,5,0,0
50763,-166.666666666667,4,2,30,20,0,0
50802,-166.666666666667,4,2,30,5,0,0
51071,-166.666666666667,4,2,30,20,0,0
51109,-166.666666666667,4,2,30,5,0,0
51225,-166.666666666667,4,2,30,20,0,0
51263,-166.666666666667,4,2,30,5,0,0
51532,-166.666666666667,4,2,30,20,0,0
51571,-166.666666666667,4,2,30,5,0,0
51686,-166.666666666667,4,2,30,20,0,0
51725,-166.666666666667,4,2,30,5,0,0
51840,-166.666666666667,4,2,30,20,0,0
51879,-166.666666666667,4,2,30,5,0,0
51994,-166.666666666667,4,2,30,20,0,0
52032,-166.666666666667,4,2,30,5,0,0
52148,-83.3333333333333,4,2,30,30,0,0
52609,-83.3333333333333,4,2,30,40,0,0
52917,-166.666666666667,4,2,30,20,0,0
52956,-166.666666666667,4,2,30,5,0,0
53071,-166.666666666667,4,2,30,20,0,0
53109,-166.666666666667,4,2,30,5,0,0
53225,-166.666666666667,4,2,30,20,0,0
53263,-166.666666666667,4,2,30,5,0,0
53532,-166.666666666667,4,2,30,20,0,0
53571,-166.666666666667,4,2,30,5,0,0
53686,-166.666666666667,4,2,30,20,0,0
53725,-166.666666666667,4,2,30,5,0,0
53840,-166.666666666667,4,2,30,20,0,0
53879,-166.666666666667,4,2,30,5,0,0
53994,-166.666666666667,4,2,30,20,0,0
54032,-166.666666666667,4,2,30,5,0,0
54148,-166.666666666667,4,2,30,20,0,0
54186,-166.666666666667,4,2,30,5,0,0
54302,-166.666666666667,4,2,30,20,0,0
54340,-166.666666666667,4,2,30,5,0,0
54456,-166.666666666667,4,2,30,20,0,0
54494,-166.666666666667,4,2,30,5,0,0
54609,-100,4,2,30,50,0,0
61994,-100,4,2,30,60,0,0
64148,-100,4,2,30,70,0,0
64456,-200,4,2,32,30,0,0
66840,-200,4,2,30,5,0,0
66917,-200,4,2,30,20,0,0
69302,-200,4,2,30,5,0,0
69379,-200,4,2,30,20,0,0
71763,-200,4,2,30,5,0,0
71840,-200,4,2,30,20,0,0
72994,-200,4,2,30,5,0,0
73071,-200,4,2,30,20,0,0
73609,-200,4,2,30,5,0,0
73686,-200,4,2,39,20,0,0
73994,-100,4,2,39,40,0,0
74148,-200,4,2,39,5,0,0
74302,-166.666666666667,4,2,39,30,0,0
82917,-125,4,2,39,50,0,0
83225,-100,4,2,39,60,0,0
83532,-90.9090909090909,4,2,39,70,0,0
84148,-83.3333333333333,4,2,30,80,0,1
93917,-83.3333333333333,4,2,30,80,0,0
93994,-83.3333333333333,4,2,30,80,0,1
102609,-71.4285714285714,4,2,30,90,0,1
103225,-71.4285714285714,4,2,30,100,0,1
103840,-166.666666666667,4,2,30,100,0,0
103917,-166.666666666667,4,2,30,25,0,0
108763,-166.666666666667,4,2,30,20,0,0

[Colours]
Combo1 : 63,183,222
Combo2 : 123,123,123
Combo3 : 225,225,225
Combo4 : 232,197,89
Combo5 : 158,92,75
Combo6 : 234,62,66
SliderTrackOverride : 40,40,40

[HitObjects]
160,170,456,5,2,0:0:0:0:
190,252,609,2,0,P|220:259|250:256,1,59.9999981689454
336,210,917,1,0,0:0:0:0:
347,129,1071,2,0,L|340:188,1,59.9999981689454
441,262,1379,2,0,L|434:202,1,59.9999981689454,2|0,0:0|0:0,0:0:0:0:
351,107,1686,5,2,0:0:0:0:
357,287,1840,1,0,0:0:0:0:
419,194,1994,1,0,0:0:0:0:
247,145,2148,1,0,0:0:0:0:
247,145,2302,2,0,L|183:151,1,59.9999981689454
108,242,2609,2,0,L|172:248,1,59.9999981689454,2|0,0:0|0:0,0:0:0:0:
53,166,2917,69,2,0:0:0:0:
96,259,3071,2,0,L|160:265,1,59.9999981689454
247,145,3379,1,0,0:0:0:0:
181,105,3532,2,0,P|169:132|171:162,1,59.9999981689454
229,281,3840,2,0,P|230:251|219:223,1,59.9999981689454,2|0,0:0|0:0,0:0:0:0:
53,166,4148,5,2,0:0:0:0:
84,276,4302,1,0,0:0:0:0:
84,276,4456,2,0,L|143:281,1,59.9999981689454
335,301,4763,1,0,0:0:0:0:
335,301,4917,1,0,0:0:0:0:
296,213,5071,1,0,0:0:0:0:
278,379,5225,1,0,0:0:0:0:
434,312,5379,70,0,L|426:242,1,69.9999978637696,2|0,0:0|0:0,0:0:0:0:
410,102,5686,1,8,0:0:0:0:
423,218,5840,1,2,0:0:0:0:
454,39,5994,2,0,P|423:23|388:27,1,69.9999978637696,8|0,0:0|0:0,0:0:0:0:
290,122,6302,2,0,P|259:137|224:133,1,69.9999978637696,2|0,0:0|0:0,0:0:0:0:
87,38,6609,5,8,0:0:0:0:
245,60,6763,1,0,0:0:0:0:
155,167,6917,2,0,P|146:133|154:99,1,69.9999978637696,2|8,0:0|0:0,0:0:0:0:
263,211,7225,1,8,0:0:0:0:
67,247,7379,37,0,0:0:0:0:
225,134,7532,1,2,0:0:0:0:
243,327,7686,1,0,0:0:0:0:
405,279,7840,22,0,P|371:268|336:266,1,69.9999978637696,2|0,0:0|0:0,0:0:0:0:
407,365,8148,1,8,0:0:0:0:
403,193,8302,1,0,0:0:0:0:
272,224,8456,1,8,0:0:0:0:
272,224,8609,2,0,P|258:256|263:290,1,69.9999978637696,0|2,0:0|0:0,0:0:0:0:
479,320,8917,1,8,0:0:0:0:
403,193,9071,5,2,0:0:0:0:
476,118,9225,1,8,0:0:0:0:
325,44,9379,1,2,0:0:0:0:
310,147,9532,1,2,0:0:0:0:
311,164,9608,1,2,0:0:0:0:
313,181,9685,69,8,0:0:0:0:
427,26,9840,1,2,0:0:0:0:
427,26,9917,1,2,0:0:0:0:
427,26,9994,1,2,0:0:0:0:
225,69,10148,2,0,L|227:110,1,34.9999989318848,8|8,0:0|0:0,0:0:0:0:
210,53,10302,54,0,L|217:187,1,134.999995880127,6|0,0:0|0:0,0:0:0:0:
186,257,10609,6,0,P|165:260|146:257,1,40
169,277,10763,2,0,P|149:275|130:267,1,40
260,287,10917,2,0,P|184:305|113:272,1,160,8|0,0:0|0:0,0:0:0:0:
70,128,11379,1,0,0:0:0:0:
212,68,11532,38,2,B|249:67|283:86|283:86|251:108|210:99,1,150,2|0,0:0|0:0,0:0:0:0:
139,52,11840,6,0,P|118:48|99:51,1,40,2|0,0:0|0:0,0:0:0:0:
122,32,11994,2,0,P|102:33|83:41,1,40
43,121,12148,2,0,B|48:182|48:182|29:211|29:211|34:275,1,160,8|0,0:0|0:0,0:0:0:0:
168,303,12609,1,0,0:0:0:0:
37,359,12763,6,0,B|76:355|95:330|95:330|107:363|140:376,1,134.999995880127,2|0,0:0|0:0,0:0:0:0:
236,371,13071,6,0,L|244:314,1,40
252,363,13225,2,0,L|257:323,1,40
267,197,13379,2,0,B|278:225|300:238|300:238|194:225,1,160,8|0,0:0|0:0,0:0:0:0:
341,172,13840,1,0,0:0:0:0:
408,310,13994,38,2,P|366:353|360:293,1,150,2|0,0:0|0:0,0:0:0:0:
418,219,14302,6,0,P|427:199|429:180,1,40,2|0,0:0|0:0,0:0:0:0:
441,207,14456,2,0,P|445:187|442:166,1,40
387,101,14609,2,0,B|346:80|308:95|308:95|270:113|232:92,1,160,8|0,0:0|0:0,0:0:0:0:
379,10,15071,1,0,0:0:0:0:
187,28,15225,6,0,P|153:85|175:146,1,134.999995880127,2|0,0:0|0:0,0:0:0:0:
246,245,15532,6,0,P|228:236|208:233,1,40
235,222,15686,2,0,P|215:217|195:220,1,40
129,276,15840,2,0,B|114:298|114:298|91:247|94:191|94:191|115:203,1,160,8|0,0:0|0:0,0:0:0:0:
208,315,16302,1,0,0:0:0:0:
112,376,16456,38,2,B|6:359|6:359|44:340,1,150,2|0,0:0|0:0,0:0:0:0:
129,276,16763,6,0,P|137:257|139:238,1,40,2|0,0:0|0:0,0:0:0:0:
151,264,16917,2,0,P|154:244|151:224,1,40
122,130,17071,2,0,B|94:157|94:157|154:144|154:144|211:159,1,160,8|0,0:0|0:0,0:0:0:0:
357,224,17532,1,0,0:0:0:0:
281,123,17686,6,0,B|300:154|285:190|285:190|271:226|285:253,1,134.999995880127,2|0,0:0|0:0,0:0:0:0:
344,317,17994,6,0,L|383:313,1,40
328,334,18148,2,0,L|367:330,1,40
488,325,18302,2,0,B|474:357|474:357|448:297|465:232,1,160,8|0,0:0|0:0,0:0:0:0:
497,61,18763,1,0,0:0:0:0:
357,131,18917,37,0,0:0:0:0:
357,131,19071,2,0,P|317:136|280:122,1,80,0|2,0:0|0:0,0:0:0:0:
161,26,19379,1,0,0:0:0:0:
53,82,19532,2,0,L|59:161,1,80,8|0,0:0|0:0,0:0:0:0:
73,276,19840,1,2,0:0:0:0:
69,305,19917,1,0,0:0:0:0:
39,310,19994,1,0,0:0:0:0:
26,284,20071,1,0,0:0:0:0:
47,262,20148,22,0,B|80:242|132:265|132:265|179:284|214:258,1,175,6|0,0:0|0:0,0:0:0:0:
280,206,21379,22,0,L|287:116,1,80,2|8,0:0|0:0,0:0:0:0:
321,52,21609,1,8,0:0:0:0:
334,58,21686,6,0,P|349:72|359:90,1,40,8|8,0:0|0:0,0:0:0:0:
204,116,21840,2,0,P|208:96|219:80,1,40,8|8,0:0|0:0,0:0:0:0:
340,183,21994,1,0,0:0:0:0:
330,192,22071,1,0,0:0:0:0:
318,200,22148,2,0,P|299:206|280:206,1,40
204,116,22302,1,8,0:0:0:0:
172,91,22379,1,8,0:0:0:0:
134,79,22455,1,8,0:0:0:0:
94,81,22532,1,8,0:0:0:0:
58,96,22609,5,6,0:0:0:0:
18,298,22763,1,2,0:0:0:0:
173,125,22917,2,0,P|127:105|79:116,1,100,8|0,0:0|0:0,0:0:0:0:
179,262,23225,1,2,0:0:0:0:
286,126,23379,1,8,0:0:0:0:
120,187,23532,1,0,0:0:0:0:
181,353,23686,1,2,0:0:0:0:
181,353,23762,1,0,0:0:0:0:
181,353,23840,5,0,0:0:0:0:
347,292,23994,1,2,0:0:0:0:
286,126,24148,1,8,0:0:0:0:
256,294,24302,1,2,0:0:0:0:
403,347,24456,2,0,P|424:302|414:254,1,100,0|2,0:0|0:0,0:0:0:0:
341,184,24686,1,0,0:0:0:0:
341,184,24763,2,0,P|296:205|248:195,1,100,8|0,0:0|0:0,0:0:0:0:
108,100,25071,5,2,0:0:0:0:
179,262,25225,1,2,0:0:0:0:
242,13,25379,1,8,0:0:0:0:
28,142,25532,1,2,0:0:0:0:
28,142,25609,1,0,0:0:0:0:
28,142,25686,2,0,L|38:251,1,100,0|8,0:0|0:0,0:0:0:0:
181,353,25994,1,0,0:0:0:0:
286,126,26148,1,2,0:0:0:0:
120,187,26302,5,0,0:0:0:0:
264,303,26456,1,2,0:0:0:0:
275,298,26533,1,2,0:0:0:0:
287,293,26610,2,0,L|290:243,1,50,8|0,0:0|0:0,0:0:0:0:
408,151,26763,2,0,L|411:200,1,50,2|0,0:0|0:0,0:0:0:0:
243,186,26917,2,0,P|283:168|340:188,1,100,8|0,0:0|0:0,0:0:0:0:
464,264,27148,1,2,0:0:0:0:
485,252,27225,2,0,L|494:152,1,100,2|8,0:0|0:0,0:0:0:0:
283,46,27532,37,6,0:0:0:0:
361,258,27686,1,2,0:0:0:0:
457,80,27840,2,0,B|407:66|407:66|361:82,1,100,8|0,0:0|0:0,0:0:0:0:
158,126,28148,1,2,0:0:0:0:
408,151,28302,1,8,0:0:0:0:
174,46,28456,1,0,0:0:0:0:
201,302,28609,1,2,0:0:0:0:
201,302,28686,1,0,0:0:0:0:
201,302,28763,5,0,0:0:0:0:
334,183,28917,1,2,0:0:0:0:
91,87,29071,2,0,P|80:135|102:179,1,100,8|2,0:0|0:0,0:0:0:0:
345,275,29379,1,0,0:0:0:0:
383,55,29532,1,2,0:0:0:0:
386,30,29609,1,0,0:0:0:0:
390,5,29685,1,8,0:0:0:0:
158,126,29840,1,2,0:0:0:0:
402,223,29994,5,6,0:0:0:0:
257,359,30148,1,2,0:0:0:0:
236,100,30302,1,8,0:0:0:0:
467,185,30456,2,0,P|479:232|457:276,1,100,2|0,0:0|0:0,0:0:0:0:
388,308,30686,1,2,0:0:0:0:
363,306,30763,2,0,L|300:301,1,50,8|0,0:0|0:0,0:0:0:0:
245,184,30917,1,2,0:0:0:0:
269,182,30993,1,2,0:0:0:0:
294,180,31070,1,2,0:0:0:0:
205,289,31225,5,12,0:0:0:0:
361,225,31379,1,2,0:0:0:0:
368,211,31456,1,0,0:0:0:0:
370,197,31532,2,0,P|374:173|366:150,1,50,8|0,0:0|0:0,0:0:0:0:
276,49,31687,37,2,0:0:0:0:
228,41,31763,1,2,0:0:0:0:
177,39,31841,2,0,P|152:40|127:45,1,50,12|0,0:0|0:0,0:0:0:0:
50,223,31994,5,2,0:0:0:0:
88,235,32071,1,2,0:0:0:0:
127,228,32148,1,2,0:0:0:0:
170,203,32225,1,2,0:0:0:0:
219,198,32301,1,8,0:0:0:0:
265,216,32378,1,8,0:0:0:0:
300,251,32456,5,6,0:0:0:0:
37,349,32609,1,2,0:0:0:0:
99,147,32763,2,0,B|123:123|123:123|188:127,1,100,8|0,0:0|0:0,0:0:0:0:
353,320,33071,1,2,0:0:0:0:
369,58,33225,1,8,0:0:0:0:
265,216,33379,1,0,0:0:0:0:
406,381,33532,1,2,0:0:0:0:
406,381,33609,1,0,0:0:0:0:
406,381,33686,5,0,0:0:0:0:
361,225,33840,1,2,0:0:0:0:
205,289,33994,1,8,0:0:0:0:
446,191,34148,1,2,0:0:0:0:
314,4,34302,2,0,P|291:47|302:95,1,100,0|2,0:0|0:0,0:0:0:0:
361,225,34532,1,0,0:0:0:0:
361,225,34609,2,0,B|339:247|339:247|270:240,1,100,8|0,0:0|0:0,0:0:0:0:
128,144,34917,37,2,0:0:0:0:
193,306,35071,1,2,0:0:0:0:
301,94,35225,1,8,0:0:0:0:
61,112,35379,1,2,0:0:0:0:
61,112,35456,1,0,0:0:0:0:
61,112,35532,2,0,P|52:160|77:202,1,100,0|8,0:0|0:0,0:0:0:0:
270,240,35840,1,0,0:0:0:0:
124,67,35994,1,2,0:0:0:0:
48,280,36148,5,0,0:0:0:0:
226,177,36302,1,2,0:0:0:0:
236,171,36379,1,2,0:0:0:0:
248,165,36456,2,0,P|272:160|296:165,1,50,8|0,0:0|0:0,0:0:0:0:
369,267,36609,2,0,P|352:247|345:224,1,50,2|0,0:0|0:0,0:0:0:0:
394,63,36763,2,0,P|398:112|372:154,1,100,8|0,0:0|0:0,0:0:0:0:
267,238,36994,1,2,0:0:0:0:
246,253,37071,2,0,L|134:243,1,100,2|8,0:0|0:0,0:0:0:0:
321,92,37379,5,6,0:0:0:0:
370,348,37532,1,2,0:0:0:0:
87,295,37686,2,0,P|68:249|80:202,1,100,8|0,0:0|0:0,0:0:0:0:
296,165,37994,1,2,0:0:0:0:
141,365,38148,1,8,0:0:0:0:
45,130,38302,1,0,0:0:0:0:
246,253,38456,1,2,0:0:0:0:
246,253,38532,1,0,0:0:0:0:
246,253,38609,5,0,0:0:0:0:
38,365,38763,1,2,0:0:0:0:
130,133,38917,2,0,B|177:117|177:117|224:132,1,100,8|2,0:0|0:0,0:0:0:0:
328,355,39225,1,0,0:0:0:0:
87,295,39379,1,2,0:0:0:0:
84,270,39455,1,2,0:0:0:0:
81,245,39532,1,8,0:0:0:0:
296,165,39686,1,2,0:0:0:0:
141,365,39840,37,6,0:0:0:0:
181,75,39994,1,2,0:0:0:0:
412,254,40148,1,8,0:0:0:0:
72,318,40302,2,0,L|63:218,1,100,2|0,0:0|0:0,0:0:0:0:
115,122,40532,1,2,0:0:0:0:
128,140,40609,2,0,P|149:153|174:155,1,50,8|0,0:0|0:0,0:0:0:0:
311,123,40763,1,2,0:0:0:0:
314,98,40839,1,2,0:0:0:0:
317,73,40916,1,2,0:0:0:0:
290,283,41071,5,12,0:0:0:0:
486,202,41225,1,2,0:0:0:0:
473,191,41302,1,0,0:0:0:0:
459,182,41379,2,0,P|438:168|413:166,1,50,8|0,0:0|0:0,0:0:0:0:
260,211,41532,5,2,0:0:0:0:
214,234,41609,1,2,0:0:0:0:
169,257,41686,2,0,P|144:263|119:263,1,50,12|0,0:0|0:0,0:0:0:0:
144,50,41840,5,2,0:0:0:0:
181,70,41917,1,2,0:0:0:0:
198,105,41994,1,8,0:0:0:0:
184,152,42071,1,8,0:0:0:0:
141,173,42148,1,8,0:0:0:0:
95,156,42225,1,8,0:0:0:0:
78,99,42302,70,0,B|131:79|175:101|175:101|223:125|272:102,1,200,6|0,0:0|0:0,0:0:0:0:
328,51,44763,54,0,B|359:79|354:139|316:165|316:165|350:186|350:186|324:203|324:203|342:219|344:251,1,239.999992675781,2|0,0:0|0:0,0:0:0:0:
271,102,45225,1,2,0:0:0:0:
240,252,45532,54,0,L|224:249,1,14.9999995422363
153,247,45686,2,0,L|137:244,1,14.9999995422363
66,242,45840,2,0,L|50:239,1,14.9999995422363
114,170,46148,6,0,L|99:167,1,14.9999995422363
66,242,46302,2,0,L|51:239,1,14.9999995422363
201,175,46609,70,0,L|185:172,1,14.9999995422363
105,319,46917,2,0,L|90:316,1,14.9999995422363
45,81,47225,54,0,B|85:78|85:78|94:85|94:85|92:69|92:69|101:77|101:77|142:73,1,119.999996337891,2|0,0:0|0:0,0:0:0:0:
215,67,47456,1,0,0:0:0:0:
230,66,47532,1,0,0:0:0:0:
43,99,47686,54,0,B|38:145|38:145|53:178|53:178|48:215,1,119.999996337891,2|0,0:0|0:0,0:0:0:0:
42,305,47994,54,0,L|69:301,1,14.9999995422363
123,247,48148,2,0,L|150:251,1,14.9999995422363
214,291,48302,2,0,L|241:287,1,14.9999995422363
404,263,48609,6,0,L|402:284,1,14.9999995422363
315,222,48763,2,0,L|313:243,1,14.9999995422363
457,176,49071,70,0,L|455:190,1,14.9999995422363
315,222,49225,2,0,L|313:236,1,14.9999995422363
470,78,49379,6,0,L|468:92,1,14.9999995422363
273,141,49533,2,0,L|271:155,1,14.9999995422363
346,31,49686,22,0,P|393:73|329:81,1,160,2|0,0:0|0:0,0:0:0:0:
238,9,50148,2,0,L|198:12,1,40,2|0,0:0|0:0,0:0:0:0:
64,34,50456,38,0,P|73:39|79:46,1,14.9999995422363
142,115,50609,2,0,P|145:124|145:132,1,14.9999995422363
149,225,50763,2,0,P|145:234|140:240,1,14.9999995422363
44,315,51071,6,0,P|50:311|60:308,1,14.9999995422363
140,321,51225,2,0,P|146:324|156:327,1,14.9999995422363
271,370,51532,70,0,L|269:355,1,14.9999995422363
311,220,51686,2,0,L|312:234,1,14.9999995422363
396,374,51840,6,0,L|381:375,1,14.9999995422363
226,285,51994,2,0,L|240:283,1,14.9999995422363
456,319,52148,38,0,L|456:304,16,14.9999995422363,2|0|0|0|0|0|0|0|0|0|0|0|0|0|0|0|0,0:0|0:0|0:0|0:0|0:0|0:0|0:0|0:0|0:0|0:0|0:0|0:0|0:0|0:0|0:0|0:0|0:0,0:0:0:0:
497,243,52609,2,0,P|471:229|441:231,1,59.9999981689454,2|0,0:0|0:0,0:0:0:0:
252,335,52917,22,0,L|254:350,1,14.9999995422363
167,261,53071,2,0,L|153:267,1,14.9999995422363
206,161,53225,2,0,L|195:149,1,14.9999995422363
342,272,53532,6,0,L|356:276,1,14.9999995422363
252,335,53686,2,0,L|254:350,1,14.9999995422363
167,261,53840,2,0,L|153:267,1,14.9999995422363
314,168,53994,6,0,L|322:155,1,14.9999995422363
252,335,54148,2,0,L|254:350,1,14.9999995422363
206,161,54302,2,0,L|195:149,1,14.9999995422363
342,272,54456,2,0,L|356:276,1,14.9999995422363
95,319,54609,6,0,B|62:273|87:224|87:224|114:176|82:130,1,200,6|8,0:0|0:0,0:0:0:0:
228,252,55071,2,0,P|186:335|95:319,1,200,2|2,0:0|0:0,0:0:0:0:
24,183,55532,1,0,0:0:0:0:
181,43,55686,70,0,B|215:9|215:9|205:160,1,200,8|2,0:0|0:0,0:0:0:0:
100,18,56148,1,0,0:0:0:0:
324,83,56302,1,8,0:0:0:0:
130,205,56456,1,2,0:0:0:0:
276,244,56609,1,2,0:0:0:0:
243,95,56763,2,0,P|194:85|150:107,1,100,8|0,0:0|0:0,0:0:0:0:
29,202,57071,6,0,B|58:243|58:243|72:93,1,200,2|8,0:0|0:0,0:0:0:0:
1,292,57532,2,0,B|20:322|63:327|89:322|118:293|118:293|152:283|183:295,1,200,2|2,0:0|0:0,0:0:0:0:
306,368,57994,1,0,0:0:0:0:
204,160,58148,1,8,0:0:0:0:
204,160,58456,70,0,L|259:155,1,50,2|2,0:0|0:0,0:0:0:0:
340,148,58609,1,8,0:0:0:0:
164,81,58763,1,2,0:0:0:0:
244,239,58917,1,8,0:0:0:0:
337,46,59071,1,2,0:0:0:0:
320,293,59225,1,2,0:0:0:0:
115,155,59379,1,8,0:0:0:0:
398,95,59532,6,0,B|431:141|406:190|406:190|379:238|411:284,1,200,2|8,0:0|0:0,0:0:0:0:
340,148,59994,1,2,0:0:0:0:
340,148,60302,2,0,B|263:143|263:143|221:166|221:166|146:160,1,200,2|8,0:0|0:0,0:0:0:0:
115,155,60917,69,2,0:0:0:0:
99,265,61070,1,2,0:0:0:0:
340,148,61225,1,8,0:0:0:0:
131,45,61378,5,2,0:0:0:0:
115,155,61532,1,2,0:0:0:0:
356,258,61686,1,8,0:0:0:0:
340,148,61840,1,2,0:0:0:0:
99,265,61994,69,2,0:0:0:0:
372,368,62148,1,8,0:0:0:0:
221,121,62302,1,2,0:0:0:0:
221,121,62456,1,2,0:0:0:0:
83,375,62609,5,8,0:0:0:0:
442,278,62763,1,2,0:0:0:0:
442,278,62917,1,2,0:0:0:0:
115,155,63071,1,8,0:0:0:0:
172,327,63225,69,2,0:0:0:0:
218,343,63301,1,2,0:0:0:0:
268,340,63378,1,8,0:0:0:0:
409,86,63532,1,2,0:0:0:0:
409,86,63686,1,2,0:0:0:0:
90,164,63840,5,8,0:0:0:0:
352,307,63994,2,0,L|356:258,1,50,2|2,0:0|0:0,0:0:0:0:
317,144,64147,5,8,0:0:0:0:
275,128,64224,1,8,0:0:0:0:
220,126,64301,1,8,0:0:0:0:
165,161,64378,1,8,0:0:0:0:
131,227,64456,6,0,B|168:216|201:227|201:227|202:185|185:143|141:133|99:133|56:143|24:193|21:248|54:293|81:312|126:318|149:297|173:300|173:300|206:309|206:309|246:296|246:296|283:310|283:310|316:296|316:296|351:309|351:309|402:286|402:286|356:256,1,775,6|0,0:0|0:0,0:0:0:0:
283,218,66917,38,0,B|307:157|304:115|304:115|294:56|325:33|365:17|428:24|444:70|445:127|427:157|387:169|356:179|334:168|304:155|280:122|292:68|303:51|244:45|244:45|215:73|165:75|114:69|97:49|97:49|125:37|149:39,1,775
207,143,69379,6,0,B|151:153|95:148|46:111|46:111|98:168|110:249|84:335|84:335|83:266|9:182|9:182|67:221|159:231|195:222,1,775
274,203,71840,6,0,B|305:194|354:159|385:116|385:116|344:89|300:98|300:98|307:151|339:198|366:220,1,375
434,246,73071,6,0,B|454:246|484:229|484:229|445:208|406:209|366:220,1,175
310,300,73686,6,0,L|294:278,5,16.6666666666667
308,320,73994,2,0,B|347:335|375:319|375:319|363:306|347:309,1,100,8|0,0:0|0:0,0:0:0:0:
147,334,74302,5,10,0:0:0:0:
135,252,74456,1,0,0:0:0:0:
217,240,74609,1,8,0:0:0:0:
229,322,74763,1,0,0:0:0:0:
225,327,75071,1,0,0:0:0:0:
58,289,75379,70,0,B|51:236|51:236|59:216|59:216|53:170,1,119.999996337891,2|0,0:0|0:0,0:0:0:0:
21,94,75840,1,8,0:0:0:0:
104,105,75994,1,0,0:0:0:0:
17,89,76302,5,0,0:0:0:0:
100,100,76456,1,8,0:0:0:0:
183,111,76609,1,0,0:0:0:0:
240,240,76763,69,10,0:0:0:0:
336,159,76917,2,0,L|276:164,1,59.9999981689454,0|8,0:0|0:0,0:0:0:0:
131,177,77225,1,0,0:0:0:0:
131,177,77532,1,0,0:0:0:0:
183,111,77686,1,8,0:0:0:0:
240,240,77840,6,0,L|363:228,1,119.999996337891,2|0,0:0|0:0,0:0:0:0:
411,161,78302,1,8,0:0:0:0:
481,208,78456,2,0,P|435:243|377:238,1,119.999996337891
276,164,78917,1,8,0:0:0:0:
341,109,79071,1,0,0:0:0:0:
209,112,79225,70,0,P|196:138|195:168,1,59.9999981689454,10|0,0:0|0:0,0:0:0:0:
276,164,79532,1,8,0:0:0:0:
149,60,79686,2,0,P|121:112|115:171,1,119.999996337891
206,331,80302,5,2,0:0:0:0:
276,164,80609,1,2,0:0:0:0:
97,187,80917,1,2,0:0:0:0:
92,191,81225,69,0,0:0:0:0:
103,274,81379,1,8,0:0:0:0:
114,357,81532,1,0,0:0:0:0:
170,222,81686,6,0,P|198:215|228:216,1,59.9999981689454,10|0,0:0|0:0,0:0:0:0:
377,238,81994,1,8,0:0:0:0:
310,187,82148,2,0,B|293:130|293:130|309:71,1,119.999996337891
446,23,82609,1,8,0:0:0:0:
392,87,82763,1,0,0:0:0:0:
218,24,82917,22,0,L|227:109,1,80,10|0,0:0|0:0,0:0:0:0:
128,204,83225,6,0,L|139:100,1,100
301,31,83532,5,2,0:0:0:0:
352,48,83608,1,0,0:0:0:0:
392,87,83686,2,0,P|409:107|417:134,1,55.0000016784668
415,280,83840,1,0,0:0:0:0:
376,278,83916,1,0,0:0:0:0:
363,242,83993,1,0,0:0:0:0:
392,216,84070,1,0,0:0:0:0:
426,234,84148,5,6,0:0:0:0:
201,340,84302,1,2,0:0:0:0:
95,115,84456,1,8,0:0:0:0:
49,258,84609,2,0,B|82:275|82:275|124:258|124:258|160:270|160:270|206:251|246:274|246:274|274:255,1,239.999992675781,2|8,0:0|0:0,0:0:0:0:
417,134,85071,1,0,0:0:0:0:
181,59,85225,1,2,0:0:0:0:
185,118,85301,1,0,0:0:0:0:
190,178,85379,37,0,0:0:0:0:
467,75,85532,2,0,P|413:55|360:80,1,119.999996337891,2|8,0:0|0:0,0:0:0:0:
201,340,85840,1,2,0:0:0:0:
95,115,85994,1,2,0:0:0:0:
326,194,86148,2,0,L|316:313,1,119.999996337891,8|0,0:0|0:0,0:0:0:0:
42,375,86456,1,2,0:0:0:0:
185,118,86609,5,0,0:0:0:0:
407,253,86763,2,0,L|417:134,1,119.999996337891,2|8,0:0|0:0,0:0:0:0:
327,236,87071,1,2,0:0:0:0:
456,315,87225,2,0,P|401:332|348:306,1,119.999996337891,2|8,0:0|0:0,0:0:0:0:
185,118,87532,1,2,0:0:0:0:
42,375,87686,1,2,0:0:0:0:
57,117,87840,6,0,B|115:97|115:97|171:113,1,119.999996337891,0|2,0:0|0:0,0:0:0:0:
241,196,88071,1,0,0:0:0:0:
239,214,88148,2,0,L|234:273,1,59.9999981689454,8|0,0:0|0:0,0:0:0:0:
135,338,88302,2,0,L|130:278,1,59.9999981689454,2|0,0:0|0:0,0:0:0:0:
324,306,88456,6,0,L|319:365,1,59.9999981689454,8|0,0:0|0:0,0:0:0:0:
124,334,88609,2,0,L|119:274,1,59.9999981689454,2|2,0:0|0:0,0:0:0:0:
184,141,88763,2,0,P|237:118|292:137,1,119.999996337891,8|2,0:0|0:0,0:0:0:0:
403,229,88994,1,0,0:0:0:0:
419,220,89071,38,0,B|440:205|440:205|446:111,1,119.999996337891,0|2,0:0|0:0,0:0:0:0:
241,196,89379,1,8,0:0:0:0:
73,119,89532,2,0,B|134:159|187:126|187:126|242:95|299:131,1,239.999992675781,2|8,0:0|0:0,0:0:0:0:
138,61,89994,1,0,0:0:0:0:
326,213,90148,1,2,0:0:0:0:
172,349,90302,5,0,0:0:0:0:
241,196,90456,1,2,0:0:0:0:
241,196,90532,1,0,0:0:0:0:
241,196,90609,1,8,0:0:0:0:
408,228,90763,1,2,0:0:0:0:
155,358,90917,1,2,0:0:0:0:
452,292,91071,2,0,L|459:172,1,119.999996337891,8|0,0:0|0:0,0:0:0:0:
310,43,91379,1,2,0:0:0:0:
197,263,91532,5,0,0:0:0:0:
225,275,91608,1,0,0:0:0:0:
254,273,91686,2,0,P|282:265|306:242,1,59.9999981689454,2|0,0:0|0:0,0:0:0:0:
154,111,91840,2,0,L|150:171,1,59.9999981689454,8|0,0:0|0:0,0:0:0:0:
317,125,91994,2,0,L|313:65,1,59.9999981689454,2|0,0:0|0:0,0:0:0:0:
81,35,92148,6,0,L|77:95,1,59.9999981689454,2|0,0:0|0:0,0:0:0:0:
330,139,92302,2,0,L|326:79,1,59.9999981689454,8|0,0:0|0:0,0:0:0:0:
67,15,92456,2,0,L|58:146,1,119.999996337891,2|8,0:0|0:0,0:0:0:0:
98,305,92686,1,0,0:0:0:0:
39,262,92763,38,0,P|90:233|148:253,1,119.999996337891,0|2,0:0|0:0,0:0:0:0:
210,302,92994,1,2,0:0:0:0:
224,315,93071,2,0,P|251:328|281:327,1,59.9999981689454,8|0,0:0|0:0,0:0:0:0:
413,197,93225,2,0,P|383:196|356:209,1,59.9999981689454,2|0,0:0|0:0,0:0:0:0:
467,356,93379,5,8,0:0:0:0:
326,79,93532,1,2,0:0:0:0:
257,57,93609,1,2,0:0:0:0:
188,73,93685,1,8,0:0:0:0:
98,305,93840,1,2,0:0:0:0:
413,197,93994,21,6,0:0:0:0:
89,160,94148,1,2,0:0:0:0:
224,315,94302,1,8,0:0:0:0:
326,77,94456,2,0,B|336:46|319:19|319:19|292:65|314:113|314:113|332:160|319:191,1,239.999992675781,2|8,0:0|0:0,0:0:0:0:
159,380,94917,1,0,0:0:0:0:
34,100,95071,1,2,0:0:0:0:
88,79,95147,1,0,0:0:0:0:
143,99,95225,37,0,0:0:0:0:
417,183,95379,1,2,0:0:0:0:
156,234,95532,1,8,0:0:0:0:
380,302,95686,1,2,0:0:0:0:
169,369,95840,1,2,0:0:0:0:
353,138,95994,5,8,0:0:0:0:
393,108,96070,1,0,0:0:0:0:
442,108,96147,1,0,0:0:0:0:
482,138,96224,1,0,0:0:0:0:
497,184,96301,1,2,0:0:0:0:
481,231,96378,1,0,0:0:0:0:
440,259,96456,5,0,0:0:0:0:
384,278,96532,1,0,0:0:0:0:
324,278,96609,1,2,0:0:0:0:
267,260,96686,1,0,0:0:0:0:
225,233,96763,1,8,0:0:0:0:
182,219,96839,1,0,0:0:0:0:
137,218,96916,1,2,0:0:0:0:
93,228,96993,1,0,0:0:0:0:
54,250,97071,5,2,0:0:0:0:
36,284,97147,1,0,0:0:0:0:
50,321,97224,1,8,0:0:0:0:
86,335,97301,1,0,0:0:0:0:
121,318,97379,2,0,L|128:251,1,59.9999981689454,2|0,0:0|0:0,0:0:0:0:
263,83,97532,2,0,L|268:142,1,59.9999981689454,2|0,0:0|0:0,0:0:0:0:
284,363,97686,5,6,0:0:0:0:
139,117,97840,1,2,0:0:0:0:
48,139,98148,5,12,0:0:0:0:
477,34,98456,1,8,0:0:0:0:
280,369,98763,1,12,0:0:0:0:
261,117,98917,38,0,L|264:87,1,29.9999990844727,8|0,0:3|0:0,0:0:0:0:
231,100,98994,2,0,L|218:73,1,29.9999990844727,8|0,0:3|0:0,0:0:0:0:
196,101,99071,2,0,L|172:83,1,29.9999990844727,4|0,0:3|0:0,0:0:0:0:
168,119,99148,2,0,L|138:116,1,29.9999990844727,4|0,0:3|0:0,0:0:0:0:
152,149,99225,6,0,L|157:268,1,119.999996337891,12|2,0:0|0:0,0:0:0:0:
392,312,99532,1,0,0:0:0:0:
261,117,99686,1,8,0:0:0:0:
89,359,99840,1,0,0:0:0:0:
407,309,99994,1,2,0:0:0:0:
150,258,100148,5,0,0:0:0:0:
227,46,100302,1,2,0:0:0:0:
267,39,100379,1,2,0:0:0:0:
305,51,100455,1,8,0:0:0:0:
377,234,100609,1,2,0:0:0:0:
152,149,100763,1,8,0:0:0:0:
399,111,100917,1,2,0:0:0:0:
308,343,101071,1,8,0:0:0:0:
227,46,101225,1,2,0:0:0:0:
69,165,101379,5,8,0:0:0:0:
72,210,101455,1,0,0:0:0:0:
76,255,101532,2,0,L|81:314,1,59.9999981689454,2|2,0:0|0:0,0:0:0:0:
302,336,101686,2,0,L|307:276,1,59.9999981689454,2|0,0:0|0:0,0:0:0:0:
154,177,101840,2,0,L|159:236,1,59.9999981689454,8|0,0:0|0:0,0:0:0:0:
382,258,101994,37,2,0:0:0:0:
359,220,102070,1,2,0:0:0:0:
319,200,102147,1,8,0:0:0:0:
275,207,102224,1,2,0:0:0:0:
240,236,102302,1,8,0:0:0:0:
219,290,102378,1,2,0:0:0:0:
167,317,102455,1,2,0:0:0:0:
110,303,102532,1,2,0:0:0:0:
76,255,102609,6,0,L|68:178,1,69.9999978637696,8|8,0:0|0:0,0:0:0:0:
323,130,102763,2,0,L|317:221,1,69.9999978637696,2|2,0:0|0:0,0:0:0:0:
79,98,102917,6,0,L|71:21,1,69.9999978637696,8|8,0:0|0:0,0:0:0:0:
411,86,103071,2,0,L|405:177,1,69.9999978637696,2|2,0:0|0:0,0:0:0:0:
167,317,103225,5,8,0:0:0:0:
110,303,103302,1,8,0:0:0:0:
76,255,103379,1,8,0:0:0:0:
83,195,103455,1,8,0:0:0:0:
129,157,103532,37,10,0:0:0:0:
191,203,103608,1,10,0:0:0:0:
268,219,103685,1,10,0:0:0:0:
344,203,103762,1,10,0:0:0:0:
406,155,103839,53,14,0:0:0:0:
392,264,104148,1,2,0:0:0:0:
378,373,104456,1,8,0:0:0:0:
288,301,104763,2,0,P|257:297|226:304,1,59.9999981689454,2|8,0:0|0:0,0:0:0:0:
160,336,105071,5,2,0:0:0:0:
48,272,105379,2,0,L|52:212,1,59.9999981689454,2|2,0:0|0:0,0:0:0:0:
56,135,105686,1,8,0:0:0:0:
180,164,105994,2,0,P|152:175|122:174,1,59.9999981689454,2|8,0:0|0:0,0:0:0:0:
219,88,106302,69,2,0:0:0:0:
307,110,106456,1,2,0:0:0:0:
307,110,106532,1,2,0:0:0:0:
307,110,106609,2,0,L|302:169,1,59.9999981689454,8|2,0:0|0:0,0:0:0:0:
253,298,106917,1,8,0:0:0:0:
351,234,107071,2,0,P|378:222|407:225,1,59.9999981689454,0|2,0:0|0:0,0:0:0:0:
465,362,107379,1,8,0:0:0:0:
387,295,107532,5,2,0:0:0:0:
427,155,107686,1,8,0:0:0:0:
480,249,107840,1,2,0:0:0:0:
447,85,107994,1,2,0:0:0:0:
447,85,108071,1,2,0:0:0:0:
447,85,108148,1,8,0:0:0:0:
407,225,108302,2,0,P|377:228|350:216,1,59.9999981689454,2|2,0:0|0:0,0:0:0:0:
322,48,108609,1,8,0:0:0:0:
322,48,108686,1,8,0:0:0:0:
322,48,108763,70,0,L|251:54,1,59.9999981689454,2|0,0:0|0:0,0:0:0:0:
129,117,109071,2,0,P|181:143|236:126,1,119.999996337891,2|8,0:0|0:0,0:0:0:0:
199,13,109532,2,0,P|186:41|198:88,1,59.9999981689454,0|2,0:0|0:0,0:0:0:0:
257,203,109840,1,2,0:0:0:0:
195,309,109994,5,2,0:0:0:0:
279,287,110148,1,0,0:0:0:0:
279,287,110225,1,0,0:0:0:0:
279,287,110302,1,2,0:0:0:0:
173,225,110456,1,0,0:0:0:0:
328,168,110609,2,0,P|338:196|331:224,1,59.9999981689454,8|0,0:0|0:0,0:0:0:0:
253,117,110917,1,2,0:0:0:0:
417,149,111071,1,0,0:0:0:0:
385,313,111225,69,2,0:0:0:0:
328,168,111379,1,0,0:0:0:0:
328,168,111456,1,0,0:0:0:0:
328,168,111532,1,2,0:0:0:0:
173,225,111686,1,0,0:0:0:0:
208,55,111840,2,0,P|235:41|264:43,1,59.9999981689454,8|0,0:0|0:0,0:0:0:0:
328,168,112148,1,2,0:0:0:0:
141,144,112302,1,8,0:0:0:0:
214,318,112456,6,0,L|276:313,1,59.9999981689454,8|2,0:0|0:0,0:0:0:0:
393,300,112763,1,2,0:0:0:0:
393,300,112840,1,2,0:0:0:0:
393,300,112917,1,8,0:0:0:0:
268,214,113071,1,2,0:0:0:0:
256,194,113147,1,2,0:0:0:0:
252,172,113224,1,8,0:0:0:0:
254,150,113301,1,2,0:0:0:0:
263,130,113379,70,0,L|306:121,1,29.9999990844727,8|8,0:0|0:0,0:0:0:0:
379,63,113532,2,0,L|349:56,1,29.9999990844727,8|8,0:0|0:0,0:0:0:0:
