osu file format v14

[General]
AudioFilename: audio.mp3
AudioLeadIn: 0
PreviewTime: 83506
Countdown: 0
SampleSet: Soft
StackLeniency: 0.7
Mode: 0
LetterboxInBreaks: 0
WidescreenStoryboard: 1

[Editor]
DistanceSpacing: 1
BeatDivisor: 4
GridSize: 4
TimelineZoom: 2.3

[Metadata]
Title:Altros
TitleUnicode:Altros
Artist:ARForest
ArtistUnicode:ARForest
Creator:Down
Version:SCV's Normal
Source:
Tags:omc ofc contest helloscv dailycare milr_ [_white_music_] len fast cellina reana taeyang
BeatmapID:1407257
BeatmapSetID:658433

[Difficulty]
HPDrainRate:2
CircleSize:3
OverallDifficulty:3
ApproachRate:4
SliderMultiplier:1.1
SliderTickRate:1

[Events]
//Background and Video events
0,0,"bg.jpg",0,0
//Break Periods
2,67117,72982
//Storyboard Layer 0 (Background)
//Storyboard Layer 1 (Fail)
//Storyboard Layer 2 (Pass)
//Storyboard Layer 3 (Foreground)
//Storyboard Sound Samples

[TimingPoints]
456,307.692307692308,4,2,39,30,1,0
10302,-100,4,2,39,40,0,0
20225,-100,4,2,39,30,0,0
21994,-100,4,2,39,5,0,0
22609,-100,4,2,39,60,0,1
42302,-100,4,2,39,50,0,0
42379,-100,4,2,39,35,0,0
44148,-100,4,2,39,5,0,0
44763,-100,4,2,39,40,0,0
54609,-100,4,2,39,50,0,0
64456,-100,4,2,39,40,0,0
64532,-100,4,2,39,30,0,0
74302,-100,4,2,1,40,0,0
83532,-100,4,2,39,50,0,0
84148,-100,4,2,39,70,0,1
103840,-100,4,2,39,40,0,0

[Colours]
Combo1 : 255,164,164
Combo2 : 141,100,251
Combo3 : 70,112,255
Combo4 : 123,123,123
Combo5 : 225,225,225
Combo6 : 157,241,253
Combo7 : 255,200,237
Combo8 : 255,51,51
SliderTrackOverride : 40,40,40

[HitObjects]
79,262,10302,38,0,L|202:282,1,110,2|0,0:0|0:0,0:0:0:0:
229,265,10763,1,2,0:0:0:0:
327,314,11071,2,0,L|335:368,2,55,0|2|0,0:0|0:0|0:0,0:0:0:0:
412,244,11686,2,0,P|426:189|411:136,1,110,0|0,0:0|0:0,0:0:0:0:
374,116,12148,2,0,L|266:138,1,110,10|2,0:0|0:0,0:0:0:0:
185,212,12763,6,0,P|131:218|81:196,1,110,2|0,0:0|0:0,0:0:0:0:
49,164,13225,2,0,B|45:219|45:219|61:270|61:270|56:326,2,165,2|2|0,0:0|0:0|0:0,0:0:0:0:
21,129,14302,1,0,0:0:0:0:
114,71,14609,2,0,L|223:81,1,110,10|2,0:0|0:0,0:0:0:0:
277,177,15225,102,0,B|330:190|330:190|386:166,1,110,2|0,0:0|0:0,0:0:0:0:
413,148,15686,1,2,0:0:0:0:
488,68,15994,2,0,L|483:6,2,55,0|2|0,0:0|0:0|0:0,0:0:0:0:
497,177,16609,2,0,L|505:286,1,110,0|0,0:0|0:0,0:0:0:0:
510,330,17071,2,0,P|456:318|404:334,1,110,10|2,0:0|0:0,0:0:0:0:
299,302,17686,6,0,P|247:318|193:306,1,110,2|0,0:0|0:0,0:0:0:0:
160,278,18148,2,0,P|97:254|40:338,2,165,2|0|2,0:0|0:0|0:0,0:0:0:0:
166,321,19225,1,0,0:0:0:0:
256,259,19532,2,0,L|244:147,1,110,10|2,0:0|0:0,0:0:0:0:
227,40,20148,101,4,0:1:0:0:
256,192,20225,12,0,21994,0:0:0:0:
227,40,22609,85,6,0:0:0:0:
297,124,22917,1,8,0:0:0:0:
395,74,23225,2,0,B|449:62|449:62|500:83,1,110,2|0,0:0|0:0,0:0:0:0:
512,127,23686,1,2,0:0:0:0:
499,169,23840,2,0,L|507:278,1,110,0|8,0:0|0:0,0:0:0:0:
396,282,24456,2,0,L|389:199,2,82.5,0|0|0,0:0|0:0|0:0,0:0:0:0:
364,312,25071,5,2,0:0:0:0:
265,361,25379,1,8,0:0:0:0:
167,312,25686,2,0,L|48:319,1,110
51,207,26302,2,0,L|160:200,1,110,2|8,0:0|0:0,0:0:0:0:
261,246,26917,2,0,B|284:187|254:141|254:141|309:137,1,165,8|8,0:0|0:0,0:0:0:0:
353,136,27532,101,6,0:0:0:0:
407,40,27840,1,8,0:0:0:0:
297,49,28148,2,0,L|187:55,1,110,0|0,0:0|0:0,0:0:0:0:
154,84,28609,1,2,0:0:0:0:
171,124,28763,2,0,L|161:233,1,110,0|8,0:0|0:0,0:0:0:0:
156,343,29379,1,0,0:0:0:0:
190,316,29532,2,0,P|243:312|293:346,1,110,0|2,0:0|0:0,0:0:0:0:
312,380,29994,6,0,L|333:262,1,110,4|8,0:0|0:0,0:0:0:0:
408,193,30609,2,0,L|393:111,2,82.5,2|0|2,0:0|0:0|0:0,0:0:0:0:
446,214,31225,2,0,B|442:256|442:256|446:282|446:282|440:323,1,110,12|8,0:0|0:0,0:0:0:0:
334,294,31840,2,0,B|280:287|280:287|223:302,1,110,8|2,0:0|0:0,0:0:0:0:
122,338,32456,101,6,0:0:0:0:
30,278,32763,1,8,0:0:0:0:
109,202,33071,2,0,P|121:161|101:91,1,110,2|0,0:0|0:0,0:0:0:0:
73,65,33532,1,2,0:0:0:0:
111,43,33686,2,0,P|164:31|218:38,1,110,0|0,0:0|0:0,0:0:0:0:
306,105,34302,6,0,P|360:101|407:73,1,110,0|8,0:0|0:0,0:0:0:0:
438,42,34763,1,0,0:0:0:0:
481,48,34917,2,0,L|474:178,1,110,2|8,0:0|0:0,0:0:0:0:
437,261,35532,2,0,B|388:283|388:283|333:269,1,110,0|0,0:0|0:0,0:0:0:0:
222,269,36148,2,0,B|167:282|167:282|118:260,1,110,0|8,0:0|0:0,0:0:0:0:
14,223,36763,2,0,B|38:165|94:155|94:155|45:129,1,165,8|8,0:0|0:0,0:0:0:0:
8,108,37379,101,6,0:0:0:0:
88,32,37687,1,8,0:0:0:0:
184,88,37994,2,0,B|234:114|234:114|290:102,1,110,2|0,0:0|0:0,0:0:0:0:
328,92,38456,1,2,0:0:0:0:
372,92,38609,2,0,P|413:126|420:179,1,110,0|0,0:0|0:0,0:0:0:0:
384,284,39225,1,0,0:0:0:0:
348,308,39379,2,0,B|304:312|304:312|284:304|284:304|236:308,1,110,2|2,0:0|0:0,0:0:0:0:
201,285,39840,6,0,L|91:293,1,110,4|8,0:0|0:0,0:0:0:0:
92,182,40456,2,0,L|174:175,2,82.5,0|0|2,0:0|0:0|0:0,0:0:0:0:
51,165,41071,2,0,P|22:118|24:64,1,110,12|8,0:0|0:0,0:0:0:0:
128,28,41686,2,0,L|237:39,1,110,8|2,0:0|0:0,0:0:0:0:
346,55,42302,5,4,0:1:0:0:
256,192,42380,12,0,44148,0:0:0:0:
128,111,44763,6,0,B|148:159|137:192|137:192|124:227|139:273,1,165,2|2,0:0|0:0,0:0:0:0:
242,234,45532,2,0,L|296:236,2,55,0|0|0,0:0|0:0|0:0,0:0:0:0:
287,133,46148,2,0,L|348:117,1,55,0|0,0:0|0:0,0:0:0:0:
419,42,46609,2,0,P|448:87|446:141,1,110,0|0,0:0|0:0,0:0:0:0:
377,226,47225,102,0,B|359:285|398:329|398:329|339:323,1,165,2|2,0:0|0:0,0:0:0:0:
246,272,47994,2,0,L|191:278,2,55
212,166,48609,2,0,L|218:111,1,55,0|0,0:0|0:0,0:0:0:0:
321,151,49071,2,0,B|376:154|376:154|424:128|424:128|474:151,1,165,0|0,0:0|0:0,0:0:0:0:
512,173,49686,6,0,B|504:282|504:282|485:257|458:251,1,165,2|2,0:0|0:0,0:0:0:0:
420,355,50456,2,0,L|350:366,2,55,0|0|0,0:0|0:0|0:0,0:0:0:0:
362,261,51071,2,0,P|363:233|372:207,1,55,0|0,0:0|0:0,0:0:0:0:
422,109,51532,2,0,B|403:53|403:53|352:60|352:60|301:41,1,165,0|0,0:0|0:0,0:0:0:0:
257,49,52148,102,0,B|150:65|150:65|125:83|123:113,1,165,2|2,0:0|0:0,0:0:0:0:
182,205,52917,2,0,P|187:231|185:259,2,55,0|0|0,0:0|0:0|0:0,0:0:0:0:
291,210,53532,2,0,L|345:201,2,55,0|0|0,0:0|0:0|0:0,0:0:0:0:
300,166,53994,2,0,L|318:57,1,110,0|0,0:0|0:0,0:0:0:0:
209,46,54609,22,0,B|126:31|126:31|55:70,1,165,2|2,0:0|0:0,0:0:0:0:
111,165,55379,2,0,L|120:219,2,55,2|0|8,0:0|0:0|0:0,0:0:0:0:
18,225,55994,2,0,L|8:170,2,55,2|0|8,0:0|0:0|0:0,0:0:0:0:
37,264,56456,2,0,B|68:309|68:309|124:311|124:311|152:357,1,165,2|0,0:0|0:0,0:0:0:0:
196,352,57071,6,0,B|304:329|304:329|357:354,1,165,2|2,0:0|0:0,0:0:0:0:
407,256,57840,2,0,L|357:232,2,55,2|0|8,0:0|0:0|0:0,0:0:0:0:
436,149,58456,2,0,L|459:99,2,55,2|8|2,0:0|0:0|0:0,0:0:0:0:
394,135,58917,2,0,B|351:116|351:116|288:129|288:129|279:77,1,165,8|8,0:0|0:0,0:0:0:0:
238,58,59532,102,0,B|129:77|129:77|124:48|95:29,1,165,2|2,0:0|0:0,0:0:0:0:
23,111,60302,2,0,L|20:165,2,55,2|0|8,0:0|0:0|0:0,0:0:0:0:
115,169,60917,2,0,L|117:223,2,55,2|2|8,0:0|0:0|0:0,0:0:0:0:
156,185,61379,2,0,B|208:206|208:206|258:185,1,110,2|8,0:0|0:0,0:0:0:0:
358,229,61994,6,0,L|416:240,2,55,2|0|2,0:0|0:0|0:0,0:0:0:0:
347,185,62456,1,2,0:0:0:0:
324,77,62763,2,0,L|379:68,2,55,0|2|8,0:0|0:0|0:0,0:0:0:0:
282,62,63225,2,0,L|172:69,1,110,2|2,0:0|0:0,0:0:0:0:
78,127,63840,2,0,P|63:173|82:239,1,110,8|8,0:0|0:0,0:0:0:0:
175,181,64456,69,0,0:0:0:0:
256,192,64532,12,0,66917,0:0:0:0:
118,215,74302,6,0,P|167:237|220:224,1,110,2|0,0:0|0:0,0:0:0:0:
256,199,74763,2,0,P|307:182|358:199,2,110,2|0|0,0:0|0:0|0:0,0:0:0:0:
304,297,75686,2,0,L|300:358,2,55,0|2|0,0:0|0:0|0:0,0:0:0:0:
405,340,76302,2,0,B|409:283|409:283|441:240,1,110,0|0,0:0|0:0,0:0:0:0:
470,208,76763,102,0,P|479:159|431:103,1,110,2|0,0:0|0:0,0:0:0:0:
407,91,77225,1,2,0:0:0:0:
300,63,77532,2,0,L|246:50,2,55,0|2|0,0:0|0:0|0:0,0:0:0:0:
252,162,78148,2,0,L|239:219,2,55,0|0|0,0:0|0:0|0:0,0:0:0:0:
350,211,78763,2,0,L|403:196,2,55,0|2|0,0:0|0:0|0:0,0:0:0:0:
322,244,79225,6,0,P|291:289|240:306,1,110,0|0,0:0|0:0,0:0:0:0:
198,292,79686,2,0,P|145:280|96:304,2,110,2|0|0,0:0|0:0|0:0,0:0:0:0:
175,184,80609,2,0,L|160:71,1,110,0|0,0:0|0:0,0:0:0:0:
269,90,81225,2,0,L|276:144,2,55,0|2|0,0:0|0:0|0:0,0:0:0:0:
298,56,81686,102,0,P|347:32|409:49,1,110,0|0,0:0|0:0,0:0:0:0:
432,72,82148,1,0,0:0:0:0:
395,176,82456,2,0,P|394:203|403:228,2,55,0|0|0,0:0|0:0|0:0,0:0:0:0:
297,227,83071,2,0,P|270:232|242:231,2,55,0|0|0,0:0|0:0|0:0,0:0:0:0:
286,269,83532,2,0,L|262:376,1,110,0|0,0:0|0:0,0:0:0:0:
159,336,84148,86,0,B|109:313|109:313|56:327,1,110,6|8,0:0|0:0,0:0:0:0:
13,340,84609,2,0,L|0:230,1,110,2|8,0:0|0:0,0:0:0:0:
20,122,85225,1,2,0:0:0:0:
56,146,85379,2,0,P|109:152|156:125,1,110,0|8,0:0|0:0,0:0:0:0:
194,100,85841,2,0,P|273:91|336:148,1,165,2|0,0:0|0:0,0:0:0:0:
239,200,86609,6,0,L|224:329,1,110,0|0,0:0|0:0,0:0:0:0:
250,346,87071,1,2,0:0:0:0:
341,284,87379,2,0,L|396:294,2,55,8|2|2,0:0|0:0|0:0,0:0:0:0:
347,240,87840,2,0,L|359:130,1,110,0|8,0:0|0:0,0:0:0:0:
436,51,88456,2,0,P|390:21|336:23,1,110,8|8,0:0|0:0,0:0:0:0:
229,50,89071,102,0,L|158:45,2,55,0|0|8,0:0|0:0|0:0,0:0:0:0:
260,81,89532,1,2,0:0:0:0:
359,130,89840,2,0,L|413:126,2,55,8|0|2,0:0|0:0|0:0,0:0:0:0:
322,155,90302,2,0,P|293:200|302:255,1,110,0|8,0:0|0:0,0:0:0:0:
363,345,90917,2,0,L|253:354,1,110,2|0,0:0|0:0,0:0:0:0:
143,355,91532,5,0,0:0:0:0:
58,284,91840,1,8,0:0:0:0:
112,188,92148,2,0,P|124:134|109:82,1,110,2|2,0:0|0:0,0:0:0:0:
204,26,92764,1,0,0:0:0:0:
282,102,93071,1,8,0:0:0:0:
392,102,93379,1,2,0:0:0:0:
474,29,93686,1,8,0:0:0:0:
490,137,93994,102,0,L|502:246,1,110,6|8,0:0|0:0,0:0:0:0:
510,289,94456,2,0,P|463:316|409:311,1,110,2|8,0:0|0:0,0:0:0:0:
304,277,95071,1,2,0:0:0:0:
262,260,95225,2,0,P|207:261|164:293,1,110,0|8,0:0|0:0,0:0:0:0:
87,372,95840,2,0,P|62:323|61:269,1,110,2|0,0:0|0:0,0:0:0:0:
100,165,96456,5,0,0:0:0:0:
82,56,96763,1,8,0:0:0:0:
184,97,97071,1,2,0:0:0:0:
293,90,97379,1,2,0:0:0:0:
379,25,97686,2,0,L|444:30,1,55,12|8,0:0|0:0,0:0:0:0:
507,111,98148,1,12,0:0:0:0:
435,195,98456,1,12,0:0:0:0:
480,294,98763,1,8,0:0:0:0:
442,316,98917,102,0,B|414:318|414:318|366:307|366:307|333:310,1,110,0|12,0:0|0:0,0:0:0:0:
233,355,99532,2,0,B|210:306|210:306|230:255|230:255|230:198,1,165,0|2,0:0|0:0,0:0:0:0:
322,138,100302,2,0,L|322:83,2,55,0|8|2,0:0|0:0|0:0,0:0:0:0:
280,122,100763,2,0,B|228:102|228:102|177:120|177:120|158:68,1,165,8|2,0:0|0:0,0:0:0:0:
140,27,101379,5,12,0:0:0:0:
51,92,101686,1,2,0:0:0:0:
104,188,101994,2,0,P|125:239|107:306,1,110,2|8,0:0|0:0,0:0:0:0:
42,374,102609,1,8,0:0:0:0:
152,373,102917,1,8,0:0:0:0:
222,288,103225,1,10,0:0:0:0:
324,328,103532,1,2,0:0:0:0:
410,260,103840,5,4,0:1:0:0:
