osu file format v14

[General]
AudioFilename: audio.mp3
AudioLeadIn: 0
PreviewTime: 83506
Countdown: 0
SampleSet: Soft
StackLeniency: 0.4
Mode: 0
LetterboxInBreaks: 0
WidescreenStoryboard: 1

[Editor]
Bookmarks: 430,10276,20122,22583,32430,42276,54583,64430,74276,84122,93968,97660,98737,103814,113660
DistanceSpacing: 1.5
BeatDivisor: 8
GridSize: 32
TimelineZoom: 2.4

[Metadata]
Title:Altros
TitleUnicode:Altros
Artist:ARForest
ArtistUnicode:ARForest
Creator:Down
Version:Len's Super Classic Extra
Source:
Tags:omc ofc contest helloscv dailycare milr_ [_white_music_] len fast cellina reana taeyang
BeatmapID:1398847
BeatmapSetID:658433

[Difficulty]
HPDrainRate:7
CircleSize:4
OverallDifficulty:8.6
ApproachRate:9.5
SliderMultiplier:1.9
SliderTickRate:2

[Events]
//Background and Video events
0,0,"bg.jpg",0,0
//Break Periods
2,42502,44238
//Storyboard Layer 0 (Background)
//Storyboard Layer 1 (Fail)
//Storyboard Layer 2 (Pass)
//Storyboard Layer 3 (Foreground)
//Storyboard Sound Samples

[TimingPoints]
456,307.692307692308,4,2,83,35,1,0
456,-133.333333333333,4,2,83,35,0,0
609,-133.333333333333,4,2,83,15,0,0
763,-133.333333333333,4,2,83,30,0,0
917,-133.333333333333,4,2,83,10,0,0
1071,-133.333333333333,4,2,83,15,0,0
1225,-133.333333333333,4,2,83,25,0,0
1379,-133.333333333333,4,2,83,10,0,0
1532,-133.333333333333,4,2,83,15,0,0
1686,-133.333333333333,4,2,83,25,0,0
1840,-133.333333333333,4,2,83,30,0,0
1994,-133.333333333333,4,2,83,15,0,0
2148,-133.333333333333,4,2,83,30,0,0
2302,-133.333333333333,4,2,83,20,0,0
2456,-133.333333333333,4,2,83,15,0,0
2609,-133.333333333333,4,2,83,15,0,0
2763,-133.333333333333,4,2,83,30,0,0
2917,-133.333333333333,4,2,83,35,0,0
3071,-133.333333333333,4,2,83,15,0,0
3225,-133.333333333333,4,2,83,20,0,0
3379,-133.333333333333,4,2,83,10,0,0
3532,-133.333333333333,4,2,83,25,0,0
3686,-133.333333333333,4,2,83,20,0,0
3840,-133.333333333333,4,2,83,15,0,0
3994,-133.333333333333,4,2,83,30,0,0
4148,-133.333333333333,4,2,83,35,0,0
4302,-133.333333333333,4,2,83,10,0,0
4456,-133.333333333333,4,2,83,20,0,0
4609,-133.333333333333,4,2,83,10,0,0
4763,-133.333333333333,4,2,83,20,0,0
4917,-133.333333333333,4,2,83,15,0,0
5071,-133.333333333333,4,2,83,25,0,0
5225,-133.333333333333,4,2,83,15,0,0
5379,-133.333333333333,4,2,83,35,0,0
5532,-133.333333333333,4,2,83,15,0,0
5686,-133.333333333333,4,2,83,20,0,0
5840,-133.333333333333,4,2,83,25,0,0
5994,-133.333333333333,4,2,83,30,0,0
6148,-133.333333333333,4,2,83,10,0,0
6302,-133.333333333333,4,2,83,15,0,0
6456,-133.333333333333,4,2,83,25,0,0
6609,-133.333333333333,4,2,83,15,0,0
6763,-133.333333333333,4,2,83,10,0,0
6917,-133.333333333333,4,2,83,20,0,0
7071,-133.333333333333,4,2,83,25,0,0
7225,-133.333333333333,4,2,83,30,0,0
7379,-133.333333333333,4,2,83,20,0,0
7532,-133.333333333333,4,2,83,25,0,0
7686,-133.333333333333,4,2,83,10,0,0
7840,-133.333333333333,4,2,83,15,0,0
7994,-133.333333333333,4,2,83,25,0,0
8148,-133.333333333333,4,2,83,30,0,0
8302,-133.333333333333,4,2,83,15,0,0
8456,-133.333333333333,4,2,83,20,0,0
8609,-133.333333333333,4,2,83,10,0,0
8763,-133.333333333333,4,2,83,25,0,0
8917,-133.333333333333,4,2,83,10,0,0
9071,-133.333333333333,4,2,83,30,0,0
9225,-133.333333333333,4,2,83,15,0,0
9379,-133.333333333333,4,2,83,35,0,0
9532,-133.333333333333,4,2,83,20,0,0
9686,-133.333333333333,4,2,83,25,0,0
9840,-133.333333333333,4,2,83,20,0,0
9917,-133.333333333333,4,2,83,25,0,0
9994,-133.333333333333,4,2,83,30,0,0
10148,-133.333333333333,4,2,83,20,0,0
10302,-100,4,2,83,50,0,0
10609,-100,4,2,83,35,0,0
10917,-100,4,2,83,50,0,0
11071,-100,4,2,83,40,0,0
12456,-125,4,2,83,30,0,0
12763,-100,4,2,83,30,0,0
14917,-125,4,2,83,30,0,0
15225,-100,4,2,83,30,0,0
20148,-100,4,1,84,45,0,0
20225,-100,4,2,83,30,0,0
22148,-100,4,2,83,5,0,0
22302,-100,4,2,83,40,0,0
22609,-90.9090909090909,4,2,83,60,0,1
25379,-111.111111111111,4,2,83,60,0,1
26148,-90.9090909090909,4,2,83,60,0,1
40148,-83.3333333333333,4,2,83,60,0,1
41379,-76.9230769230769,4,2,83,60,0,1
42302,-90.9090909090909,4,1,84,60,0,0
44763,-125,4,1,84,40,0,0
44802,-125,4,2,84,25,0,0
45225,-125,4,1,84,40,0,0
45532,-125,4,2,84,40,0,0
47225,-125,4,1,84,40,0,0
47263,-125,4,2,84,25,0,0
47686,-125,4,1,84,40,0,0
47994,-125,4,2,84,40,0,0
49686,-125,4,1,84,40,0,0
49725,-125,4,2,84,25,0,0
50456,-125,4,2,84,40,0,0
52148,-125,4,1,84,40,0,0
52186,-125,4,2,84,25,0,0
52609,-125,4,1,84,40,0,0
52917,-125,4,2,84,40,0,0
54609,-111.111111111111,4,2,83,60,0,0
63840,-100,4,2,83,60,0,0
64456,-250,4,2,83,45,0,0
71840,-200,4,2,83,60,0,0
73994,-33.3333333333333,4,2,83,20,0,0
74302,-125,4,2,83,50,0,0
83609,-125,4,2,83,45,0,0
83686,-125,4,2,83,40,0,0
83763,-125,4,2,83,35,0,0
83840,-125,4,2,83,60,0,0
83917,-125,4,2,83,50,0,0
83994,-125,4,2,83,40,0,0
84071,-125,4,2,83,30,0,0
84148,-90.9090909090909,4,2,83,75,0,1
85379,-76.9230769230769,4,2,83,75,0,1
85994,-90.9090909090909,4,2,83,75,0,1
89532,-76.9230769230769,4,2,83,75,0,1
90917,-90.9090909090909,4,2,83,75,0,1
91686,-76.9230769230769,4,2,83,75,0,1
94917,-90.9090909090909,4,2,83,75,0,1
97532,-76.9230769230769,4,2,83,75,0,1
100456,-90.9090909090909,4,2,83,75,0,1
100763,-76.9230769230769,4,2,83,75,0,1
103840,-76.9230769230769,4,2,83,75,0,0
106302,-76.9230769230769,4,2,83,35,0,0

[Colours]
Combo1 : 255,222,123
Combo2 : 170,255,170
Combo3 : 153,199,255
Combo4 : 250,156,170
SliderTrackOverride : 40,40,40

[HitObjects]
53,308,456,5,0,0:0:0:0:
137,346,609,1,0,0:0:0:0:
176,261,763,1,0,0:0:0:0:
338,231,917,1,0,0:0:0:0:
256,359,1071,6,0,L|265:289,1,71.2500027179719,2|0,0:0|0:0,0:0:0:0:
110,119,1379,1,2,0:0:0:0:
110,119,1532,2,0,L|118:190,1,71.2500027179719,0|2,0:0|0:0,0:0:0:0:
29,83,1840,5,0,0:0:0:0:
202,160,1994,2,0,L|306:174,1,71.2500027179719,2|0,0:0|0:0,0:0:0:0:
342,116,2302,5,2,0:0:0:0:
249,14,2456,2,0,P|253:49|259:85,1,71.2500027179719,0|2,0:0|0:0,0:0:0:0:
416,162,2763,5,0,0:0:0:0:
509,65,2917,2,0,P|503:100|497:136,1,71.2500027179719,2|0,0:0|0:0,0:0:0:0:
499,289,3225,2,0,P|497:253|486:220,1,71.2500027179719
342,116,3532,5,2,0:0:0:0:
273,169,3686,2,0,L|202:160,1,71.2500027179719
43,224,3994,1,0,0:0:0:0:
14,140,4148,6,0,P|16:105|34:74,1,71.2500027179719
127,240,4456,2,0,P|145:270|146:308,1,71.2500027179719,2|0,0:0|0:0,0:0:0:0:
99,158,4763,5,0,0:0:0:0:
43,224,4917,1,0,0:0:0:0:
183,175,5071,1,2,0:0:0:0:
192,88,5225,1,0,0:0:0:0:
43,224,5379,6,0,P|54:278|62:306,1,71.2500027179719,2|0,0:0|0:0,0:0:0:0:
35,377,5686,1,2,0:0:0:0:
227,313,5840,1,0,0:0:0:0:
151,267,5994,6,0,L|136:339,1,71.2500027179719,2|0,0:0|0:0,0:0:0:0:
116,189,6302,1,2,0:0:0:0:
308,279,6456,1,0,0:0:0:0:
227,313,6609,5,0,0:0:0:0:
388,314,6763,2,0,L|402:384,1,71.2500027179719,0|2,0:0|0:0,0:0:0:0:
308,279,7071,1,0,0:0:0:0:
443,247,7225,6,0,L|458:176,1,71.2500027179719,2|0,0:0|0:0,0:0:0:0:
173,71,7532,2,0,L|188:142,1,71.2500027179719
335,120,7840,6,0,L|264:105,1,71.2500027179719
379,45,8147,1,2,0:0:0:0:
348,268,8302,1,0,0:0:0:0:
386,191,8456,6,0,L|457:176,1,71.2500027179719
310,345,8763,2,0,L|239:360,1,71.2500027179719,2|0,0:0|0:0,0:0:0:0:
99,155,9071,5,0,0:0:0:0:
242,195,9224,1,0,0:0:0:0:
135,299,9378,1,2,0:0:0:0:
158,217,9532,1,0,0:0:0:0:
319,238,9686,5,2,0:0:0:0:
200,50,9840,1,0,0:0:0:0:
200,50,9917,1,0,0:0:0:0:
200,50,9994,1,2,0:0:0:0:
242,195,10148,1,0,0:0:0:0:
411,128,10302,6,0,P|410:177|403:243,1,95,4|0,0:1|0:0,0:0:0:0:
276,350,10609,2,0,L|207:341,1,47.5
151,288,10763,1,0,0:0:0:0:
151,288,10840,1,0,0:0:0:0:
151,288,10917,2,0,L|56:301,1,95,4|0,0:3|0:0,0:0:0:0:
24,103,11225,2,0,B|11:149|11:149|41:203,1,95
208,36,11532,5,0,0:0:0:0:
105,138,11686,1,0,0:0:0:0:
260,175,11840,1,4,0:3:0:0:
260,175,11917,1,0,0:0:0:0:
260,175,11994,2,0,L|254:222,1,47.5
320,290,12148,2,0,L|336:415,1,95,8|0,0:1|0:0,0:0:0:0:
400,358,12456,2,0,P|363:363|332:384,1,76,2|0,0:0|0:0,0:0:0:0:
139,316,12763,6,0,P|192:317|228:346,1,95,4|0,0:1|0:0,0:0:0:0:
380,138,13071,1,0,0:0:0:0:
472,180,13225,2,0,L|460:275,1,95,2|0,0:0|0:0,0:0:0:0:
460,67,13532,1,2,0:0:0:0:
282,130,13686,2,0,L|287:177,1,47.5,2|0,0:0|0:0,0:0:0:0:
367,47,13840,2,0,L|361:0,1,47.5
243,38,13994,6,0,L|134:26,1,95,2|0,0:0|0:0,0:0:0:0:
15,159,14302,1,4,0:1:0:0:
15,159,14379,1,0,0:0:0:0:
15,159,14456,2,0,L|29:238,1,47.5
0,291,14609,2,0,L|109:279,1,95,8|0,0:1|0:0,0:0:0:0:
184,373,14917,2,0,L|276:380,1,76,2|0,0:0|0:0,0:0:0:0:
433,316,15225,6,0,P|440:266|405:219,1,95,4|0,0:1|0:0,0:0:0:0:
270,175,15532,2,0,L|283:251,1,47.5,2|0,0:0|0:0,0:0:0:0:
184,204,15686,2,0,L|197:280,1,47.5,2|0,0:0|0:0,0:0:0:0:
95,177,15840,2,0,L|-25:166,1,95,4|0,0:1|0:0,0:0:0:0:
197,59,16148,1,2,0:0:0:0:
56,91,16302,1,0,0:0:0:0:
197,59,16456,6,0,B|242:78|242:78|348:64,1,142.5,4|0,0:3|0:0,0:0:0:0:
421,55,16763,2,0,L|414:102,3,47.5,4|0|0|0,0:1|0:0|0:0|0:0,0:0:0:0:
508,41,17071,2,0,B|517:92|517:92|485:169,1,95,8|0,0:1|0:0,0:0:0:0:
378,209,17379,1,2,0:0:0:0:
373,207,17455,1,0,0:0:0:0:
368,206,17532,1,0,0:0:0:0:
364,205,17609,1,0,0:0:0:0:
359,204,17686,6,0,B|348:251|348:251|370:304,1,95,4|0,0:1|0:0,0:0:0:0:
461,338,17994,1,0,0:0:0:0:
331,302,18148,2,0,L|227:315,1,95,8|0,0:1|0:0,0:0:0:0:
274,169,18456,1,2,0:0:0:0:
114,357,18609,2,0,L|10:344,1,95,4|0,0:3|0:0,0:0:0:0:
19,345,18917,5,0,0:0:0:0:
0,125,19071,1,2,0:0:0:0:
97,87,19225,1,2,0:0:0:0:
137,183,19379,1,2,0:0:0:0:
389,154,19532,5,2,0:0:0:0:
299,206,19686,1,0,0:0:0:0:
483,199,19840,1,2,0:0:0:0:
227,131,19994,1,2,0:0:0:0:
326,365,20148,5,12,0:1:0:0:
256,192,21379,12,0,22148,0:0:0:0:
96,83,22302,6,0,L|88:129,1,47.5,2|2,0:1|0:1,0:0:0:0:
0,192,22456,6,0,L|7:238,1,47.5,2|2,0:1|0:1,0:0:0:0:
52,337,22609,6,0,L|174:349,1,104.500003189087,4|8,0:0|0:1,0:0:0:0:
319,331,22917,1,8,0:0:0:0:
155,184,23071,5,2,0:0:0:0:
155,184,23148,1,0,0:0:0:0:
155,184,23225,2,0,L|247:173,1,52.2500015945435,8|0,0:1|0:0,0:0:0:0:
354,222,23379,2,0,L|303:228,1,52.2500015945435,8|0,0:0|0:0,0:0:0:0:
232,295,23532,5,0,0:0:0:0:
311,135,23686,2,0,L|302:75,1,52.2500015945435,8|0,0:0|0:0,0:0:0:0:
381,17,23840,6,0,B|410:60|410:60|399:130,1,104.500003189087,8|0,0:3|0:0,0:0:0:0:
452,193,24071,1,0,0:0:0:0:
452,193,24148,2,0,L|515:204,1,52.2500015945435,8|0,0:0|0:0,0:0:0:0:
450,347,24302,2,0,L|459:295,1,52.2500015945435,8|0,0:1|0:0,0:0:0:0:
354,311,24456,6,0,L|250:326,1,104.500003189087,8|8,0:0|0:3,0:0:0:0:
105,271,24686,1,0,0:3:0:0:
105,271,24763,2,0,L|196:285,1,52.2500015945435,10|0,0:0|0:0,0:0:0:0:
249,131,24917,2,0,B|265:180|265:180|246:230,1,104.500003189087,8|8,0:3|0:1,0:0:0:0:
159,180,25225,5,8,0:3:0:0:
431,173,25379,2,0,L|347:187,1,85.4999973907472,8|0,0:0|0:0,0:0:0:0:
157,84,25686,5,2,0:0:0:0:
347,187,25840,1,8,0:0:0:0:
234,372,25994,1,2,0:0:0:0:
249,131,26148,1,8,0:1:0:0:
52,235,26302,5,2,0:0:0:0:
266,234,26456,1,8,0:0:0:0:
217,219,26533,1,8,0:1:0:0:
167,233,26610,1,0,0:0:0:0:
134,272,26687,1,8,0:1:0:0:
101,312,26764,1,8,0:0:0:0:
52,327,26841,1,8,0:1:0:0:
3,310,26917,1,8,0:1:0:0:
39,83,27071,6,0,L|44:143,1,52.2500015945435,8|8,0:1|0:3,0:0:0:0:
217,311,27225,1,8,0:0:0:0:
419,203,27379,6,0,L|367:208,1,52.2500015945435,8|0,0:1|0:0,0:0:0:0:
197,39,27532,2,0,L|208:142,1,104.500003189087,4|8,0:0|0:1,0:0:0:0:
266,234,27840,1,2,0:0:0:0:
297,33,27994,1,8,0:0:0:0:
103,99,28148,6,0,L|94:165,1,52.2500015945435,8|0,0:1|0:0,0:0:0:0:
16,226,28302,2,0,L|20:290,1,52.2500015945435,8|0,0:0|0:0,0:0:0:0:
115,368,28456,2,0,P|168:350|228:343,1,104.500003189087,0|8,0:0|0:0,0:0:0:0:
303,359,28686,1,0,0:0:0:0:
310,365,28763,6,0,L|316:307,1,52.2500015945435,8|0,0:1|0:0,0:0:0:0:
484,245,28917,2,0,L|489:296,1,52.2500015945435,8|0,0:3|0:0,0:0:0:0:
436,369,29071,1,8,0:0:0:0:
277,210,29225,6,0,L|343:221,1,52.2500015945435,2|0,0:0|0:0,0:0:0:0:
500,139,29379,1,8,0:1:0:0:
371,27,29532,1,2,0:0:0:0:
366,79,29608,1,2,0:0:0:0:
362,131,29685,1,10,0:0:0:0:
459,9,29840,6,0,L|453:77,1,52.2500015945435,8|0,0:3|0:0,0:0:0:0:
509,230,29994,2,0,P|457:240|406:252,1,104.500003189087,4|8,0:0|0:1,0:0:0:0:
343,346,30302,1,8,0:0:0:0:
263,173,30456,1,2,0:0:0:0:
86,291,30609,6,0,L|167:279,1,52.2500015945435,8|8,0:1|0:3,0:0:0:0:
242,263,30763,1,8,0:0:0:0:
242,263,30840,1,2,0:0:0:0:
242,263,30917,2,0,L|235:335,1,52.2500015945435,8|0,0:3|0:0,0:0:0:0:
151,183,31071,2,0,L|145:130,1,52.2500015945435,8|0,0:1|0:0,0:0:0:0:
39,19,31225,6,0,L|28:127,1,104.500003189087,4|8,0:0|0:3,0:0:0:0:
0,215,31456,1,2,0:0:0:0:
12,226,31532,2,0,L|93:214,1,52.2500015945435,8|0,0:1|0:0,0:0:0:0:
184,52,31686,2,0,L|133:45,1,52.2500015945435,8|0,0:3|0:0,0:0:0:0:
298,144,31840,5,8,0:1:0:0:
342,157,31916,1,8,0:1:0:0:
387,148,31993,1,8,0:1:0:0:
423,118,32070,1,8,0:1:0:0:
457,72,32148,5,8,0:3:0:0:
452,129,32225,1,8,0:3:0:0:
447,186,32301,1,8,0:3:0:0:
442,243,32378,1,8,0:3:0:0:
437,301,32456,6,0,B|424:306|424:306|398:297|398:297|364:303|324:299,1,104.500003189087,4|8,0:0|0:3,0:0:0:0:
169,364,32763,1,8,0:0:0:0:
270,193,32917,1,2,0:0:0:0:
270,193,32994,1,0,0:0:0:0:
270,193,33071,6,0,L|260:274,1,52.2500015945435,8|0,0:1|0:0,0:0:0:0:
85,242,33225,2,0,L|167:251,1,52.2500015945435,8|0,0:0|0:0,0:0:0:0:
274,360,33379,1,0,0:0:0:0:
356,215,33532,6,0,L|362:163,1,52.2500015945435,8|0,0:0|0:0,0:0:0:0:
276,0,33686,2,0,P|279:57|286:104,1,104.500003189087,8|0,0:3|0:0,0:0:0:0:
508,14,33994,6,0,L|501:65,1,52.2500015945435,8|0,0:0|0:0,0:0:0:0:
451,145,34148,2,0,L|457:196,1,52.2500015945435,8|0,1:0|0:0,0:0:0:0:
498,316,34302,2,0,P|432:296|383:283,1,104.500003189087,8|8,0:0|3:0,0:0:0:0:
284,319,34532,1,0,0:0:0:0:
268,333,34609,6,0,L|202:340,1,52.2500015945435,10|0,0:0|0:0,0:0:0:0:
40,204,34763,2,0,L|106:211,1,52.2500015945435,8|0,0:3|0:0,0:0:0:0:
131,376,34917,6,0,P|138:324|148:251,1,104.500003189087,8|8,0:1|0:3,0:0:0:0:
38,27,35225,1,8,0:0:0:0:
235,116,35379,1,0,0:0:0:0:
15,117,35532,6,0,L|81:110,1,52.2500015945435,2|0,0:0|0:0,0:0:0:0:
236,22,35686,2,0,L|184:27,1,52.2500015945435,8|0,0:0|0:0,0:0:0:0:
158,168,35840,2,0,L|144:272,1,104.500003189087,2|8,0:0|0:1,0:0:0:0:
306,176,36148,5,2,0:0:0:0:
484,299,36303,1,8,0:1:0:0:
451,258,36379,1,8,0:1:0:0:
402,243,36456,1,8,0:0:0:0:
353,257,36533,1,8,0:1:0:0:
302,270,36610,1,0,0:0:0:0:
253,255,36687,1,8,0:1:0:0:
220,215,36763,6,0,L|210:142,1,52.2500015945435,8|0,0:0|0:0,0:0:0:0:
395,338,36917,1,8,0:1:0:0:
395,338,36994,1,8,0:3:0:0:
395,338,37071,1,10,0:0:0:0:
491,180,37225,6,0,L|501:107,1,52.2500015945435,8|0,0:1|0:0,0:0:0:0:
302,270,37379,2,0,L|293:374,1,104.500003189087,4|8,0:0|0:3,0:0:0:0:
158,168,37686,1,8,0:0:0:0:
147,318,37840,2,0,P|173:322|198:331,1,52.2500015945435,2|0,0:0|0:0,0:0:0:0:
0,251,37994,6,0,P|65:243|126:230,1,104.500003189087,8|8,0:1|0:0,0:0:0:0:
158,168,38225,1,0,0:0:0:0:
162,154,38302,1,0,0:0:0:0:
113,10,38456,6,0,L|122:96,1,52.2500015945435,8|0,0:0|0:0,0:0:0:0:
243,214,38609,2,0,P|262:167|264:111,1,104.500003189087,8|8,0:3|0:0,0:0:0:0:
270,28,38840,1,0,0:0:0:0:
258,23,38917,6,0,L|183:42,1,52.2500015945435,8|0,0:1|0:0,0:0:0:0:
16,125,39071,2,0,L|91:144,1,52.2500015945435,8|0,0:3|0:0,0:0:0:0:
170,268,39225,5,8,0:0:0:0:
16,327,39379,1,2,0:0:0:0:
20,275,39456,1,2,0:0:0:0:
25,223,39532,1,10,0:0:0:0:
95,380,39686,6,0,L|103:302,1,52.2500015945435,8|0,0:3|0:0,0:0:0:0:
256,357,39840,2,0,P|311:349|384:333,1,104.500003189087,4|8,0:0|0:1,0:0:0:0:
441,301,40071,1,0,0:0:0:0:
448,292,40148,6,0,L|457:201,1,56.9999982604981,8|0,0:0|0:0,0:0:0:0:
350,56,40302,2,0,L|362:139,1,56.9999982604981,2|0,0:0|0:0,0:0:0:0:
512,118,40456,5,8,0:1:0:0:
506,131,40532,2,0,L|429:140,1,56.9999982604981,8|8,0:3|0:0,0:0:0:0:
331,212,40686,1,2,0:0:0:0:
313,223,40763,2,0,L|241:214,1,56.9999982604981,8|0,0:1|0:0,0:0:0:0:
230,45,40917,1,8,0:3:0:0:
0,182,41071,6,0,P|33:149|106:156,1,113.999996520996,4|8,0:0|0:1,0:0:0:0:
172,177,41302,1,2,0:0:0:0:
181,186,41379,6,0,P|175:157|173:115,1,61.7499971733095,8|0,0:3|0:0,0:0:0:0:
47,8,41532,2,0,P|43:33|41:75,1,61.7499971733095,8|8,0:1|0:1,0:0:0:0:
10,283,41686,5,8,0:1:0:0:
53,323,41762,1,8,0:1:0:0:
114,329,41839,1,8,0:1:0:0:
166,297,41916,1,8,0:1:0:0:
237,261,41994,5,8,0:3:0:0:
286,298,42071,1,8,0:3:0:0:
346,283,42148,1,8,0:3:0:0:
397,317,42225,1,8,0:3:0:0:
471,299,42302,5,4,0:2:0:0:
321,18,44763,6,0,L|319:44,10,19
259,120,45225,1,8,0:0:0:0:
259,120,45532,6,0,P|226:141|172:134,1,76,2|0,0:0|0:0,0:0:0:0:
43,79,45840,1,2,0:0:0:0:
43,79,46148,5,0,0:0:0:0:
32,179,46302,2,0,L|18:330,2,152,2|2|0,0:0|0:0|0:0,0:0:0:0:
371,353,47225,6,0,L|353:358,10,19,2|0|0|0|0|0|0|0|0|0|0,0:0|0:0|0:0|0:0|0:0|0:0|0:0|0:0|0:0|0:0|0:0,0:0:0:0:
248,290,47686,1,2,0:0:0:0:
248,290,47994,6,0,P|207:271|157:271,1,76,2|0,0:0|0:0,0:0:0:0:
400,179,48302,2,0,P|355:185|240:190,1,152,2|2,0:0|0:0,0:0:0:0:
491,132,48763,1,2,0:0:0:0:
491,132,49071,6,0,L|502:230,1,76,2|0,0:0|0:0,0:0:0:0:
341,20,49379,2,0,L|330:118,1,76,2|0,0:0|0:0,0:0:0:0:
4,244,49686,6,0,L|-16:241,10,19,8|0|0|0|0|0|0|0|0|0|0,0:0|0:0|0:0|0:0|0:0|0:0|0:0|0:0|0:0|0:0|0:0,0:0:0:0:
67,312,50148,1,8,0:1:0:0:
67,312,50456,6,0,P|91:273|93:227,1,76,2|0,0:0|0:0,0:0:0:0:
252,277,50763,2,0,P|206:275|165:296,1,76,2|0,0:0|0:0,0:0:0:0:
145,364,51071,1,2,0:0:0:0:
129,134,51225,2,2,P|150:174|189:199,1,76
345,331,51532,6,0,L|353:256,1,76,0|2,0:0|0:0,0:0:0:0:
512,179,51840,2,0,L|504:103,1,76,2|0,0:0|0:0,0:0:0:0:
243,5,52148,6,0,L|239:38,10,19,8|0|0|0|0|0|0|0|0|0|0,0:0|0:0|0:0|0:0|0:0|0:0|0:0|0:0|0:0|0:0|0:0,0:0:0:0:
262,121,52609,1,8,0:0:0:0:
262,121,52917,6,0,P|224:99|177:99,1,76,2|0,0:0|0:0,0:0:0:0:
63,169,53225,2,0,P|48:113|54:8,1,152,2|2,0:0|0:0,0:0:0:0:
14,266,53686,6,0,P|63:277|121:275,1,76,2|2,0:0|0:0,0:0:0:0:
211,384,53994,2,0,P|196:336|165:286,1,76,2|2,0:0|0:0,0:0:0:0:
214,154,54302,2,0,P|179:190|152:242,1,76,2|0,0:0|0:0,0:0:0:0:
105,377,54609,5,6,0:3:0:0:
70,180,54763,1,0,0:0:0:0:
70,180,54840,1,0,0:0:0:0:
70,180,54917,1,2,0:0:0:0:
260,241,55071,1,8,0:1:0:0:
260,241,55379,5,8,0:3:0:0:
445,177,55532,1,8,0:3:0:0:
475,366,55686,1,8,0:1:0:0:
232,128,55994,5,8,0:3:0:0:
392,255,56148,1,8,0:3:0:0:
209,338,56302,1,8,0:1:0:0:
260,241,56456,5,8,0:3:0:0:
267,237,56609,1,8,0:3:0:0:
275,234,56763,1,8,0:1:0:0:
284,232,56917,1,8,0:3:0:0:
483,284,57071,6,0,P|502:320|490:373,1,85.4999973907472,4|0,0:3|0:0,0:0:0:0:
495,362,57379,1,8,0:1:0:0:
284,232,57532,2,0,L|296:102,1,128.249996086121,0|0,0:3|0:0,0:0:0:0:
300,69,57840,5,8,0:3:0:0:
152,168,57994,1,8,0:3:0:0:
59,15,58148,1,8,0:1:0:0:
512,284,58456,5,8,0:1:0:0:
512,284,58532,1,8,0:1:0:0:
512,284,58609,1,8,0:3:0:0:
347,135,58763,1,8,0:1:0:0:
299,361,58917,1,8,0:1:0:0:
384,278,59071,5,8,0:1:0:0:
386,271,59225,1,8,0:1:0:0:
386,265,59379,1,8,0:3:0:0:
179,185,59532,5,4,0:3:0:0:
153,360,59686,2,0,L|164:275,1,85.4999973907472,8|8,0:3|0:0,0:0:0:0:
48,135,59994,2,0,P|128:121|179:185,1,170.999994781494,4|0,0:3|0:0,0:0:0:0:
246,331,60456,1,8,0:1:0:0:
403,179,60609,6,0,P|322:165|272:229,1,170.999994781494,8|8,0:0|0:1,0:0:0:0:
70,305,61071,1,8,0:1:0:0:
164,275,61225,2,0,L|153:360,1,85.4999973907472,8|8,0:2|0:2,0:2:0:0:
79,124,61532,5,8,0:1:0:0:
272,229,61686,1,8,0:0:0:0:
70,305,61840,1,8,0:1:0:0:
312,147,61994,5,4,0:3:0:0:
149,7,62148,2,0,L|158:110,1,85.4999973907472,0|8,0:0|0:3,0:0:0:0:
400,200,62456,1,4,0:0:0:0:
400,200,62532,1,0,0:0:0:0:
400,200,62609,1,8,0:1:0:0:
230,284,62763,1,8,0:1:0:0:
312,147,62917,6,0,L|302:222,1,76
37,301,63225,5,4,0:2:0:0:
37,301,63301,1,0,0:0:0:0:
37,301,63378,1,0,0:0:0:0:
218,180,63532,1,2,0:2:0:0:
194,381,63686,1,8,0:0:0:0:
16,187,63840,6,0,L|87:194,1,47.5,8|8,0:3|0:3,0:0:0:0:
230,284,63994,1,8,0:0:0:0:
76,32,64148,6,0,L|68:121,1,47.5
218,180,64302,2,0,L|213:132,1,47.5
316,47,64456,6,0,B|370:52|402:6|402:6|388:33|388:66|394:78|412:94|444:142|396:140|437:167|396:146|405:177|388:137|394:177|386:149|373:186|371:143|331:153|383:131|351:110|386:121|344:119|385:126|383:94|400:108|424:90|415:120|437:114|429:140|465:131|502:124|502:124|512:164|487:197,1,532,4|2,0:1|0:0,0:0:0:0:
488,195,66763,1,2,0:0:0:0:
491,330,66917,6,0,B|463:304|452:268|452:268|408:346|356:293|346:293|317:327|329:341|346:380|409:362|391:313|355:305|387:271|366:281|373:248|353:229|353:229|300:233|274:261|239:310|271:367,1,532,4|2,0:1|0:0,0:0:0:0:
266,356,69225,1,2,0:0:0:0:
60,292,69379,6,0,B|138:267|179:316|179:316|120:237|120:237|159:259|217:250|264:200|226:163|232:125|198:117|159:96|113:118|113:167,1,532,4|2,0:1|0:0,0:0:0:0:
115,150,71686,1,2,0:0:0:0:
14,28,71840,6,4,B|56:25|89:64|89:64|125:44|159:32|194:42|217:53|217:53|237:40|237:40|256:77|256:77|274:28|320:17|320:17|348:63|338:111|338:111|390:112|419:81|419:81|424:75|424:75|426:84|426:84|432:83|432:83|431:93|431:93|439:103|439:103|432:114|432:114|442:125|442:125|445:161,1,665,4|2,0:1|0:0,0:0:0:0:
459,171,74302,6,0,P|453:218|418:251,1,76,2|0,0:0|0:0,0:0:0:0:
354,257,74609,1,2,0:0:0:0:
468,364,74763,2,0,P|439:326|392:315,1,76,2|0,0:0|0:0,0:0:0:0:
277,287,75071,2,0,P|239:315|228:362,1,76,2|0,0:0|0:0,0:0:0:0:
7,282,75379,6,0,L|169:268,1,152,2|2,0:0|0:0,0:0:0:0:
34,193,75840,2,0,L|133:186,1,76,2|0,0:0|0:0,0:0:0:0:
128,352,76148,2,0,B|91:364|91:364|50:358,1,76,2|0,0:0|0:0,0:0:0:0:
7,282,76456,1,2,0:0:0:0:
158,268,76609,1,2,0:0:0:0:
34,193,76763,6,2,P|38:153|29:64,1,114,0|2,0:0|0:0,0:0:0:0:
24,57,77071,2,0,P|60:73|108:76,1,76,2|0,0:0|0:0,0:0:0:0:
174,28,77379,1,2,0:0:0:0:
323,56,77532,2,0,P|285:60|250:76,1,76,2|0,0:0|0:0,0:0:0:0:
158,268,77840,6,0,L|174:116,1,152,2|2,0:0|0:0,0:0:0:0:
174,28,78302,1,2,0:0:0:0:
247,230,78456,2,0,L|255:131,1,76,2|0,0:0|0:0,0:0:0:0:
96,76,78763,2,0,L|89:151,1,76,2|2,0:0|0:0,0:0:0:0:
158,268,79071,1,2,0:0:0:0:
338,196,79225,6,0,B|355:158|338:101,1,76,2|0,0:0|0:0,0:0:0:0:
277,59,79532,1,2,0:0:0:0:
502,132,79686,2,0,B|460:136|419:179,1,76,2|0,0:0|0:0,0:0:0:0:
364,22,79994,2,0,B|388:55|446:69,1,76,2|0,0:0|0:0,0:0:0:0:
410,245,80302,6,0,P|335:235|235:225,2,152,2|2|2,0:0|0:0|0:0,0:0:0:0:
323,149,81071,1,0,0:0:0:0:
268,306,81225,1,2,0:0:0:0:
268,306,81379,2,0,L|276:391,1,76,2|0,0:0|0:0,0:0:0:0:
158,120,81686,6,0,P|192:136|230:144,1,76,2|0,0:0|0:0,0:0:0:0:
323,149,81994,1,2,0:0:0:0:
79,186,82148,2,0,P|75:148|63:112,1,76,2|0,0:0|0:0,0:0:0:0:
175,222,82456,2,0,P|143:243|119:272,1,76,2|0,0:0|0:0,0:0:0:0:
280,32,82763,1,2,0:0:0:0:
117,46,82917,6,0,L|213:39,1,76,0|2,0:0|0:0,0:0:0:0:
432,87,83225,2,0,L|357:82,1,76,2|2,0:0|0:0,0:0:0:0:
496,293,83532,5,2,0:0:0:0:
460,323,83608,1,2,0:0:0:0:
414,331,83685,1,2,0:0:0:0:
370,314,83762,1,2,0:0:0:0:
342,277,83839,5,2,0:0:0:0:
301,242,83917,1,2,0:0:0:0:
249,232,83994,1,2,0:0:0:0:
200,252,84071,1,2,0:0:0:0:
167,294,84148,6,0,L|157:385,1,52.2500015945435,10|0,0:3|0:0,0:0:0:0:
5,232,84302,2,0,L|0:181,1,52.2500015945435,8|0,0:1|0:0,0:0:0:0:
167,164,84456,6,0,L|115:157,1,52.2500015945435,8|0,0:0|0:0,0:0:0:0:
256,325,84609,2,0,L|385:314,1,104.500003189087,8|8,0:3|0:1,0:0:0:0:
451,331,84840,1,0,0:0:0:0:
464,336,84917,6,0,L|469:266,1,52.2500015945435,8|0,0:0|0:0,0:0:0:0:
293,228,85071,2,0,L|290:176,1,52.2500015945435,8|0,0:1|0:0,0:0:0:0:
485,35,85225,5,2,0:0:0:0:
493,113,85302,1,2,0:0:0:0:
502,191,85379,2,0,B|456:196|456:196|424:188|424:188|364:199,1,123.499994346619,8|2,0:0|0:0,0:0:0:0:
154,60,85686,5,8,0:0:0:0:
387,116,85840,1,2,0:0:0:0:
135,228,85994,5,8,0:1:0:0:
279,72,86148,2,0,P|287:123|290:176,1,104.500003189087,8|8,0:0|0:3,0:0:0:0:
43,32,86456,1,8,0:0:0:0:
204,132,86609,6,0,L|153:138,1,52.2500015945435,8|0,0:3|0:0,0:0:0:0:
4,273,86763,2,0,L|55:279,1,52.2500015945435,8|0,0:1|0:0,0:0:0:0:
216,225,86917,1,8,0:0:0:0:
42,133,87071,6,0,L|48:195,1,52.2500015945435,8|0,0:3|0:0,0:0:0:0:
145,374,87225,2,0,L|150:321,1,52.2500015945435,8|0,0:1|0:0,0:0:0:0:
216,225,87379,1,8,0:0:0:0:
419,295,87532,6,0,P|356:286|299:284,1,104.500003189087,2|8,0:0|0:0,0:0:0:0:
192,45,87840,1,2,0:0:0:0:
192,45,87994,6,0,L|127:51,1,52.2500015945435,8|0,0:0|0:0,0:0:0:0:
10,137,88148,2,0,L|75:143,1,52.2500015945435,8|0,0:1|0:0,0:0:0:0:
216,225,88302,2,0,L|151:231,1,52.2500015945435,8|0,0:3|0:0,0:0:0:0:
4,312,88456,5,10,0:0:0:0:
37,292,88532,1,2,0:0:0:0:
76,293,88609,1,2,0:0:0:0:
108,315,88686,1,2,0:0:0:0:
124,350,88763,5,8,0:0:0:0:
178,377,88839,1,2,0:0:0:0:
239,373,88916,1,2,0:0:0:0:
289,338,88993,1,2,0:0:0:0:
315,283,89071,6,0,P|310:216|302:154,1,104.500003189087,8|8,0:0|0:1,0:0:0:0:
295,96,89302,1,8,0:3:0:0:
292,81,89379,1,8,0:0:0:0:
462,241,89532,6,0,L|401:236,1,61.7499971733095,8|0,0:1|0:0,0:0:0:0:
163,159,89686,2,0,L|225:154,1,61.7499971733095,8|0,0:3|0:0,0:0:0:0:
392,22,89840,1,8,0:0:0:0:
385,144,89994,6,0,B|393:102|393:102|387:64|387:64|392:22,1,123.499994346619,2|8,0:0|0:0,0:0:0:0:
293,259,90302,1,8,0:1:0:0:
484,127,90456,6,0,L|476:58,1,61.7499971733095,8|0,0:0|0:0,0:0:0:0:
300,22,90609,2,0,L|292:83,1,61.7499971733095,8|0,0:3|0:0,0:0:0:0:
465,269,90763,2,0,L|457:207,1,61.7499971733095,8|0,0:1|0:0,0:0:0:0:
293,259,90917,6,0,P|203:244|171:243,1,104.500003189087,8|8,0:0|0:1,0:0:0:0:
105,247,91148,1,8,0:1:0:0:
89,249,91225,1,8,0:0:0:0:
9,102,91379,2,0,L|75:115,1,52.2500015945435,8|0,0:0|0:0,0:0:0:0:
245,11,91532,5,2,0:0:0:0:
236,89,91609,1,2,0:0:0:0:
225,167,91686,2,0,B|263:161|263:161|301:171|301:171|364:150,1,123.499994346619,10|8,0:0|0:0,0:0:0:0:
489,298,91994,5,8,0:1:0:0:
489,298,92071,1,8,0:3:0:0:
489,298,92148,2,0,P|452:286|404:281,1,61.7499971733095,8|0,0:0|0:0,0:0:0:0:
298,356,92302,5,8,0:3:0:0:
298,356,92379,1,8,0:1:0:0:
298,356,92456,2,0,P|261:368|213:373,1,61.7499971733095,8|0,0:0|0:0,0:0:0:0:
85,281,92609,5,8,0:3:0:0:
85,281,92686,1,8,0:1:0:0:
85,281,92763,2,0,P|79:242|77:202,1,61.7499971733095,8|0,0:0|0:0,0:0:0:0:
4,179,92917,5,8,0:1:0:0:
44,142,92993,1,8,0:1:0:0:
99,139,93070,1,8,0:0:0:0:
143,171,93147,1,8,0:3:0:0:
187,203,93225,1,8,0:0:0:0:
242,200,93302,1,8,0:1:0:0:
283,164,93379,6,0,L|296:93,1,61.7499971733095,8|0,0:0|0:0,0:0:0:0:
473,22,93532,5,2,0:0:0:0:
512,98,93609,1,2,0:0:0:0:
479,179,93686,2,0,L|401:168,1,61.7499971733095,2|0,0:0|0:0,0:0:0:0:
266,21,93840,2,0,L|344:10,1,61.7499971733095,8|0,0:0|0:0,0:0:0:0:
389,156,93994,6,0,P|388:221|399:315,1,123.499994346619,10|8,0:3|0:1,0:0:0:0:
413,357,94225,1,8,0:3:0:0:
417,371,94302,1,8,0:0:0:0:
245,293,94456,6,0,P|296:296|343:316,1,61.7499971733095,8|0,0:3|0:0,0:0:0:0:
489,255,94609,2,0,L|496:177,1,61.7499971733095,8|0,0:1|0:0,0:0:0:0:
428,74,94763,1,8,0:0:0:0:
198,211,94917,6,0,P|281:200|334:181,1,104.500003189087,8|2,0:1|0:0,0:0:0:0:
379,161,95148,1,2,0:0:0:0:
389,156,95225,1,8,0:0:0:0:
222,20,95379,1,2,0:0:0:0:
111,202,95532,6,0,L|100:132,1,52.2500015945435,8|0,0:0|0:0,0:0:0:0:
9,22,95686,2,0,L|0:73,1,52.2500015945435,2|0,0:0|0:0,0:0:0:0:
182,110,95840,5,8,0:1:0:0:
26,240,95994,2,0,L|17:291,1,52.2500015945435,8|0,0:0|0:0,0:0:0:0:
198,364,96148,5,8,0:3:0:0:
244,330,96225,1,0,0:0:0:0:
298,348,96302,1,8,0:0:0:0:
350,324,96379,1,8,0:0:0:0:
406,334,96456,6,0,L|470:324,1,52.2500015945435,4|2,0:0|0:0,0:0:0:0:
512,149,96609,1,8,0:1:0:0:
468,122,96685,1,8,0:3:0:0:
418,134,96762,1,8,0:0:0:0:
391,177,96839,1,2,0:0:0:0:
363,220,96917,1,8,0:3:0:0:
314,231,96994,1,2,0:0:0:0:
270,205,97071,6,0,L|261:140,1,52.2500015945435,8|0,0:1|0:0,0:0:0:0:
27,49,97225,1,8,0:0:0:0:
70,14,97301,1,2,0:0:0:0:
125,13,97378,1,8,0:1:0:0:
170,46,97455,1,8,0:3:0:0:
185,99,97532,2,0,L|175:162,1,61.7499971733095,8|8,0:0|0:1,0:0:0:0:
281,39,97686,5,6,0:0:0:0:
93,293,97840,1,4,0:0:0:0:
394,198,98148,5,4,0:0:0:0:
94,98,98456,5,6,0:0:0:0:
278,355,98763,5,4,0:0:0:0:
22,248,98917,1,2,0:0:0:0:
21,242,98993,1,2,0:0:0:0:
21,237,99070,1,8,0:3:0:0:
22,232,99147,1,2,0:0:0:0:
25,228,99224,1,2,0:3:0:0:
197,171,99379,1,8,0:1:0:0:
117,348,99532,6,0,P|109:318|108:285,1,61.7499971733095,2|0,0:0|0:0,0:0:0:0:
197,171,99686,2,0,P|205:141|209:107,1,61.7499971733095,8|0,0:1|0:0,0:0:0:0:
37,6,99840,2,0,P|53:65|59:126,1,123.499994346619,8|2,0:1|0:0,0:0:0:0:
36,209,100071,1,2,0:0:0:0:
32,220,100148,1,4,0:0:0:0:
256,319,100302,6,0,P|224:304|172:295,1,61.7499971733095,8|0,0:3|0:3,0:0:0:0:
20,323,100456,2,0,P|24:271|32:219,1,104.500003189087,2|8,0:0|0:0,0:0:0:0:
172,25,100763,6,0,P|217:33|258:40,1,61.7499971733095,8|0,0:1|0:0,0:0:0:0:
399,120,100917,2,0,P|368:125|338:130,1,61.7499971733095,2|0,0:0|0:0,0:0:0:0:
232,228,101071,5,4,0:0:0:0:
324,6,101225,1,2,0:0:0:0:
149,136,101379,5,8,0:3:0:0:
149,136,101456,1,8,0:1:0:0:
149,136,101532,2,0,L|222:128,1,61.7499971733095,8|0,0:1|0:0,0:0:0:0:
398,278,101686,5,8,0:1:0:0:
398,278,101763,1,8,0:3:0:0:
398,278,101840,2,0,L|324:269,1,61.7499971733095,8|0,0:0|0:0,0:0:0:0:
60,338,101994,5,8,0:1:0:0:
99,360,102070,1,8,0:1:0:0:
145,358,102147,1,8,0:0:0:0:
183,333,102224,1,8,0:3:0:0:
203,292,102302,2,0,L|216:362,1,61.7499971733095,8|8,0:1|0:3,0:0:0:0:
36,255,102456,2,0,L|47:194,1,61.7499971733095,8|0,0:0|0:0,0:0:0:0:
216,103,102609,5,4,0:0:0:0:
213,109,102685,1,8,0:3:0:0:
212,117,102763,2,0,P|178:129|136:128,1,61.7499971733095,8|0,0:0|0:0,0:0:0:0:
24,30,102917,6,0,P|54:32|83:43,1,61.7499971733095,8|0,0:1|0:0,0:0:0:0:
296,57,103071,2,0,L|305:128,1,61.7499971733095,8|0,0:3|0:0,0:0:0:0:
512,178,103225,5,4,0:0:0:0:
507,174,103302,1,8,0:3:0:0:
502,170,103379,2,0,P|471:172|442:183,1,61.7499971733095,8|0,0:1|0:0,0:0:0:0:
258,202,103533,6,0,L|249:273,1,61.7499971733095,8|8,0:0|0:1,0:0:0:0:
434,339,103686,2,0,L|426:277,1,61.7499971733095,8|8,0:0|0:3,0:0:0:0:
391,106,103840,5,4,0:0:0:0:
256,192,103917,12,0,106302,0:0:0:0:
