osu file format v14

[General]
AudioFilename: audio.mp3
AudioLeadIn: 0
PreviewTime: 83506
Countdown: 0
SampleSet: Soft
StackLeniency: 0.7
Mode: 0
LetterboxInBreaks: 0
WidescreenStoryboard: 1

[Editor]
Bookmarks: 10276,20122,22583,42276,44737,54583,62276,64430,74276,84122,103814,113660
DistanceSpacing: 1
BeatDivisor: 4
GridSize: 32
TimelineZoom: 3.699999

[Metadata]
Title:Altros
TitleUnicode:Altros
Artist:ARForest
ArtistUnicode:ARForest
Creator:Down
Version:Extra
Source:
Tags:omc ofc contest helloscv dailycare milr_ [_white_music_] len fast cellina reana taeyang
BeatmapID:1394628
BeatmapSetID:658433

[Difficulty]
HPDrainRate:8
CircleSize:4.2
OverallDifficulty:8.4
ApproachRate:9.6
SliderMultiplier:1.92
SliderTickRate:2

[Events]
//Background and Video events
0,0,"bg.jpg",0,0
//Break Periods
//Storyboard Layer 0 (Background)
//Storyboard Layer 1 (Fail)
//Storyboard Layer 2 (Pass)
//Storyboard Layer 3 (Foreground)
//Storyboard Sound Samples

[TimingPoints]
456,307.692307692308,4,2,1,30,1,0
10302,-133.333333333333,4,2,2,50,0,0
10379,-133.333333333333,4,2,1,30,0,0
10917,-133.333333333333,4,2,2,30,0,0
10994,-133.333333333333,4,2,1,30,0,0
12686,-133.333333333333,4,2,1,5,0,0
12763,-133.333333333333,4,2,1,30,0,0
13379,-133.333333333333,4,2,2,30,0,0
13456,-133.333333333333,4,2,1,30,0,0
15840,-133.333333333333,4,2,2,30,0,0
15917,-133.333333333333,4,2,1,30,0,0
18917,-133.333333333333,4,2,1,35,0,0
19225,-133.333333333333,4,2,1,40,0,0
19532,-133.333333333333,4,2,1,45,0,0
19840,-133.333333333333,4,2,1,50,0,0
20148,-133.333333333333,4,2,2,70,0,0
20225,-133.333333333333,4,2,2,70,0,0
20456,-133.333333333333,4,2,2,55,0,0
20763,-133.333333333333,4,2,2,30,0,0
21071,-133.333333333333,4,2,2,15,0,0
21379,-133.333333333333,4,2,2,10,0,0
22302,-133.333333333333,4,1,1,60,0,0
22609,-83.3333333333333,4,1,3,48,0,1
22917,-83.3333333333333,4,1,4,48,0,1
23071,-83.3333333333333,4,1,3,48,0,1
23225,-83.3333333333333,4,1,5,48,0,1
23379,-83.3333333333333,4,1,3,48,0,1
23532,-83.3333333333333,4,1,6,48,0,1
23609,-83.3333333333333,4,1,1,48,0,1
23840,-83.3333333333333,4,1,4,48,0,1
23994,-83.3333333333333,4,1,3,48,0,1
24148,-83.3333333333333,4,1,4,48,0,1
24302,-83.3333333333333,4,1,7,48,0,1
24379,-83.3333333333333,4,1,1,48,0,1
24456,-83.3333333333333,4,1,5,48,0,1
24532,-83.3333333333333,4,1,1,48,0,1
24686,-83.3333333333333,4,1,3,48,0,1
24763,-83.3333333333333,4,1,1,48,0,1
24917,-83.3333333333333,4,1,7,48,0,1
25071,-83.3333333333333,4,1,3,48,0,1
25379,-83.3333333333333,4,1,6,48,0,1
25532,-83.3333333333333,4,1,3,48,0,1
25686,-83.3333333333333,4,1,4,48,0,1
25840,-83.3333333333333,4,1,3,48,0,1
25994,-83.3333333333333,4,1,4,48,0,1
26148,-83.3333333333333,4,1,3,48,0,1
26302,-83.3333333333333,4,1,4,48,0,1
26456,-83.3333333333333,4,1,8,48,0,1
26532,-83.3333333333333,4,1,6,48,0,1
26609,-83.3333333333333,4,1,4,48,0,1
26686,-83.3333333333333,4,1,6,48,0,1
26763,-83.3333333333333,4,1,4,48,0,1
26840,-83.3333333333333,4,1,3,48,0,1
26917,-83.3333333333333,4,1,5,48,0,1
27071,-83.3333333333333,4,1,1,48,0,1
27148,-83.3333333333333,4,1,3,48,0,1
27225,-83.3333333333333,4,1,4,48,0,1
27379,-83.3333333333333,4,1,3,48,0,1
27840,-83.3333333333333,4,1,4,48,0,1
27994,-83.3333333333333,4,1,3,48,0,1
28148,-83.3333333333333,4,1,5,48,0,1
28302,-83.3333333333333,4,1,3,48,0,1
28456,-83.3333333333333,4,1,6,48,0,1
28609,-83.3333333333333,4,1,1,48,0,1
28763,-83.3333333333333,4,1,4,48,0,1
28917,-83.3333333333333,4,1,3,48,0,1
29071,-83.3333333333333,4,1,9,48,0,1
29225,-83.3333333333333,4,1,3,48,0,1
29379,-83.3333333333333,4,1,5,48,0,1
29532,-83.3333333333333,4,1,10,48,0,1
29609,-83.3333333333333,4,1,11,48,0,1
29686,-83.3333333333333,4,1,10,48,0,1
29840,-83.3333333333333,4,1,12,48,0,1
29917,-83.3333333333333,4,1,1,48,0,1
30456,-83.3333333333333,4,1,3,48,0,1
30609,-83.3333333333333,4,1,5,48,0,1
30686,-83.3333333333333,4,1,1,48,0,1
30840,-83.3333333333333,4,1,7,48,0,1
30917,-83.3333333333333,4,1,1,48,0,1
31071,-83.3333333333333,4,1,9,48,0,1
31225,-83.3333333333333,4,1,12,48,0,1
31379,-83.3333333333333,4,1,3,48,0,1
31456,-83.3333333333333,4,1,5,48,0,1
31532,-83.3333333333333,4,1,12,48,0,1
31609,-83.3333333333333,4,1,5,48,0,1
31686,-83.3333333333333,4,1,12,48,0,1
31763,-83.3333333333333,4,1,11,48,0,1
31840,-83.3333333333333,4,1,10,48,0,1
31917,-83.3333333333333,4,1,12,48,0,1
31994,-83.3333333333333,4,1,5,48,0,1
32071,-83.3333333333333,4,1,12,48,0,1
32148,-83.3333333333333,4,1,10,48,0,1
32225,-83.3333333333333,4,1,3,48,0,1
32302,-83.3333333333333,4,1,10,48,0,1
32379,-83.3333333333333,4,1,11,48,0,1
32456,-83.3333333333333,4,1,3,48,0,1
32763,-83.3333333333333,4,1,4,48,0,1
32917,-83.3333333333333,4,1,3,48,0,1
33071,-83.3333333333333,4,1,5,48,0,1
33225,-83.3333333333333,4,1,3,48,0,1
33379,-83.3333333333333,4,1,6,48,0,1
33532,-83.3333333333333,4,1,1,48,0,1
33686,-83.3333333333333,4,1,4,48,0,1
33840,-83.3333333333333,4,1,3,48,0,1
33994,-83.3333333333333,4,1,6,48,0,1
34148,-83.3333333333333,4,1,7,48,0,1
34302,-83.3333333333333,4,1,5,48,0,1
34532,-83.3333333333333,4,1,3,48,0,1
34763,-83.3333333333333,4,1,7,48,0,1
34917,-83.3333333333333,4,1,3,48,0,1
35225,-83.3333333333333,4,1,6,48,0,1
35379,-83.3333333333333,4,1,3,48,0,1
35532,-83.3333333333333,4,1,4,48,0,1
35686,-83.3333333333333,4,1,3,48,0,1
35840,-83.3333333333333,4,1,4,48,0,1
35994,-83.3333333333333,4,1,3,48,0,1
36148,-83.3333333333333,4,1,4,48,0,1
36302,-83.3333333333333,4,1,8,48,0,1
36379,-83.3333333333333,4,1,6,48,0,1
36456,-83.3333333333333,4,1,4,48,0,1
36532,-83.3333333333333,4,1,6,48,0,1
36609,-83.3333333333333,4,1,4,48,0,1
36686,-83.3333333333333,4,1,3,48,0,1
36763,-83.3333333333333,4,1,5,48,0,1
36994,-83.3333333333333,4,1,3,48,0,1
37071,-83.3333333333333,4,1,4,48,0,1
37225,-83.3333333333333,4,1,3,48,0,1
37686,-83.3333333333333,4,1,4,48,0,1
37840,-83.3333333333333,4,1,3,48,0,1
37994,-83.3333333333333,4,1,5,48,0,1
38148,-83.3333333333333,4,1,3,48,0,1
38302,-83.3333333333333,4,1,6,48,0,1
38609,-83.3333333333333,4,1,4,48,0,1
38763,-83.3333333333333,4,1,3,48,0,1
38917,-83.3333333333333,4,1,9,48,0,1
39071,-83.3333333333333,4,1,3,48,0,1
39225,-83.3333333333333,4,1,5,48,0,1
39379,-83.3333333333333,4,1,10,48,0,1
39456,-83.3333333333333,4,1,11,48,0,1
39532,-83.3333333333333,4,1,10,48,0,1
39686,-83.3333333333333,4,1,12,48,0,1
39763,-83.3333333333333,4,1,1,48,0,1
40302,-83.3333333333333,4,1,3,48,0,1
40456,-83.3333333333333,4,1,5,48,0,1
40686,-83.3333333333333,4,1,7,48,0,1
40763,-83.3333333333333,4,1,1,48,0,1
40917,-83.3333333333333,4,1,9,48,0,1
41071,-83.3333333333333,4,1,12,48,0,1
41225,-83.3333333333333,4,1,3,48,0,1
41302,-83.3333333333333,4,1,5,48,0,1
41379,-83.3333333333333,4,1,12,48,0,1
41456,-83.3333333333333,4,1,5,48,0,1
41532,-83.3333333333333,4,1,12,48,0,1
41609,-83.3333333333333,4,1,11,48,0,1
41686,-83.3333333333333,4,1,10,48,0,1
41763,-83.3333333333333,4,1,12,48,0,1
41840,-83.3333333333333,4,1,5,48,0,1
41917,-83.3333333333333,4,1,12,48,0,1
41994,-83.3333333333333,4,1,11,48,0,1
42071,-83.3333333333333,4,1,3,48,0,1
42148,-83.3333333333333,4,1,10,48,0,1
42225,-83.3333333333333,4,1,11,48,0,1
42302,-133.333333333333,4,2,2,60,0,0
42379,-133.333333333333,4,2,2,50,0,0
42609,-133.333333333333,4,2,2,55,0,0
42917,-133.333333333333,4,2,2,40,0,0
43225,-133.333333333333,4,2,2,35,0,0
43532,-133.333333333333,4,2,2,30,0,0
43609,-133.333333333333,4,2,2,28,0,0
43686,-133.333333333333,4,2,2,26,0,0
43763,-133.333333333333,4,2,2,24,0,0
43840,-133.333333333333,4,2,2,22,0,0
43879,-133.333333333333,4,2,2,20,0,0
43917,-133.333333333333,4,2,2,40,0,0
43956,-133.333333333333,4,2,2,20,0,0
43994,-133.333333333333,4,2,2,40,0,0
44032,-133.333333333333,4,2,2,20,0,0
44071,-133.333333333333,4,2,2,40,0,0
44109,-133.333333333333,4,2,2,20,0,0
44148,-133.333333333333,4,2,2,40,0,0
44167,-133.333333333333,4,2,2,20,0,0
44186,-133.333333333333,4,2,2,40,0,0
44206,-133.333333333333,4,2,2,20,0,0
44225,-133.333333333333,4,2,2,40,0,0
44244,-133.333333333333,4,2,2,20,0,0
44263,-133.333333333333,4,2,2,40,0,0
44282,-133.333333333333,4,2,2,20,0,0
44302,-133.333333333333,4,2,2,40,0,0
44321,-133.333333333333,4,2,2,20,0,0
44340,-133.333333333333,4,2,2,40,0,0
44359,-133.333333333333,4,2,2,20,0,0
44379,-133.333333333333,4,2,2,40,0,0
44398,-133.333333333333,4,2,2,20,0,0
44417,-133.333333333333,4,2,2,40,0,0
44436,-133.333333333333,4,2,2,20,0,0
44456,-133.333333333333,4,2,2,10,0,0
44763,-133.333333333333,4,3,1,50,0,0
45071,-133.333333333333,4,3,1,30,0,0
47071,-133.333333333333,4,3,1,5,0,0
47148,-133.333333333333,4,3,1,5,0,0
47225,-133.333333333333,4,3,1,50,0,0
47532,-133.333333333333,4,3,1,30,0,0
49686,-133.333333333333,4,3,1,50,0,0
49994,-133.333333333333,4,3,1,30,0,0
52148,-133.333333333333,4,3,1,50,0,0
52456,-133.333333333333,4,3,1,30,0,0
54609,-83.3333333333333,4,3,1,60,0,0
54763,-83.3333333333333,4,3,1,5,0,0
54917,-83.3333333333333,4,3,1,60,0,0
55071,-111.111111111111,4,3,1,60,0,0
57071,-83.3333333333333,4,3,1,60,0,0
57225,-83.3333333333333,4,3,1,5,0,0
57379,-111.111111111111,4,3,1,60,0,0
58917,-90.9090909090909,4,3,1,60,0,0
59532,-83.3333333333333,4,3,1,60,0,0
59686,-83.3333333333333,4,3,1,5,0,0
59840,-83.3333333333333,4,3,1,60,0,0
59994,-111.111111111111,4,3,1,60,0,0
61994,-90.9090909090909,4,3,1,60,0,0
64456,-200,4,2,1,30,0,0
64532,-200,4,1,1,15,0,0
66840,-200,4,1,1,5,0,0
66917,-200,4,2,1,30,0,0
66994,-200,4,1,1,15,0,0
69302,-200,4,1,1,5,0,0
69379,-200,4,2,1,30,0,0
69456,-200,4,1,1,15,0,0
71763,-200,4,1,1,5,0,0
71840,-200,4,2,1,30,0,0
71917,-200,4,1,1,15,0,0
72994,-200,4,1,1,5,0,0
73071,-166.666666666667,4,2,1,30,0,0
73148,-166.666666666667,4,1,1,15,0,0
73609,-166.666666666667,4,1,1,5,0,0
73686,-133.333333333333,4,1,1,60,0,0
73994,-66.6666666666667,4,1,1,60,0,0
74071,-66.6666666666667,4,1,1,5,0,0
74302,-133.333333333333,4,2,1,40,0,0
83532,-133.333333333333,4,2,1,50,0,0
83609,-133.333333333333,4,2,1,51,0,0
83686,-133.333333333333,4,2,1,52,0,0
83763,-133.333333333333,4,2,1,53,0,0
83840,-133.333333333333,4,2,1,54,0,0
83917,-133.333333333333,4,2,1,55,0,0
83994,-133.333333333333,4,2,1,56,0,0
84071,-133.333333333333,4,2,1,57,0,0
84148,-76.9230769230769,4,1,13,60,0,1
84456,-76.9230769230769,4,1,14,60,0,1
84609,-76.9230769230769,4,1,15,60,0,1
84686,-76.9230769230769,4,1,6,60,0,1
84917,-76.9230769230769,4,1,13,60,0,1
85071,-76.9230769230769,4,1,16,60,0,1
85225,-76.9230769230769,4,1,17,70,0,1
85456,-76.9230769230769,4,1,1,60,0,1
85532,-76.9230769230769,4,1,14,60,0,1
85609,-76.9230769230769,4,1,14,60,0,1
85686,-76.9230769230769,4,1,13,60,0,1
85840,-76.9230769230769,4,1,11,65,0,1
85994,-76.9230769230769,4,1,18,60,0,1
86148,-76.9230769230769,4,1,13,60,0,1
86302,-76.9230769230769,4,1,15,60,0,1
86456,-76.9230769230769,4,1,16,60,0,1
86609,-76.9230769230769,4,1,15,60,0,1
86763,-76.9230769230769,4,1,13,60,0,1
87071,-76.9230769230769,4,1,15,60,0,1
87225,-76.9230769230769,4,1,13,60,0,1
87379,-76.9230769230769,4,1,14,60,0,1
87532,-76.9230769230769,4,1,15,60,0,1
87686,-76.9230769230769,4,1,18,60,0,1
87840,-76.9230769230769,4,1,15,60,0,1
87994,-76.9230769230769,4,1,14,50,0,1
88071,-76.9230769230769,4,1,13,50,0,1
88148,-76.9230769230769,4,1,3,50,0,1
88225,-76.9230769230769,4,1,14,50,0,1
88302,-76.9230769230769,4,1,19,50,0,1
88379,-76.9230769230769,4,1,20,50,0,1
88456,-76.9230769230769,4,1,19,60,0,1
88532,-76.9230769230769,4,1,20,60,0,1
88609,-76.9230769230769,4,1,19,60,0,1
88686,-76.9230769230769,4,1,21,60,0,1
88763,-76.9230769230769,4,1,14,60,0,1
88840,-76.9230769230769,4,1,21,60,0,1
88917,-76.9230769230769,4,1,3,60,0,1
88994,-76.9230769230769,4,1,13,60,0,1
89071,-76.9230769230769,4,1,15,60,0,1
89225,-76.9230769230769,4,1,1,60,0,1
89532,-76.9230769230769,4,1,13,60,0,1
89840,-76.9230769230769,4,1,14,60,0,1
89994,-76.9230769230769,4,1,15,60,0,1
90148,-76.9230769230769,4,1,16,60,0,1
90302,-76.9230769230769,4,1,15,60,0,1
90456,-76.9230769230769,4,1,19,60,0,1
90532,-76.9230769230769,4,1,14,60,0,1
90609,-76.9230769230769,4,1,3,60,0,1
90763,-76.9230769230769,4,1,13,60,0,1
90917,-76.9230769230769,4,1,15,60,0,1
91071,-76.9230769230769,4,1,13,60,0,1
91225,-76.9230769230769,4,1,3,60,0,1
91379,-76.9230769230769,4,1,14,60,0,1
91532,-76.9230769230769,4,1,13,60,0,1
91609,-76.9230769230769,4,1,3,60,0,1
91686,-76.9230769230769,4,1,14,60,0,1
91763,-76.9230769230769,4,1,20,60,0,1
91840,-76.9230769230769,4,1,19,60,0,1
91917,-76.9230769230769,4,1,20,60,0,1
91994,-76.9230769230769,4,1,19,60,0,1
92071,-76.9230769230769,4,1,21,60,0,1
92148,-76.9230769230769,4,1,14,60,0,1
92225,-76.9230769230769,4,1,19,60,0,1
92302,-76.9230769230769,4,1,21,60,0,1
92379,-76.9230769230769,4,1,14,60,0,1
92456,-76.9230769230769,4,1,13,60,0,1
92532,-76.9230769230769,4,1,20,60,0,1
92609,-76.9230769230769,4,1,3,60,0,1
92686,-76.9230769230769,4,1,13,60,0,1
92763,-76.9230769230769,4,1,3,60,0,1
92840,-76.9230769230769,4,1,14,60,0,1
92917,-76.9230769230769,4,1,3,60,0,1
92994,-76.9230769230769,4,1,13,60,0,1
93071,-76.9230769230769,4,1,15,60,0,1
93148,-76.9230769230769,4,1,13,60,0,1
93225,-76.9230769230769,4,1,15,60,0,1
93302,-76.9230769230769,4,1,16,60,0,1
93379,-76.9230769230769,4,1,18,70,0,1
93456,-76.9230769230769,4,1,16,70,0,1
93532,-76.9230769230769,4,1,18,70,0,1
93609,-76.9230769230769,4,1,17,70,0,1
93686,-76.9230769230769,4,1,11,70,0,1
93763,-76.9230769230769,4,1,18,70,0,1
93840,-76.9230769230769,4,1,16,70,0,1
93917,-76.9230769230769,4,1,13,70,0,1
93994,-76.9230769230769,4,1,16,60,0,1
94148,-76.9230769230769,4,1,1,60,0,1
94456,-76.9230769230769,4,1,15,60,0,1
94763,-76.9230769230769,4,1,13,60,0,1
94917,-76.9230769230769,4,1,16,60,0,1
95071,-76.9230769230769,4,1,17,70,0,1
95379,-76.9230769230769,4,1,11,60,0,1
95532,-76.9230769230769,4,1,18,60,0,1
95686,-76.9230769230769,4,1,13,60,0,1
95840,-76.9230769230769,4,1,15,60,0,1
95994,-76.9230769230769,4,1,13,60,0,1
96148,-76.9230769230769,4,1,11,70,0,1
96225,-76.9230769230769,4,1,18,70,0,1
96302,-76.9230769230769,4,1,11,70,0,1
96379,-76.9230769230769,4,1,17,70,0,1
96456,-76.9230769230769,4,1,22,70,0,1
96532,-76.9230769230769,4,1,17,60,0,1
96609,-76.9230769230769,4,1,11,60,0,1
96686,-76.9230769230769,4,1,18,60,0,1
96763,-76.9230769230769,4,1,15,60,0,1
96840,-76.9230769230769,4,1,13,60,0,1
96917,-76.9230769230769,4,1,3,60,0,1
96994,-76.9230769230769,4,1,14,60,0,1
97071,-76.9230769230769,4,1,3,60,0,1
97148,-76.9230769230769,4,1,14,60,0,1
97225,-76.9230769230769,4,1,3,60,0,1
97302,-76.9230769230769,4,1,13,60,0,1
97379,-76.9230769230769,4,1,15,60,0,1
97456,-76.9230769230769,4,1,13,60,0,1
97532,-76.9230769230769,4,1,15,60,0,1
97609,-76.9230769230769,4,1,16,60,0,1
97686,-76.9230769230769,4,1,99,75,0,1
98148,-76.9230769230769,4,1,98,80,0,1
98456,-76.9230769230769,4,1,97,80,0,1
98763,-76.9230769230769,4,1,96,80,0,1
98917,-76.9230769230769,4,3,0,40,0,1
99225,-76.9230769230769,4,1,13,60,0,1
99379,-76.9230769230769,4,1,23,60,0,1
99456,-76.9230769230769,4,1,13,60,0,1
99532,-76.9230769230769,4,1,3,60,0,1
99686,-76.9230769230769,4,1,13,60,0,1
99840,-76.9230769230769,4,1,24,60,0,1
99994,-76.9230769230769,4,1,18,60,0,1
100302,-76.9230769230769,4,1,14,60,0,1
100456,-76.9230769230769,4,1,13,60,0,1
100609,-76.9230769230769,4,1,3,60,0,1
100917,-76.9230769230769,4,1,13,60,0,1
101071,-76.9230769230769,4,1,24,60,0,1
101225,-76.9230769230769,4,1,18,60,0,1
101379,-76.9230769230769,4,1,13,60,0,1
101456,-76.9230769230769,4,1,3,60,0,1
101686,-76.9230769230769,4,1,19,60,0,1
101763,-76.9230769230769,4,1,20,60,0,1
101840,-76.9230769230769,4,1,19,60,0,1
101917,-76.9230769230769,4,1,21,60,0,1
101994,-76.9230769230769,4,1,14,60,0,1
102071,-76.9230769230769,4,1,21,60,0,1
102148,-76.9230769230769,4,1,14,60,0,1
102225,-76.9230769230769,4,1,3,60,0,1
102302,-76.9230769230769,4,1,13,60,0,1
102456,-76.9230769230769,4,1,15,60,0,1
102532,-76.9230769230769,4,1,16,60,0,1
102609,-76.9230769230769,4,1,15,60,0,1
102686,-76.9230769230769,4,1,13,60,0,1
102763,-76.9230769230769,4,1,15,60,0,1
102840,-76.9230769230769,4,1,16,60,0,1
102917,-76.9230769230769,4,1,18,60,0,1
102994,-76.9230769230769,4,1,15,60,0,1
103071,-76.9230769230769,4,1,16,60,0,1
103148,-76.9230769230769,4,1,18,60,0,1
103225,-76.9230769230769,4,1,11,70,0,1
103302,-76.9230769230769,4,1,18,70,0,1
103379,-76.9230769230769,4,1,11,70,0,1
103456,-76.9230769230769,4,1,17,70,0,1
103532,-76.9230769230769,4,1,22,70,0,1
103609,-76.9230769230769,4,1,17,70,0,1
103686,-76.9230769230769,4,1,22,70,0,1
103763,-76.9230769230769,4,1,25,70,0,1
103840,-133.333333333333,4,2,2,60,0,0

[Colours]
Combo1 : 255,164,164
Combo2 : 141,100,251
Combo3 : 70,112,255
Combo4 : 123,123,123
Combo5 : 225,225,225
Combo6 : 157,241,253
Combo7 : 255,200,237
Combo8 : 255,51,51
SliderTrackOverride : 40,40,40

[HitObjects]
372,51,10302,38,0,P|363:93|373:138,1,72.0000027465821,2|0,0:0|0:0,0:0:0:0:
451,90,10609,1,0,0:0:0:0:
258,190,10763,2,0,B|338:164|322:224|400:195,1,144.000005493164
286,337,11225,2,0,P|295:295|285:250,1,72.0000027465821
208,297,11532,5,0,0:0:0:0:
91,159,11686,1,0,0:0:0:0:
91,159,11840,2,0,P|92:125|86:79,1,72.0000027465821,8|0,0:0|0:0,0:0:0:0:
232,143,12148,2,0,P|227:181|227:223,1,72.0000027465821,4|0,0:0|0:0,0:0:0:0:
96,314,12456,2,0,P|137:282|203:295,1,108.000004119873
209,296,12763,102,0,L|298:285,1,72.0000027465821,8|0,0:0|0:0,0:0:0:0:
362,324,13071,1,0,0:0:0:0:
484,205,13225,2,0,P|403:201|352:261,1,144.000005493164
359,241,13686,2,0,P|360:203|358:146,1,72.0000027465821
300,43,13994,6,0,P|286:84|304:136,1,72.0000027465821
439,279,14302,1,8,0:0:0:0:
277,195,14456,1,0,0:0:0:0:
430,119,14609,2,0,L|515:107,2,72.0000027465821,4|0|0,0:0|0:0|0:0,0:0:0:0:
359,241,15071,1,0,0:0:0:0:
222,53,15225,102,0,B|213:91|213:91|224:133,1,72.0000027465821,8|0,0:0|0:0,0:0:0:0:
298,90,15532,1,0,0:0:0:0:
136,209,15686,2,0,B|187:198|187:198|225:207|225:207|280:194,1,144.000005493164
185,351,16148,2,0,B|194:313|194:313|183:271,1,72.0000027465821
106,312,16456,5,0,0:0:0:0:
284,310,16609,1,0,0:0:0:0:
284,310,16763,2,0,L|369:304,1,72.0000027465821,8|0,0:0|0:0,0:0:0:0:
474,177,17071,101,4,0:0:0:0:
355,304,17225,1,0,0:0:0:0:
321,119,17379,5,0,0:0:0:0:
441,261,17533,1,0,0:0:0:0:
259,183,17686,102,0,L|98:171,1,144.000005493164,8|0,0:0|0:0,0:0:0:0:
115,172,18148,1,0,0:0:0:0:
337,156,18302,2,0,P|343:193|330:227,1,72.0000027465821,4|0,0:0|0:0,0:0:0:0:
251,335,18609,2,0,P|245:298|257:263,1,72.0000027465821
331,303,18917,5,0,0:0:0:0:
169,256,19071,1,0,0:0:0:0:
326,190,19225,101,8,0:0:0:0:
164,237,19379,1,0,0:0:0:0:
141,116,19532,5,4,0:0:0:0:
338,170,19686,1,0,0:0:0:0:
351,43,19840,101,8,0:0:0:0:
135,97,19994,1,0,0:0:0:0:
256,192,20148,5,2,0:0:0:0:
256,192,20225,12,0,21379,0:0:0:0:
213,55,22302,37,8,0:0:0:0:
211,75,22379,1,8,0:0:0:0:
277,124,22456,5,8,0:0:0:0:
279,144,22533,1,8,0:0:0:0:
214,197,22609,6,0,B|156:191|156:191|93:216,1,115.199996484375,6|6,0:0|0:0,0:0:0:0:
170,333,22840,1,0,0:0:0:0:
170,333,22917,2,0,P|170:302|166:270,1,57.5999982421876,10|0,0:0|0:0,0:0:0:0:
301,230,23071,2,0,P|301:199|305:167,1,57.5999982421876,2|0,0:0|0:0,0:0:0:0:
137,53,23225,6,0,P|137:84|141:116,1,57.5999982421876,6|0,0:0|0:0,0:0:0:0:
214,197,23379,1,10,0:0:0:0:
375,30,23532,2,0,B|400:74|400:74|382:142,1,115.199996484375,2|4,0:0|0:0,0:0:0:0:
383,136,23763,1,0,0:0:0:0:
383,136,23840,102,0,P|425:132|469:131,1,57.5999982421876,2|0,0:0|0:0,0:0:0:0:
300,80,23994,2,0,P|258:84|214:85,1,57.5999982421876,6|0,0:0|0:0,0:0:0:0:
175,214,24148,2,0,P|232:204|302:244,1,115.199996484375,10|6,0:0|0:0,0:0:0:0:
360,277,24379,1,0,0:0:0:0:
360,277,24456,6,0,P|368:239|371:192,1,57.5999982421876,2|0,0:0|0:0,0:0:0:0:
222,289,24609,2,0,P|214:327|211:374,1,57.5999982421876,4|2,0:0|0:0,0:0:0:0:
155,100,24763,2,0,L|179:242,1,115.199996484375,8|2,0:0|0:0,0:0:0:0:
301,338,25071,101,6,0:0:0:0:
88,212,25225,2,0,P|93:243|93:284,1,57.5999982421876,6|0,0:0|0:0,0:0:0:0:
55,343,25379,2,0,P|106:315|173:327,1,115.199996484375,10|6,0:0|0:0,0:0:0:0:
241,278,25609,1,0,0:0:0:0:
241,278,25686,6,0,P|239:246|242:211,1,57.5999982421876,2|0,0:0|0:0,0:0:0:0:
411,89,25840,2,0,P|413:121|410:156,1,57.5999982421876,10|0,0:0|0:0,0:0:0:0:
328,239,25994,102,0,P|330:207|327:172,1,57.5999982421876,2|0,0:0|0:0,0:0:0:0:
158,50,26148,2,0,P|156:82|159:117,1,57.5999982421876,6|0,0:0|0:0,0:0:0:0:
60,230,26302,6,0,P|109:192|183:204,1,115.199996484375,2|6,0:0|0:0,0:0:0:0:
233,241,26532,1,6,0:0:0:0:
249,258,26609,2,0,P|251:226|248:191,1,57.5999982421876,10|2,0:0|0:0,0:0:0:0:
73,60,26763,2,0,P|71:92|74:127,1,57.5999982421876,6|2,0:0|0:0,0:0:0:0:
134,384,26917,102,0,B|147:326|147:326|128:258,1,115.199996484375,10|0,0:0|0:0,0:0:0:0:
18,319,27148,1,6,0:0:0:0:
0,330,27225,2,0,P|31:336|57:334,1,57.5999982421876,6|0,0:0|0:0,0:0:0:0:
113,192,27379,2,0,P|141:191|170:197,1,57.5999982421876,10|0,0:0|0:0,0:0:0:0:
267,332,27532,6,0,P|312:292|386:299,1,115.199996484375,6|6,0:0|0:0,0:0:0:0:
451,252,27763,1,0,0:0:0:0:
451,252,27840,2,0,P|448:284|452:316,1,57.5999982421876,10|0,0:0|0:0,0:0:0:0:
250,230,27994,2,0,P|253:198|249:166,1,57.5999982421876,2|0,0:0|0:0,0:0:0:0:
375,42,28148,102,0,P|372:74|376:106,1,57.5999982421876,6|0,0:0|0:0,0:0:0:0:
339,207,28302,1,10,0:0:0:0:
136,187,28456,2,0,L|268:170,1,115.199996484375,2|4,0:0|0:0,0:0:0:0:
250,172,28686,1,0,0:0:0:0:
250,172,28763,6,0,P|256:139|247:96,1,57.5999982421876,2|0,0:0|0:0,0:0:0:0:
97,252,28917,1,6,0:0:0:0:
75,118,29071,102,0,P|69:84|78:41,1,57.5999982421876,10|0,0:0|0:0,0:0:0:0:
171,286,29225,1,6,0:0:0:0:
324,209,29379,6,0,P|338:152|329:81,1,115.199996484375,2|6,0:0|0:0,0:0:0:0:
251,64,29609,1,2,0:0:0:0:
251,64,29686,2,0,P|246:96|258:137,1,57.5999982421876,10|0,0:0|0:0,0:0:0:0:
417,119,29840,2,0,P|422:87|410:46,1,57.5999982421876,6|0,0:0|0:0,0:0:0:0:
324,209,29994,102,0,B|301:255|301:255|321:323,1,115.199996484375,0|4,0:0|0:0,0:0:0:0:
336,341,30225,1,0,0:0:0:0:
336,341,30302,2,0,P|305:341|259:343,1,57.5999982421876,8|0,0:0|0:0,0:0:0:0:
153,255,30456,2,0,P|184:255|230:253,1,57.5999982421876,6|0,0:0|0:0,0:0:0:0:
394,264,30609,5,2,0:0:0:0:
412,278,30686,2,0,P|423:246|415:196,1,57.5999982421876,4|8,0:0|0:0,0:0:0:0:
291,110,30840,101,2,0:0:0:0:
273,96,30917,2,0,P|262:128|270:178,1,57.5999982421876,4|4,0:0|0:0,0:0:0:0:
336,341,31071,1,6,0:0:0:0:
377,133,31225,5,10,0:0:0:0:
173,239,31379,1,6,0:0:0:0:
158,249,31456,1,2,0:0:0:0:
143,258,31532,2,0,P|139:224|143:183,1,57.5999982421876,10|2,0:0|0:0,0:0:0:0:
280,46,31686,2,0,P|284:80|280:121,1,57.5999982421876,6|6,0:0|0:0,0:0:0:0:
71,150,31840,101,10,0:0:0:0:
100,123,31917,1,2,0:0:0:0:
139,114,31994,1,6,0:0:0:0:
178,124,32071,1,6,0:0:0:0:
209,150,32148,1,6,0:0:0:0:
238,175,32225,1,6,0:0:0:0:
278,185,32302,1,10,0:0:0:0:
317,177,32379,1,10,0:0:0:0:
348,153,32456,6,0,P|397:120|466:128,1,115.199996484375,6|6,0:0|0:0,0:0:0:0:
421,260,32686,1,0,0:0:0:0:
421,260,32763,2,0,P|418:222|421:187,1,57.5999982421876,10|0,0:0|0:0,0:0:0:0:
284,45,32917,2,0,P|284:73|281:102,1,57.5999982421876,2|0,0:0|0:0,0:0:0:0:
273,310,33071,102,0,P|270:272|273:237,1,57.5999982421876,6|0,0:0|0:0,0:0:0:0:
348,153,33225,1,10,0:0:0:0:
83,96,33379,2,0,L|209:79,1,115.199996484375,2|4,0:0|0:0,0:0:0:0:
197,80,33609,1,0,0:0:0:0:
197,80,33686,6,0,P|191:120|191:148,1,57.5999982421876,2|0,0:0|0:0,0:0:0:0:
48,169,33840,2,0,P|54:208|54:236,1,57.5999982421876,6|0,0:0|0:0,0:0:0:0:
254,314,33994,102,0,P|252:259|259:196,1,115.199996484375,10|6,0:0|0:0,0:0:0:0:
337,247,34225,1,0,0:0:0:0:
337,247,34302,2,0,B|364:235|364:235|392:233,1,57.5999982421876,2|0,0:0|0:0,0:0:0:0:
162,329,34456,2,0,B|135:317|135:317|106:315,1,57.5999982421876,4|2,0:0|0:0,0:0:0:0:
188,159,34609,2,0,P|225:126|313:142,1,115.199996484375,8|2,0:0|0:0,0:0:0:0:
382,316,34917,5,6,0:0:0:0:
369,137,35071,2,0,L|417:168,1,57.5999982421876,6|0,0:0|0:0,0:0:0:0:
360,227,35225,2,0,B|319:202|319:202|248:211,1,115.199996484375,10|6,0:0|0:0,0:0:0:0:
230,133,35456,1,0,0:0:0:0:
230,133,35532,102,0,L|306:123,1,57.5999982421876,2|0,0:0|0:0,0:0:0:0:
302,285,35686,2,0,L|226:295,1,57.5999982421876,10|0,0:0|0:0,0:0:0:0:
195,217,35840,6,0,L|271:207,1,57.5999982421876,2|0,0:0|0:0,0:0:0:0:
267,369,35994,2,0,L|191:379,1,57.5999982421876,6|0,0:0|0:0,0:0:0:0:
17,145,36148,102,0,P|75:138|136:183,1,115.199996484375,2|6,0:0|0:0,0:0:0:0:
74,258,36379,1,6,0:0:0:0:
62,277,36456,2,0,P|56:245|63:203,1,57.5999982421876,10|2,0:0|0:0,0:0:0:0:
143,25,36609,2,0,P|148:56|141:98,1,57.5999982421876,6|2,0:0|0:0,0:0:0:0:
237,153,36763,6,0,L|88:168,1,115.199996484375,10|0,0:0|0:0,0:0:0:0:
215,235,36994,1,6,0:0:0:0:
238,232,37071,2,0,L|316:222,1,57.5999982421876,6|0,0:0|0:0,0:0:0:0:
333,73,37225,2,0,L|275:80,1,57.5999982421876,10|0,0:0|0:0,0:0:0:0:
152,330,37379,102,0,P|197:342|272:310,1,115.199996484375,6|6,0:0|0:0,0:0:0:0:
345,296,37609,1,0,0:0:0:0:
345,296,37686,2,0,P|339:330|340:358,1,57.5999982421876,10|0,0:0|0:0,0:0:0:0:
198,202,37840,2,0,P|204:236|203:264,1,57.5999982421876,2|0,0:0|0:0,0:0:0:0:
363,103,37994,6,0,P|357:137|358:165,1,57.5999982421876,6|0,0:0|0:0,0:0:0:0:
287,239,38148,1,10,0:0:0:0:
129,155,38302,2,0,P|169:124|252:140,1,115.199996484375,2|4,0:0|0:0,0:0:0:0:
259,146,38532,1,0,0:0:0:0:
258,145,38609,102,0,L|264:69,1,57.5999982421876,2|0,0:0|0:0,0:0:0:0:
120,237,38763,1,6,0:0:0:0:
59,99,38917,6,0,L|53:23,1,57.5999982421876,10|0,0:0|0:0,0:0:0:0:
198,202,39071,1,6,0:0:0:0:
349,63,39225,102,0,L|338:185,1,115.199996484375,2|6,0:0|0:0,0:0:0:0:
414,224,39456,1,6,0:0:0:0:
414,224,39532,2,0,B|424:197|424:197|421:162,1,57.5999982421876,10|0,0:0|0:0,0:0:0:0:
262,152,39686,2,0,B|252:179|252:179|255:214,1,57.5999982421876,6|0,0:0|0:0,0:0:0:0:
335,371,39840,6,0,B|314:321|314:321|328:249,1,115.199996484375,0|4,0:0|0:0,0:0:0:0:
458,316,40071,1,0,0:0:0:0:
458,316,40148,2,0,P|429:318|383:312,1,57.5999982421876,8|0,0:0|0:0,0:0:0:0:
203,204,40302,2,0,P|231:201|260:203,1,57.5999982421876,6|0,0:0|0:0,0:0:0:0:
392,169,40456,101,2,0:0:0:0:
413,161,40532,2,0,L|403:253,1,57.5999982421876,4|8,0:0|0:0,0:0:0:0:
248,333,40686,5,2,0:0:0:0:
227,341,40763,2,0,L|237:249,1,57.5999982421876,4|4,0:0|0:0,0:0:0:0:
248,89,40917,1,6,0:0:0:0:
325,261,41071,101,10,0:0:0:0:
167,66,41225,2,0,L|177:158,1,57.5999982421876,6|2,0:0|0:0,0:0:0:0:
147,331,41379,2,0,L|157:239,1,57.5999982421876,10|2,0:0|0:0,0:0:0:0:
34,137,41532,2,0,L|44:229,1,57.5999982421876,6|6,0:0|0:0,0:0:0:0:
214,201,41686,5,10,0:0:0:0:
245,175,41762,1,2,0:0:0:0:
284,166,41840,1,6,0:0:0:0:
323,175,41916,1,6,0:0:0:0:
354,199,41994,1,10,0:0:0:0:
377,232,42070,1,10,0:0:0:0:
412,251,42147,1,10,0:0:0:0:
452,253,42225,1,10,0:0:0:0:
488,236,42301,5,2,0:0:0:0:
256,192,42379,12,0,44456,0:0:0:0:
142,148,44763,54,0,L|136:120,8,18.0000006866455,4|0|0|0|0|0|0|0|0,0:0|0:0|0:0|0:0|0:0|0:0|0:0|0:0|0:0,0:0:0:0:
134,163,45225,1,4,0:0:0:0:
359,210,45532,53,0,0:0:0:0:
278,241,45686,1,0,0:0:0:0:
346,296,45840,1,0,0:0:0:0:
45,149,46148,5,0,0:0:0:0:
228,164,46302,1,0,0:0:0:0:
215,179,46609,1,0,0:0:0:0:
200,193,46917,2,0,P|191:124|212:72,1,108.000004119873
215,72,47225,38,0,L|223:48,8,18.0000006866455,4|0|0|0|0|0|0|0|0,0:0|0:0|0:0|0:0|0:0|0:0|0:0|0:0|0:0,0:0:0:0:
202,88,47686,1,4,0:0:0:0:
346,296,47994,53,0,0:0:0:0:
359,210,48148,1,0,0:0:0:0:
372,124,48302,1,0,0:0:0:0:
110,288,48609,5,0,0:0:0:0:
278,241,48763,1,0,0:0:0:0:
266,254,49071,2,0,P|268:218|261:176,1,72.0000027465821
354,293,49379,2,0,P|352:329|359:371,1,72.0000027465821
419,229,49686,38,0,L|427:199,8,18.0000006866455,4|0|0|0|0|0|0|0|0,0:0|0:0|0:0|0:0|0:0|0:0|0:0|0:0|0:0,0:0:0:0:
430,245,50148,1,4,0:0:0:0:
153,174,50456,53,0,0:0:0:0:
234,143,50610,1,0,0:0:0:0:
166,88,50764,1,0,0:0:0:0:
327,246,51071,5,0,0:0:0:0:
512,220,51225,1,0,0:0:0:0:
500,234,51532,2,0,P|496:197|501:153,1,72.0000027465821
352,97,51840,2,0,P|356:134|351:178,1,72.0000027465821
327,246,52148,38,0,L|337:274,8,18.0000006866455,4|0|0|0|0|0|0|0|0,0:0|0:0|0:0|0:0|0:0|0:0|0:0|0:0|0:0,0:0:0:0:
315,236,52609,1,4,0:0:0:0:
166,88,52917,53,0,0:0:0:0:
153,174,53071,1,0,0:0:0:0:
140,260,53225,1,0,0:0:0:0:
402,190,53532,5,0,0:0:0:0:
234,143,53686,1,0,0:0:0:0:
402,190,53840,1,0,0:0:0:0:
278,312,53994,101,0,0:0:0:0:
434,113,54148,1,0,0:0:0:0:
321,210,54302,5,0,0:0:0:0:
459,254,54456,1,0,0:0:0:0:
340,135,54609,6,0,B|309:96|256:101|256:101|231:145|173:140,1,172.799994726563,4|0,0:0|0:0,0:0:0:0:
192,140,54917,1,8,0:0:0:0:
99,66,55071,2,0,P|147:64|204:60,1,86.3999973632813,4|0,0:0|0:0,0:0:0:0:
276,196,55379,1,4,0:0:0:0:
326,24,55532,1,0,0:0:0:0:
194,153,55686,6,0,B|185:197|185:197|198:253,1,86.3999973632813,8|0,0:0|0:0,0:0:0:0:
118,283,55994,1,4,0:0:0:0:
276,196,56148,1,0,0:0:0:0:
114,116,56302,1,8,0:0:0:0:
267,318,56456,102,0,P|264:293|266:252,1,43.1999986816407,4|0,0:0|0:0,0:0:0:0:
343,106,56609,2,0,P|346:131|344:172,1,43.1999986816407,4|0,0:0|0:0,0:0:0:0:
423,287,56763,1,8,0:0:0:0:
260,184,56917,1,0,0:0:0:0:
442,91,57071,6,0,B|407:93|380:80|380:80|359:86|332:91|332:91|306:80|270:78,1,172.799994726563,4|0,0:0|0:0,0:0:0:0:
273,78,57379,1,8,0:0:0:0:
134,149,57532,2,0,P|182:147|232:150,1,86.3999973632813,4|0,0:0|0:0,0:0:0:0:
339,10,57840,1,4,0:0:0:0:
303,188,57994,1,0,0:0:0:0:
140,66,58148,102,0,B|124:108|124:108|139:170,1,86.3999973632813,8|0,0:0|0:0,0:0:0:0:
249,354,58456,1,4,0:0:0:0:
249,354,58532,1,4,0:0:0:0:
249,354,58609,2,0,P|248:326|252:291,1,43.1999986816407,8|0,0:0|0:0,0:0:0:0:
208,113,58763,1,4,0:0:0:0:
345,127,58917,22,0,L|263:120,1,52.8000016113282,8|0,0:0|0:0,0:0:0:0:
72,103,59071,2,0,L|154:110,1,52.8000016113282,4|0,0:0|0:0,0:0:0:0:
348,90,59225,6,0,L|266:104,1,52.8000016113282,4|0,0:0|0:0,0:0:0:0:
78,137,59379,2,0,L|159:122,1,52.8000016113282,8|0,0:0|0:0,0:0:0:0:
262,227,59532,70,0,B|318:240|390:216|390:216|367:229|353:252,1,172.799994726563,4|0,0:0|0:0,0:0:0:0:
358,244,59840,1,8,0:0:0:0:
434,375,59994,2,0,P|443:334|421:287,1,86.3999973632813,4|0,0:0|0:0,0:0:0:0:
340,147,60302,1,4,0:0:0:0:
305,323,60456,1,0,0:0:0:0:
180,200,60609,2,0,P|180:178|177:156,1,43.1999986816407,8|0,0:0|0:0,0:0:0:0:
201,29,60763,5,0,0:0:0:0:
105,251,60917,1,4,0:0:0:0:
264,182,61071,101,4,0:0:0:0:
97,124,61225,1,8,0:0:0:0:
322,70,61379,6,0,P|322:92|319:114,1,43.1999986816407,4|0,0:0|0:0,0:0:0:0:
368,295,61532,2,0,P|368:273|371:251,1,43.1999986816407,4|0,0:0|0:0,0:0:0:0:
437,128,61686,1,8,0:0:0:0:
275,198,61840,1,4,0:0:0:0:
456,291,61994,101,4,0:0:0:0:
258,186,62148,1,8,0:0:0:0:
258,186,62302,1,4,0:0:0:0:
316,68,62456,5,4,0:0:0:0:
211,265,62610,1,8,0:0:0:0:
211,265,62763,1,4,0:0:0:0:
96,204,62917,101,4,0:0:0:0:
293,309,63071,1,8,0:0:0:0:
129,338,63225,6,0,P|129:307|122:268,1,52.8000016113282,4|4,0:0|0:0,0:0:0:0:
96,204,63379,1,8,0:0:0:0:
213,371,63532,1,4,0:0:0:0:
44,322,63686,1,4,0:0:0:0:
215,250,63840,102,0,P|215:219|222:180,1,52.8000016113282,8|0,0:0|0:0,0:0:0:0:
115,91,63994,1,4,0:0:0:0:
115,91,64071,1,4,0:0:0:0:
115,91,64148,2,0,P|118:64|117:38,1,52.8000016113282,8|8,0:0|0:0,0:0:0:0:
284,73,64302,2,0,P|284:104|277:143,1,52.8000016113282,8|8,0:0|0:0,0:0:0:0:
92,170,64456,86,0,B|158:183|196:115|196:115|166:192|240:300|206:333|133:361|106:317|79:275|106:236|152:235|203:226|203:226|252:255|298:222|298:222|246:279|286:337,1,744,2|0,0:0|0:0,0:0:0:0:
351,286,66917,6,0,B|402:275|404:218|404:218|404:255|436:256|435:308|435:308|465:232|503:181|430:129|375:153|375:153|305:69|416:-4|416:-4|441:77|402:129,1,744,2|0,0:0|0:0,0:0:0:0:
328,215,69379,102,0,B|298:202|267:210|267:210|243:176|243:176|158:146|108:104|184:37|271:58|252:140|160:205|160:205|131:203|85:157|92:101|92:101|42:211|124:158|74:283,1,744,2|0,0:0|0:0,0:0:0:0:
65,354,71840,6,0,B|19:231|139:190|199:255|199:255|242:304|315:265,1,360,2|0,0:0|0:0,0:0:0:0:
337,198,73071,2,0,B|336:144|298:110|298:110|259:142|261:207,1,201.599993847656,2|0,0:0|0:0,0:0:0:0:
297,273,73686,38,0,L|294:321,3,36.0000013732911
174,193,73994,2,0,L|160:105,1,72.0000027465821
337,198,74302,53,2,0:0:0:0:
205,274,74456,1,0,0:0:0:0:
383,302,74609,1,0,0:0:0:0:
241,130,74763,2,0,P|253:164|251:205,1,72.0000027465821,2|0,0:0|0:0,0:0:0:0:
216,343,75071,2,0,P|204:309|206:268,1,72.0000027465821,2|0,0:0|0:0,0:0:0:0:
46,169,75379,6,0,P|112:153|171:212,1,144.000005493164,2|0,0:0|0:0,0:0:0:0:
289,298,75840,1,0,0:0:0:0:
367,141,75994,2,0,B|399:192|399:192|373:279,1,144.000005493164,2|0,0:0|0:0,0:0:0:0:
304,209,76456,1,2,0:0:0:0:
482,174,76609,1,0,0:0:0:0:
315,78,76763,101,2,0:0:0:0:
375,272,76917,1,0,0:0:0:0:
315,78,77071,1,0,0:0:0:0:
163,212,77225,6,0,B|217:205|217:205|254:217|254:217|310:207,1,144.000005493164,2|0,0:0|0:0,0:0:0:0:
206,289,77686,1,0,0:0:0:0:
310,128,77840,102,0,B|260:136|260:136|223:124|223:124|169:131,1,144.000005493164,2|0,0:0|0:0,0:0:0:0:
274,55,78302,1,0,0:0:0:0:
214,208,78456,6,0,B|186:262|186:262|213:344,1,144.000005493164,2|0,0:0|0:0,0:0:0:0:
279,268,78917,1,0,0:0:0:0:
104,250,79071,1,0,0:0:0:0:
245,132,79225,101,2,0:0:0:0:
212,341,79379,1,0,0:0:0:0:
245,132,79532,1,0,0:0:0:0:
422,254,79686,2,0,L|278:267,1,144.000005493164,2|2,0:0|0:0,0:0:0:0:
199,230,80148,1,0,0:0:0:0:
134,285,80302,6,0,B|115:250|115:250|117:195,1,72.0000027465821,2|0,0:0|0:0,0:0:0:0:
278,267,80609,2,0,B|257:299|257:299|208:326,1,72.0000027465821,2|0,0:0|0:0,0:0:0:0:
183,147,80917,2,0,B|221:148|221:148|269:177,1,72.0000027465821,2|0,0:0|0:0,0:0:0:0:
199,230,81225,1,0,0:0:0:0:
256,75,81379,1,0,0:0:0:0:
278,266,81532,1,0,0:0:0:0:
429,136,81686,101,2,0:0:0:0:
250,165,81840,1,0,0:0:0:0:
365,306,81994,1,0,0:0:0:0:
191,105,82148,2,0,P|170:140|222:244,1,144.000005493164,2|0,0:0|0:0,0:0:0:0:
278,266,82609,1,0,0:0:0:0:
53,290,82763,6,0,L|134:283,1,72.0000027465821,2|0,0:0|0:0,0:0:0:0:
250,165,83071,1,0,0:0:0:0:
207,313,83225,1,0,0:0:0:0:
86,122,83379,1,0,0:0:0:0:
199,231,83532,37,0,0:0:0:0:
265,259,83608,1,0,0:0:0:0:
324,236,83685,1,0,0:0:0:0:
350,193,83762,1,0,0:0:0:0:
367,153,83840,1,0,0:0:0:0:
399,124,83916,1,0,0:0:0:0:
438,124,83993,1,0,0:0:0:0:
463,141,84070,1,0,0:0:0:0:
474,163,84148,22,0,P|442:213|458:294,1,124.79999428711,6|6,0:0|0:0,0:0:0:0:
363,351,84379,1,0,0:0:0:0:
363,351,84456,2,0,P|363:317|359:280,1,62.3999971435548,10|0,0:0|0:0,0:0:0:0:
194,140,84609,2,0,B|261:150|329:133|329:133|306:140|284:166,1,187.199991430664,6|0,0:0|0:0,0:0:0:0:
352,210,84917,1,10,0:0:0:0:
292,60,85071,2,0,P|268:64|202:63,1,62.3999971435548,2|0,0:0|0:0,0:0:0:0:
152,225,85225,2,0,P|176:221|242:222,1,62.3999971435548,6|2,0:0|0:0,0:0:0:0:
357,271,85379,6,0,P|357:240|352:210,1,62.3999971435548,2|0,0:0|0:0,0:0:0:0:
417,93,85532,1,6,0:0:0:0:
417,93,85609,1,0,0:0:0:0:
417,93,85686,2,0,P|423:134|420:169,1,62.3999971435548,10|0,0:0|0:0,0:0:0:0:
273,248,85840,1,6,0:0:0:0:
125,112,85994,102,0,P|158:111|206:98,1,62.3999971435548,6|0,0:0|0:0,0:0:0:0:
300,172,86148,2,0,P|233:175|196:224,1,124.79999428711,10|2,0:0|0:0,0:0:0:0:
123,267,86379,1,0,0:0:0:0:
123,267,86456,2,0,P|122:234|109:186,1,62.3999971435548,6|0,0:0|0:0,0:0:0:0:
273,248,86609,6,0,P|266:310|270:377,1,124.79999428711,2|6,0:0|0:0,0:0:0:0:
356,344,86840,1,0,0:0:0:0:
356,344,86917,2,0,P|360:305|348:267,1,62.3999971435548,8|0,0:0|0:0,0:0:0:0:
186,281,87071,2,0,P|182:320|194:358,1,62.3999971435548,6|0,0:0|0:0,0:0:0:0:
393,166,87225,102,0,B|364:174|364:174|338:192,1,62.3999971435548,6|0,0:0|0:0,0:0:0:0:
156,167,87379,2,0,B|185:174|185:174|211:192,1,62.3999971435548,10|0,0:0|0:0,0:0:0:0:
341,32,87532,2,0,L|346:106,1,62.3999971435548,6|0,0:0|0:0,0:0:0:0:
201,33,87686,2,0,L|196:107,1,62.3999971435548,6|0,0:0|0:0,0:0:0:0:
273,248,87840,5,2,0:0:0:0:
486,180,87994,1,6,0:0:0:0:
452,153,88070,1,2,0:0:0:0:
409,144,88147,1,10,0:0:0:0:
368,157,88224,1,2,0:0:0:0:
337,187,88302,2,0,P|338:155|334:107,1,62.3999971435548,6|2,0:0|0:0,0:0:0:0:
353,272,88456,101,10,0:0:0:0:
329,308,88532,1,2,0:0:0:0:
291,328,88609,1,6,0:0:0:0:
247,327,88686,1,6,0:0:0:0:
210,305,88763,1,10,0:0:0:0:
179,275,88840,1,2,0:0:0:0:
138,261,88916,1,6,0:0:0:0:
95,268,88993,1,2,0:0:0:0:
60,293,89071,6,0,B|46:229|46:229|66:164,1,124.79999428711,2|4,0:0|0:0,0:0:0:0:
35,96,89302,1,0,0:0:0:0:
35,96,89379,2,0,P|74:91|119:99,1,62.3999971435548,8|0,0:0|0:0,0:0:0:0:
239,177,89532,2,0,B|196:179|170:161|170:161|127:183|127:183|96:165|60:173,1,187.199991430664,6|0,0:0|0:0,0:0:0:0:
81,251,89840,1,10,0:0:0:0:
225,95,89994,2,0,P|226:64|221:24,1,62.3999971435548,2|0,0:0|0:0,0:0:0:0:
173,251,90148,2,0,P|172:282|177:322,1,62.3999971435548,6|0,0:0|0:0,0:0:0:0:
62,172,90302,101,2,0:0:0:0:
293,174,90456,2,0,P|262:173|222:178,1,62.3999971435548,6|2,0:0|0:0,0:0:0:0:
12,106,90609,2,0,P|61:88|133:129,1,124.79999428711,10|6,0:0|0:0,0:0:0:0:
136,130,90840,1,0,0:0:0:0:
147,143,90917,6,0,P|145:180|148:224,1,62.3999971435548,6|0,0:0|0:0,0:0:0:0:
230,176,91071,2,0,P|228:213|231:257,1,62.3999971435548,10|0,0:0|0:0,0:0:0:0:
290,362,91225,102,0,P|288:325|291:281,1,62.3999971435548,2|0,0:0|0:0,0:0:0:0:
373,329,91379,2,0,P|371:292|374:248,1,62.3999971435548,6|0,0:0|0:0,0:0:0:0:
456,84,91532,5,2,0:0:0:0:
417,64,91608,1,2,0:0:0:0:
374,66,91685,1,6,0:0:0:0:
339,91,91762,1,2,0:0:0:0:
320,130,91840,2,0,P|323:161|321:207,1,62.3999971435548,10|2,0:0|0:0,0:0:0:0:
476,268,91994,2,0,P|472:236|474:190,1,62.3999971435548,6|2,0:0|0:0,0:0:0:0:
342,146,92148,102,0,P|338:177|340:223,1,62.3999971435548,6|2,0:0|0:0,0:0:0:0:
186,284,92302,2,0,P|189:252|187:206,1,62.3999971435548,10|2,0:0|0:0,0:0:0:0:
115,104,92456,6,0,P|119:135|117:181,1,62.3999971435548,6|2,0:0|0:0,0:0:0:0:
277,326,92609,2,0,P|274:294|276:248,1,62.3999971435548,10|2,0:0|0:0,0:0:0:0:
349,34,92763,101,2,0:0:0:0:
390,47,92839,1,2,0:0:0:0:
420,80,92917,1,6,0:0:0:0:
422,124,92993,1,6,0:0:0:0:
408,166,93070,1,10,0:0:0:0:
374,193,93148,1,2,0:0:0:0:
342,223,93225,1,6,0:0:0:0:
331,264,93301,1,2,0:0:0:0:
337,310,93379,85,10,0:0:0:0:
395,309,93455,1,2,0:0:0:0:
443,274,93532,1,6,0:0:0:0:
465,220,93609,1,6,0:0:0:0:
453,162,93686,1,10,0:0:0:0:
410,120,93763,1,2,0:0:0:0:
352,111,93840,1,6,0:0:0:0:
298,133,93917,1,2,0:0:0:0:
267,184,93994,22,0,P|221:213|137:192,1,124.79999428711,6|4,0:0|0:0,0:0:0:0:
70,174,94225,1,0,0:0:0:0:
70,174,94302,2,0,P|73:211|69:258,1,62.3999971435548,8|0,0:0|0:0,0:0:0:0:
267,184,94456,2,0,B|335:178|335:178|361:164|361:164|390:175|390:175|465:169,1,187.199991430664,6|0,0:0|0:0,0:0:0:0:
448,170,94763,1,10,0:0:0:0:
260,55,94917,2,0,P|293:86|312:125,1,62.3999971435548,2|0,0:0|0:0,0:0:0:0:
345,313,95071,2,0,P|355:268|379:232,1,62.3999971435548,6|2,0:0|0:0,0:0:0:0:
417,98,95225,5,2,0:0:0:0:
267,184,95379,1,6,0:0:0:0:
267,184,95456,1,0,0:0:0:0:
267,184,95532,2,0,P|238:189|187:180,1,62.3999971435548,10|0,0:0|0:0,0:0:0:0:
76,137,95686,2,0,P|105:132|156:141,1,62.3999971435548,6|0,0:0|0:0,0:0:0:0:
267,263,95840,102,0,P|238:268|187:259,1,62.3999971435548,6|0,0:0|0:0,0:0:0:0:
56,158,95994,2,0,P|85:153|136:162,1,62.3999971435548,10|0,0:0|0:0,0:0:0:0:
292,92,96148,1,2,0:0:0:0:
326,66,96224,1,2,0:0:0:0:
369,62,96301,1,6,0:0:0:0:
406,83,96378,1,2,0:0:0:0:
426,122,96456,6,0,P|423:158|428:210,1,62.3999971435548,2|2,0:0|0:0,0:0:0:0:
348,234,96609,2,0,P|352:269|347:321,1,62.3999971435548,6|2,0:0|0:0,0:0:0:0:
283,356,96763,101,10,0:0:0:0:
241,367,96839,1,2,0:0:0:0:
199,357,96916,1,6,0:0:0:0:
166,328,96993,1,2,0:0:0:0:
150,288,97070,1,6,0:0:0:0:
141,245,97147,1,2,0:0:0:0:
155,204,97224,1,10,0:0:0:0:
188,176,97302,1,2,0:0:0:0:
216,143,97378,1,6,0:0:0:0:
226,101,97455,1,2,0:0:0:0:
213,60,97532,1,6,0:0:0:0:
182,29,97609,1,2,0:0:0:0:
140,20,97686,86,0,L|149:104,1,62.3999971435548,6|0,0:0|0:0,0:0:0:0:
401,141,97840,2,0,L|394:203,1,62.3999971435548,6|0,0:0|0:0,0:0:0:0:
387,265,98148,6,0,L|393:202,1,62.3999971435548,6|0,0:0|0:0,0:0:0:0:
398,284,98456,2,0,L|404:221,1,62.3999971435548,6|0,0:0|0:0,0:0:0:0:
411,300,98763,6,0,L|429:146,1,124.79999428711,6|4,0:0|3:3,0:0:0:0:
413,132,98994,1,4,3:0:0:0:
388,96,99071,1,4,3:0:0:0:
349,76,99147,1,8,3:0:0:0:
306,75,99225,6,0,B|253:98|253:98|162:86,1,124.79999428711,10|6,0:0|0:0,0:0:0:0:
104,60,99456,1,0,0:0:0:0:
104,60,99532,2,0,P|109:98|109:145,1,62.3999971435548,2|0,0:0|0:0,0:0:0:0:
259,245,99686,2,0,P|254:207|254:160,1,62.3999971435548,10|0,0:0|0:0,0:0:0:0:
244,13,99840,1,2,0:0:0:0:
78,204,99994,102,0,B|135:223|174:181|174:181|208:193|208:193|234:180|265:183,1,187.199991430664,6|0,0:0|0:0,0:0:0:0:
332,146,100302,1,6,0:0:0:0:
355,150,100379,1,4,0:0:0:0:
372,166,100456,2,0,P|365:204|372:243,1,62.3999971435548,10|0,0:0|0:0,0:0:0:0:
247,325,100609,2,0,P|254:287|247:248,1,62.3999971435548,6|0,0:0|0:0,0:0:0:0:
195,48,100763,6,0,L|212:122,1,62.3999971435548,10|0,0:0|0:0,0:0:0:0:
143,311,100917,2,0,L|126:237,1,62.3999971435548,6|0,0:0|0:0,0:0:0:0:
58,108,101071,1,10,0:0:0:0:
252,182,101225,102,0,P|325:164|355:122,1,124.79999428711,6|10,0:0|0:0,0:0:0:0:
436,90,101456,1,2,0:0:0:0:
436,90,101532,2,0,P|435:128|437:160,1,62.3999971435548,6|4,0:0|0:0,0:0:0:0:
272,100,101686,2,0,P|273:62|271:30,1,62.3999971435548,6|2,0:0|0:0,0:0:0:0:
362,245,101840,2,0,P|361:283|363:315,1,62.3999971435548,10|2,0:0|0:0,0:0:0:0:
252,182,101994,5,6,0:0:0:0:
209,172,102071,1,6,0:0:0:0:
167,182,102147,1,10,0:0:0:0:
135,210,102224,1,6,0:0:0:0:
124,257,102302,101,10,0:0:0:0:
109,236,102378,1,6,0:0:0:0:
98,214,102455,1,6,0:0:0:0:
93,189,102532,1,6,0:0:0:0:
94,167,102609,5,10,0:0:0:0:
123,131,102686,1,10,0:0:0:0:
165,112,102762,1,6,0:0:0:0:
212,115,102839,1,6,0:0:0:0:
252,138,102917,1,10,0:0:0:0:
277,177,102993,1,10,0:0:0:0:
317,200,103071,1,6,0:0:0:0:
364,201,103148,1,6,0:0:0:0:
405,180,103225,69,10,0:0:0:0:
360,138,103301,1,10,0:0:0:0:
300,125,103378,1,10,0:0:0:0:
242,145,103455,1,10,0:0:0:0:
203,193,103532,1,14,0:0:0:0:
194,254,103609,1,14,0:0:0:0:
219,311,103686,1,14,0:0:0:0:
269,346,103763,1,14,0:0:0:0:
330,351,103840,53,2,0:0:0:0:
