osu file format v14

[General]
AudioFilename: audio.mp3
AudioLeadIn: 0
PreviewTime: 83506
Countdown: 0
SampleSet: Soft
StackLeniency: 0.7
Mode: 0
LetterboxInBreaks: 0
WidescreenStoryboard: 1

[Editor]
Bookmarks: 10276,20122,22583,42276,44737,54583,62276,64430,74276,84122,103814,113660
DistanceSpacing: 0.93
BeatDivisor: 4
GridSize: 32
TimelineZoom: 2.3

[Metadata]
Title:Altros
TitleUnicode:Altros
Artist:ARForest
ArtistUnicode:ARForest
Creator:Down
Version:Easy
Source:
Tags:omc ofc contest helloscv dailycare milr_ [_white_music_] len fast cellina reana taeyang
BeatmapID:1395685
BeatmapSetID:658433

[Difficulty]
HPDrainRate:2
CircleSize:3
OverallDifficulty:2
ApproachRate:3
SliderMultiplier:0.899999999999999
SliderTickRate:1

[Events]
//Background and Video events
0,0,"bg.jpg",0,0
//Break Periods
2,20348,21169
2,42502,43323
2,64656,72862
//Storyboard Layer 0 (Background)
//Storyboard Layer 1 (Fail)
//Storyboard Layer 2 (Pass)
//Storyboard Layer 3 (Foreground)
//Storyboard Sound Samples

[TimingPoints]
456,307.692307692308,4,2,1,40,1,0
10302,-100,4,2,2,40,0,0
10379,-100,4,2,1,40,0,0
10917,-100,4,2,2,40,0,0
10994,-100,4,2,1,40,0,0
15840,-100,4,2,2,40,0,0
15917,-100,4,2,1,40,0,0
20148,-100,4,2,2,40,0,0
22609,-100,4,1,3,58,0,1
42302,-100,4,1,3,40,0,0
74302,-100,4,2,1,50,0,0
84148,-100,4,1,3,70,0,1
103840,-100,4,2,2,30,0,0

[Colours]
Combo1 : 255,164,164
Combo2 : 141,100,251
Combo3 : 70,112,255
Combo4 : 123,123,123
Combo5 : 225,225,225
Combo6 : 157,241,253
Combo7 : 255,200,237
Combo8 : 255,51,51
SliderTrackOverride : 40,40,40

[HitObjects]
189,194,10302,38,0,P|160:160|179:64,2,135,2|0|0,0:0|0:0|0:0,0:0:0:0:
236,125,11532,1,0,0:0:0:0:
276,199,11840,2,0,L|260:293,1,89.9999999999999,8|4,0:0|0:0,0:0:0:0:
323,343,12456,1,0,0:0:0:0:
395,301,12763,6,0,P|433:261|434:137,1,180,8|4,0:0|0:0,0:0:0:0:
361,105,13686,1,0,0:0:0:0:
288,63,13994,2,0,P|275:104|290:152,2,89.9999999999999,0|8|4,0:0|0:0|0:0,0:0:0:0:
360,21,14917,1,0,0:0:0:0:
361,106,15225,102,0,P|369:173|316:228,2,135,8|0|0,0:0|0:0|0:0,0:0:0:0:
287,148,16456,1,0,0:0:0:0:
243,219,16763,2,0,L|134:212,1,89.9999999999999,8|4,0:0|0:0,0:0:0:0:
78,251,17379,1,0,0:0:0:0:
81,167,17686,6,0,B|56:48|56:48|113:88,1,180,8|4,0:0|0:0,0:0:0:0:
171,131,18609,1,0,0:0:0:0:
244,88,18917,2,0,B|256:133|256:133|237:188,1,89.9999999999999,0|8,0:0|0:0,0:0:0:0:
168,215,19532,2,0,B|156:260|156:260|175:315,1,89.9999999999999,4|8,0:0|0:0,0:0:0:0:
243,257,20148,101,2,0:0:0:0:
243,257,22609,86,0,L|225:346,2,89.9999999999999,4|8|4,0:0|0:0|0:0,0:0:0:0:
187,194,23532,1,0,0:0:0:0:
222,117,23840,2,8,P|176:109|132:128,1,89.9999999999999,0|8,0:0|0:0,0:0:0:0:
86,57,24456,2,0,P|56:92|51:140,1,89.9999999999999,0|8,0:0|0:0,0:0:0:0:
102,200,25071,6,0,P|60:276|120:354,1,180,4|0,0:0|0:0,0:0:0:0:
143,273,25994,1,0,0:0:0:0:
222,299,26302,2,0,P|276:274|323:283,1,89.9999999999999,0|8,0:0|0:0,0:0:0:0:
363,336,26917,2,0,P|387:298|384:252,1,89.9999999999999,8|4,0:0|0:0,0:0:0:0:
324,196,27532,102,0,L|344:95,2,89.9999999999999,4|8|4,0:0|0:0|0:0,0:0:0:0:
305,276,28456,1,0,0:0:0:0:
242,221,28763,2,0,P|197:225|148:191,1,89.9999999999999,0|8,0:0|0:0,0:0:0:0:
104,268,29379,2,0,P|78:231|82:171,1,89.9999999999999,0|8,0:0|0:0,0:0:0:0:
133,125,29994,6,0,P|273:77|293:157,1,270,0|4,0:0|0:0,0:0:0:0:
242,221,31225,2,0,P|231:262|260:320,2,89.9999999999999,8|8|8,0:0|0:0|0:0,0:0:0:0:
316,259,32148,1,4,0:0:0:0:
370,195,32456,102,0,L|387:106,2,89.9999999999999,4|8|4,0:0|0:0|0:0,0:0:0:0:
401,272,33379,1,0,0:0:0:0:
448,340,33686,2,0,P|409:355|355:340,1,89.9999999999999,0|8,0:0|0:0,0:0:0:0:
290,303,34302,2,0,P|246:293|205:308,1,89.9999999999999,0|8,0:0|0:0,0:0:0:0:
137,357,34917,6,0,B|117:332|114:295|114:295|157:244|119:181,1,180,4|0,0:0|0:0,0:0:0:0:
54,236,35840,1,0,0:0:0:0:
49,152,36148,2,0,P|84:116|139:109,1,89.9999999999999,0|8,0:0|0:0,0:0:0:0:
120,23,36763,2,0,P|168:35|202:79,1,89.9999999999999,8|4,0:0|0:0,0:0:0:0:
199,147,37379,102,0,L|304:135,2,89.9999999999999,4|8|4,0:0|0:0|0:0,0:0:0:0:
126,104,38302,1,0,0:0:0:0:
92,180,38609,2,0,B|81:225|81:225|96:278,1,89.9999999999999,0|8,0:0|0:0,0:0:0:0:
166,310,39225,2,0,B|177:265|177:265|162:212,1,89.9999999999999,0|8,0:0|0:0,0:0:0:0:
199,147,39840,6,0,B|286:122|286:122|373:143|373:143|321:129|279:177,1,270,0|4,0:0|0:0,0:0:0:0:
352,221,41071,2,0,P|398:222|441:187,2,89.9999999999999,8|8|8,0:0|0:0|0:0,0:0:0:0:
271,245,41994,1,8,0:0:0:0:
332,302,42302,5,4,0:0:0:0:
332,302,44763,118,0,P|352:236|311:167,1,135,4|4,0:0|0:0,0:0:0:0:
325,178,47225,6,0,L|188:192,1,135,4|4,0:0|0:0,0:0:0:0:
190,191,49686,102,0,P|170:257|211:326,1,135,4|4,0:0|0:0,0:0:0:0:
197,315,52148,6,0,L|334:301,1,135,4|4,0:0|0:0,0:0:0:0:
331,301,54609,6,0,B|351:224|351:224|323:172,1,135,4|4,0:0|0:0,0:0:0:0:
262,232,55379,1,4,0:0:0:0:
245,150,55686,2,0,P|273:107|313:94,1,89.9999999999999,8|4,0:0|0:0,0:0:0:0:
389,119,56302,2,0,L|459:242,1,135,8|8,0:0|0:0,0:0:0:0:
507,302,57071,6,0,P|447:279|371:301,1,135,4|4,0:0|0:0,0:0:0:0:
318,351,57840,1,4,0:0:0:0:
242,314,58148,2,0,P|224:275|241:214,1,89.9999999999999,8|4,0:0|0:0,0:0:0:0:
298,180,58763,2,0,P|321:101|286:51,1,135,4|4,0:0|0:0,0:0:0:0:
240,121,59532,102,0,L|97:110,1,135,4|4,0:0|0:0,0:0:0:0:
40,56,60302,1,4,0:0:0:0:
24,138,60609,2,0,B|13:183|13:183|26:246,1,89.9999999999999,8|4,0:0|0:0,0:0:0:0:
72,292,61225,2,0,B|122:281|122:281|159:289|159:289|215:279,1,135,8|8,0:0|0:0,0:0:0:0:
267,225,61994,6,0,P|287:264|282:308,2,89.9999999999999,4|4|8,0:0|0:0|0:0,0:0:0:0:
186,200,62917,1,4,0:0:0:0:
248,143,63225,2,0,L|264:47,1,89.9999999999999,4|4,0:0|0:0,0:0:0:0:
346,56,63840,2,0,L|360:144,1,89.9999999999999,8|8,0:0|0:0,0:0:0:0:
383,225,64456,69,0,0:0:0:0:
246,214,74302,118,0,L|391:233,2,135,2|2|2,0:0|0:0|0:0,0:0:0:0:
177,261,75532,2,0,B|161:221|161:221|172:169,1,89.9999999999999,2|0,0:0|0:0,0:0:0:0:
243,132,76148,2,0,B|259:92|259:92|248:40,1,89.9999999999999,2|0,0:0|0:0,0:0:0:0:
174,85,76763,6,0,P|130:102|84:96,2,89.9999999999999,2|0|0,0:0|0:0|0:0,0:0:0:0:
121,19,77686,1,2,0:0:0:0:
38,33,77994,2,0,P|6:87|69:177,1,180,2|0,0:0|0:0,0:0:0:0:
114,242,78917,1,2,0:0:0:0:
189,205,79225,102,0,P|197:250|93:325,1,180,2|0,0:0|0:0,0:0:0:0:
28,226,80302,2,0,L|2:126,2,89.9999999999999,2|2|2,0:0|0:0|0:0,0:0:0:0:
104,326,81379,1,2,0:0:0:0:
162,266,81686,6,0,P|201:253|265:263,1,89.9999999999999,2|0,0:0|0:0,0:0:0:0:
284,180,82302,2,0,P|318:206|338:267,1,89.9999999999999,2|0,0:0|0:0,0:0:0:0:
303,325,82917,2,0,B|375:349|420:296|419:252|419:252|421:132,1,270,2|0,0:0|0:0,0:0:0:0:
376,72,84148,70,0,P|420:60|479:82,2,89.9999999999999,4|8|0,0:0|0:0|0:0,0:0:0:0:
334,144,85071,1,0,0:0:0:0:
260,103,85379,2,0,B|207:108|132:89|132:89|163:98|180:133,1,180,0|4,0:0|0:0,0:0:0:0:
103,167,86302,1,0,0:0:0:0:
25,132,86609,6,0,P|18:176|36:217,1,89.9999999999999,0|8,0:0|0:0,0:0:0:0:
113,249,87225,2,0,P|120:292|102:333,1,89.9999999999999,4|4,0:0|0:0,0:0:0:0:
178,373,87840,2,0,P|200:317|178:197,1,180,0|8,0:0|0:0,0:0:0:0:
103,167,88763,1,8,0:0:0:0:
171,118,89071,102,0,B|210:88|255:100|255:100|291:140|343:129,1,180
323,47,89994,1,0,0:0:0:0:
401,76,90302,2,0,P|419:117|408:169,1,89.9999999999999,0|8,0:0|0:0,0:0:0:0:
489,192,90917,2,0,P|462:228|411:244,1,89.9999999999999,4|0,0:0|0:0,0:0:0:0:
345,207,91532,5,0,0:0:0:0:
295,274,91840,1,8,0:0:0:0:
211,264,92148,2,0,P|185:224|187:171,1,89.9999999999999,4|4,0:0|0:0,0:0:0:0:
253,136,92763,2,0,B|263:94|263:94|246:41,1,89.9999999999999,0|8,0:0|0:0,0:0:0:0:
172,14,93379,2,0,B|162:56|162:56|179:109,1,89.9999999999999,4|4,0:0|0:0,0:0:0:0:
183,182,93994,102,0,L|91:177,2,89.9999999999999,4|8|0,0:0|0:0|0:0,0:0:0:0:
265,200,94917,1,0,0:0:0:0:
297,122,95225,2,0,B|335:141|346:173|346:173|352:113|400:74,1,180,0|4,0:0|0:0,0:0:0:0:
468,41,96148,1,0,0:0:0:0:
470,124,96456,6,0,B|426:147|427:202|427:202|461:231|461:276|461:276|428:302|370:288,1,270,0|4,0:0|0:0,0:0:0:0:
303,246,97686,2,0,P|247:231|178:288,1,135,4|4,0:0|0:0,0:0:0:0:
257,315,98456,1,4,0:0:0:0:
183,354,98763,102,0,L|48:331,1,135,4|8,0:0|0:0,0:0:0:0:
16,254,99532,1,0,0:0:0:0:
70,190,99840,1,0,0:0:0:0:
14,127,100148,2,0,P|51:109|106:114,1,89.9999999999999,0|8,0:0|0:0,0:0:0:0:
169,156,100763,2,0,P|206:174|261:169,1,89.9999999999999,8|8,0:0|0:0,0:0:0:0:
312,110,101379,6,0,L|288:16,2,89.9999999999999,8|4|4,0:0|0:0|0:0,0:0:0:0:
371,169,102302,1,8,0:0:0:0:
431,110,102609,2,0,L|455:16,2,89.9999999999999,8|8|8,0:0|0:0|0:0,0:0:0:0:
477,179,103532,1,12,0:0:0:0:
418,238,103840,5,2,0:0:0:0:
